<?xml version="1.0" standalone="no"?>
<!DOCTYPE svg PUBLIC "-//W3C//DTD SVG 1.1//EN" "http://www.w3.org/Graphics/SVG/1.1/DTD/svg11.dtd" >
<svg xmlns="http://www.w3.org/2000/svg" xmlns:xlink="http://www.w3.org/1999/xlink" version="1.1">
<metadata>
Created by FontForge 20170731 at Tue Jun  8 08:01:13 2021
 By Aleksey,,,
Copyright (c) 2017 by Kastelov. All rights reserved.
</metadata>
<defs>
<font id="Axiforma-Black" horiz-adv-x="1306" >
  <font-face 
    font-family="Axiforma Black"
    font-weight="900"
    font-stretch="normal"
    units-per-em="2048"
    panose-1="0 0 9 0 0 0 0 0 0 0"
    ascent="1585"
    descent="-463"
    x-height="1128"
    cap-height="1513"
    bbox="-1008 -774 2673 2204"
    underline-thickness="102"
    underline-position="-307"
    unicode-range="U+000D-25CA"
  />
<missing-glyph horiz-adv-x="266" 
 />
    <glyph glyph-name="f_b" unicode="fb" horiz-adv-x="2353" 
d="M745 1315q-76 0 -120.5 -43.5t-44.5 -122.5v-19h348v-299h-348v-831h-361v831h-160v299h160q1 247 117 370.5t330 123.5q178 0 331 -84l-75 -276q-96 51 -177 51zM1726 1159q244 0 402 -168q162 -168 162 -426q0 -255 -160 -426q-158 -168 -401 -168q-195 0 -320 131
v-102h-348v1563h360v-521q123 117 305 117zM1663 303q112 0 185 75.5t73 188.5q0 108 -74 185q-71 77 -184 77q-110 0 -184 -77q-72 -78 -72 -185q0 -113 73 -188.5t183 -75.5z" />
    <glyph glyph-name="f_f" unicode="ff" horiz-adv-x="1832" 
d="M1647 1315q-86 0 -133.5 -44t-47.5 -124v-17h344v-299h-344v-831h-360v831h-526v-831h-359v831h-162v299h162v21q0 233 139.5 355.5t378.5 117.5q192 -3 359 -90l-111 -274q-110 55 -196 55q-94 0 -152.5 -44.5t-58.5 -121.5v-19h526v21q0 228 132 350.5t355 122.5
q166 0 355 -98l-121 -266q-113 55 -180 55z" />
    <glyph glyph-name="f_f_i" unicode="ffi" horiz-adv-x="2459" 
d="M2167 1235q-91 0 -150 58t-59 149q0 87 60.5 146t148.5 59t147.5 -58.5t59.5 -146.5q0 -90 -59.5 -148.5t-147.5 -58.5zM1468 1149v-19h379v-299h-379v-831h-362v831h-526v-831h-361v831h-160v299h160v21q0 235 143 354t369 119q176 0 373 -90l-111 -277q-137 58 -213 58
q-89 0 -144.5 -45t-55.5 -123v-17h526q1 243 123.5 368.5t341.5 125.5q179 0 332 -84l-95 -276q-146 74 -243 40t-97 -155zM2347 0h-362v1130h362v-1130z" />
    <glyph glyph-name="f_f_j" unicode="ffj" horiz-adv-x="2457" 
d="M2165 1235q-91 0 -150 58t-59 149q0 87 60.5 146t148.5 59t148.5 -59t60.5 -146q0 -90 -60 -148.5t-149 -58.5zM1833 1130v-299h-367v-831h-360v831h-526v-831h-361v831h-160v299h160v21q0 234 141 354q143 119 369 119q192 0 361 -90l-99 -277q-119 58 -209 58
q-89 0 -145.5 -45.5t-56.5 -122.5v-17h526q1 243 123 368.5t340 125.5q179 0 332 -84l-95 -276q-92 51 -174 51q-76 0 -121 -44t-45 -122v-19h367zM1982 47v1083h363v-1120q0 -248 -135 -368q-132 -123 -344 -123q-202 0 -303 67l65 281q103 -35 170 -35q90 0 137 55t47 160
z" />
    <glyph glyph-name="f_h" unicode="fh" horiz-adv-x="2306" 
d="M745 1315q-76 0 -120.5 -43.5t-44.5 -122.5v-19h348v-299h-348v-831h-361v831h-160v299h160q1 246 117.5 370t331.5 124q178 0 331 -84l-77 -276q-96 51 -177 51zM1767 1161q183 0 310 -121t127 -346v-694h-363v598q0 110 -53 171.5t-146 61.5q-99 0 -160 -66.5
t-61 -174.5v-590h-360v1563h352v-586q43 79 139.5 131.5t214.5 52.5z" />
    <glyph glyph-name="f_i" unicode="fi" horiz-adv-x="1572" 
d="M1278 1233q-88 0 -148.5 59.5t-60.5 147.5q0 87 61 147t148 60q90 0 149.5 -59.5t59.5 -147.5t-59.5 -147.5t-149.5 -59.5zM745 1315q-76 0 -120.5 -43.5t-44.5 -122.5v-19h348v-299h-348v-831h-361v831h-160v299h160q1 243 123 368.5t340 125.5q179 0 332 -84l-92 -276
q-96 51 -177 51zM1458 0h-362v1130h362v-1130z" />
    <glyph glyph-name="f_j" unicode="fj" horiz-adv-x="1572" 
d="M1278 1233q-88 0 -148.5 59.5t-60.5 147.5q0 87 61 147t148 60q90 0 149.5 -59.5t59.5 -147.5t-59.5 -147.5t-149.5 -59.5zM942 1130v-299h-362v-831h-361v831h-160v299h160q1 243 123 368.5t340 125.5q179 0 332 -84l-92 -276q-96 51 -177 51q-76 0 -120.5 -43.5
t-44.5 -122.5v-19h362zM1096 47v1083h362v-1120q0 -248 -135 -368q-132 -123 -344 -123q-199 0 -303 67l67 281q100 -35 168 -35q90 0 137.5 55t47.5 160z" />
    <glyph glyph-name="f_k" unicode="fk" horiz-adv-x="2203" 
d="M745 1315q-76 0 -120.5 -43.5t-44.5 -122.5v-19h348v-299h-348v-831h-361v831h-160v299h160q6 494 443 494q176 0 335 -84l-75 -276q-96 51 -177 51zM2238 0h-430l-333 449l-54 -50v-399h-360v1563h360v-760l340 327h441l-486 -454z" />
    <glyph glyph-name="f_l" unicode="fl" horiz-adv-x="1536" 
d="M745 1315q-76 0 -120.5 -43.5t-44.5 -122.5v-19h348v-299h-348v-831h-361v831h-160v299h160q6 494 455 494q168 0 321 -84l-73 -276q-96 51 -177 51zM1061 0v1563h360v-1563h-360z" />
    <glyph glyph-name=".notdef" horiz-adv-x="266" 
 />
    <glyph glyph-name=".null" horiz-adv-x="0" 
 />
    <glyph glyph-name="nonmarkingreturn" horiz-adv-x="682" 
 />
    <glyph glyph-name="CR.001" horiz-adv-x="266" 
 />
    <glyph glyph-name="CR.001" horiz-adv-x="266" 
 />
    <glyph glyph-name="CR" unicode="&#xd;" horiz-adv-x="681" 
 />
    <glyph glyph-name="space" unicode=" " horiz-adv-x="505" 
 />
    <glyph glyph-name="exclam" unicode="!" horiz-adv-x="673" 
d="M506 461h-324l-22 1102h372zM348 -27q-85 0 -143 56.5t-58 140.5q0 82 58 138.5t143 56.5q78 0 134.5 -57t56.5 -138q0 -84 -55.5 -140.5t-135.5 -56.5z" />
    <glyph glyph-name="quotedbl" unicode="&#x22;" horiz-adv-x="1269" 
d="M410 846h-353l191 661h409zM1010 846h-353l191 661h409z" />
    <glyph glyph-name="numbersign" unicode="#" horiz-adv-x="1593" 
d="M1534 1202l-59 -303h-199l-53 -278h198l-57 -306h-199l-61 -315h-365l64 315h-195l-63 -315h-367l68 315h-183l62 306h186l60 278h-193l58 303h200l68 311h350l-63 -311h190l63 311h351l-60 -311h199zM672 621h192l58 278h-193z" />
    <glyph glyph-name="dollar" unicode="$" horiz-adv-x="1253" 
d="M1178 457q0 -170 -98.5 -292t-264.5 -167v-227h-346v217q-260 59 -412 288l240 250q59 -84 147.5 -138t176.5 -54q61 0 97 27.5t36 72.5q0 36 -24.5 61t-84.5 56l-147 72q-128 68 -164 94q-203 141 -203 368q0 163 91 276.5t251 156.5v208h346v-202q171 -41 328 -174
l-189 -285q-170 123 -305 123q-61 0 -95 -26t-34 -68q0 -36 37 -68l35 -25l96 -49l117 -57q119 -58 166 -88q203 -129 203 -350z" />
    <glyph glyph-name="percent" unicode="%" horiz-adv-x="1886" 
d="M453 782q-166 0 -281 109q-115 112 -115 266q0 156 115 268q113 113 281 113q165 0 278 -113q117 -111 117 -268q0 -155 -117 -266q-115 -109 -278 -109zM561 0h-342l1094 1513h342zM590 1161q0 56 -41 95.5t-96 39.5t-95.5 -39.5t-40.5 -95.5q0 -59 40.5 -98t95.5 -39
t96 39t41 98zM1432 -25q-165 0 -279 111q-115 112 -115 264q0 156 115 268q113 113 279 113q167 0 280 -113q117 -111 117 -268q0 -153 -117 -264q-114 -111 -280 -111zM1432 217q57 0 97 38.5t40 98.5q0 56 -40.5 95.5t-96.5 39.5q-55 0 -95.5 -39.5t-40.5 -95.5
q0 -59 40.5 -98t95.5 -39z" />
    <glyph glyph-name="ampersand" unicode="&#x26;" horiz-adv-x="1447" 
d="M1245 340l195 -174l-203 -213l-193 180q-194 -156 -450 -156q-244 0 -389 127q-144 129 -144 320q0 261 263 426q-88 137 -88 291q0 153 120 276q123 123 334 123q172 0 291 -104q119 -101 119 -248q0 -133 -83 -225.5t-257 -184.5l47 -45l223 -201l21 21q45 47 147 180
l215 -182q-100 -138 -168 -211zM670 1268q-59 0 -94 -39.5t-35 -100.5q0 -70 41 -141q103 50 148.5 89.5t45.5 88.5q0 44 -29 73.5t-77 29.5zM614 285q117 0 203 57l-242 225l-63 60q-90 -75 -90 -170q0 -74 53 -123t139 -49z" />
    <glyph glyph-name="quotesingle" unicode="'" horiz-adv-x="669" 
d="M410 846h-353l191 661h409z" />
    <glyph glyph-name="parenleft" unicode="(" horiz-adv-x="899" 
d="M893 -166l-170 -287q-325 167 -493.5 436.5t-168.5 618.5q0 352 171 620.5t507 434.5l156 -293q-436 -270 -436 -760q0 -244 106 -430t328 -340z" />
    <glyph glyph-name="parenright" unicode=")" horiz-adv-x="899" 
d="M176 -453l-170 287q222 154 329 341t107 429q0 488 -438 760l156 293q336 -166 507 -434.5t171 -620.5q0 -349 -168.5 -618.5t-493.5 -436.5z" />
    <glyph glyph-name="asterisk" unicode="*" horiz-adv-x="1071" 
d="M537 950l-197 -233l-195 174l185 205l-267 112l103 236l246 -117l-13 285h273l-13 -285l248 117l101 -234l-265 -114l181 -205l-195 -174z" />
    <glyph glyph-name="plus" unicode="+" horiz-adv-x="1243" 
d="M793 879h385v-338h-385v-385l-338 -6v391h-389v338h389v387h338v-387z" />
    <glyph glyph-name="comma" unicode="," horiz-adv-x="569" 
d="M281 356q92 0 152.5 -65.5t60.5 -165.5q0 -260 -365 -502l-102 135q65 50 94 76q92 71 131 141h-4q-69 0 -121.5 54.5t-52.5 126.5q0 86 60 143t147 57z" />
    <glyph glyph-name="hyphen" unicode="-" horiz-adv-x="1105" 
d="M995 399h-882v336h882v-336z" />
    <glyph glyph-name="period" unicode="." horiz-adv-x="532" 
d="M270 -33q-85 0 -142.5 56.5t-57.5 140.5q0 82 57.5 137t142.5 55q80 0 136.5 -56.5t56.5 -135.5q0 -84 -56.5 -140.5t-136.5 -56.5z" />
    <glyph glyph-name="slash" unicode="/" horiz-adv-x="1478" 
d="M444 -252h-411l997 1942h414z" />
    <glyph glyph-name="zero" unicode="0" horiz-adv-x="1423" 
d="M711 -25q-295 0 -463 213q-166 214 -166 570t166 567q167 215 463 215q298 0 465 -215q165 -210 165 -567t-165 -570q-168 -213 -465 -213zM965 758q0 193 -66 308.5t-186 115.5q-121 0 -187.5 -115.5t-66.5 -308.5q0 -196 66 -310t188 -114t187 114.5t65 309.5z" />
    <glyph glyph-name="one" unicode="1" horiz-adv-x="907" 
d="M-16 1130l499 383h275v-1513h-369v1014l-217 -158z" />
    <glyph glyph-name="two" unicode="2" horiz-adv-x="1220" 
d="M776 492l-139 -144h489v-350h-1020v317l459 473l29 29q25 25 59 64q18 22 47 71q21 41 21 82q0 62 -45.5 103t-112.5 41q-139 0 -321 -164l-205 274q258 252 567 252q223 0 367 -135q147 -132 147 -334q0 -132 -82 -265.5t-260 -313.5z" />
    <glyph glyph-name="three" unicode="3" horiz-adv-x="1175" 
d="M528 -25q-265 0 -514 150l154 303q182 -102 334 -102q93 0 145.5 37.5t52.5 99.5q0 56 -47.5 91.5t-124.5 35.5h-196v340h149q86 0 135.5 35t49.5 92t-45.5 91t-118.5 34q-117 0 -275 -107l-178 275q214 190 506 190q207 0 350 -113q144 -114 144 -280q0 -115 -70 -203.5
t-180 -128.5v-8q140 -32 218.5 -134t78.5 -241q0 -202 -158 -330q-157 -127 -410 -127z" />
    <glyph glyph-name="four" unicode="4" horiz-adv-x="1296" 
d="M1063 639h158v-311h-158v-328h-352v328h-635l-74 252l764 933h297v-874zM711 1022l-308 -383h308v383z" />
    <glyph glyph-name="five" unicode="5" horiz-adv-x="1230" 
d="M649 967q217 0 363 -131q149 -131 149 -347q0 -220 -160 -368q-158 -146 -428 -146q-281 0 -524 156l137 307q196 -112 367 -112q107 0 167 47t60 119q0 67 -57 111t-143 44q-124 0 -230 -86l-209 193l78 759h838v-352h-557l-23 -219q92 25 172 25z" />
    <glyph glyph-name="six" unicode="6" horiz-adv-x="1327" 
d="M750 977q220 0 360 -137q143 -134 143 -346q0 -219 -157 -367q-157 -145 -410 -145q-147 1 -264.5 58t-192 156.5t-112.5 231t-35 283.5q0 330 164 571q81 120 216 189t300 69q237 0 444 -139l-168 -285q-124 80 -256 80q-141 0 -231 -92.5t-111 -249.5q108 123 310 123z
M686 303q82 0 136.5 53t54.5 131q0 75 -54.5 126t-134.5 51q-83 0 -137.5 -49t-54.5 -128t55 -131.5t135 -52.5z" />
    <glyph glyph-name="seven" unicode="7" horiz-adv-x="1107" 
d="M45 1157v356h1012v-276l-502 -1237h-395l475 1157h-590z" />
    <glyph glyph-name="eight" unicode="8" horiz-adv-x="1318" 
d="M662 -25q-264 0 -426 125q-160 127 -160 324q0 129 74.5 233t199.5 148v4q-97 44 -154 127.5t-57 193.5q0 181 144 295q145 115 379 115q231 0 376 -115q144 -114 144 -295q0 -218 -213 -321v-6q124 -43 199 -146.5t75 -232.5q0 -197 -160 -324q-158 -125 -421 -125z
M659 944q79 0 127 40t48 103q0 62 -49 103t-126 41q-78 0 -127 -41t-49 -103q0 -64 47.5 -103.5t128.5 -39.5zM662 309q87 0 141.5 45t54.5 113q0 70 -55 113q-51 45 -144 45q-90 0 -145 -43q-53 -44 -53 -113q0 -70 55.5 -115t145.5 -45z" />
    <glyph glyph-name="nine" unicode="9" horiz-adv-x="1308" 
d="M633 1540q287 0 440 -205q156 -203 156 -520q0 -225 -72 -416q-71 -187 -225 -305q-155 -119 -377 -119q-249 0 -436 140l137 278q137 -84 272 -84q133 0 217.5 83.5t110.5 236.5q-115 -86 -291 -86q-214 0 -352 135q-139 139 -139 348q0 225 153 369q157 145 406 145z
M627 856q60 -4 107.5 29.5t67 83t11 105.5t-50.5 93q-52 52 -133 52t-135 -51t-54 -132q0 -79 53.5 -129.5t133.5 -50.5z" />
    <glyph glyph-name="colon" unicode=":" horiz-adv-x="595" 
d="M303 686q-85 0 -143 56.5t-58 140.5q0 82 58 137t143 55q80 0 136.5 -56.5t56.5 -135.5q0 -84 -56.5 -140.5t-136.5 -56.5zM303 -33q-85 0 -143 56.5t-58 140.5q0 82 58 137t143 55q80 0 136.5 -56.5t56.5 -135.5q0 -84 -56.5 -140.5t-136.5 -56.5z" />
    <glyph glyph-name="semicolon" unicode=";" horiz-adv-x="632" 
d="M324 682q-87 0 -148 59.5t-61 145.5q0 84 61 142t148 58q82 0 141 -58t59 -142q0 -86 -59 -145.5t-141 -59.5zM309 356q92 0 152.5 -65.5t60.5 -165.5q0 -260 -364 -502l-103 135q72 55 95 76q92 71 131 141h-5q-69 0 -121.5 54.5t-52.5 126.5q0 86 60 143t147 57z" />
    <glyph glyph-name="less" unicode="&#x3c;" horiz-adv-x="1116" 
d="M997 432v-358l-938 434v299l938 432v-352l-551 -225z" />
    <glyph glyph-name="equal" unicode="=" horiz-adv-x="1187" 
d="M1067 741h-946v291h946v-291zM1067 311h-946v289h946v-289z" />
    <glyph glyph-name="greater" unicode="&#x3e;" horiz-adv-x="1105" 
d="M1049 508l-934 -440v360l538 229l-538 224v352l934 -436v-289z" />
    <glyph glyph-name="question" unicode="?" horiz-adv-x="1191" 
d="M723 446h-352v121q0 89 34 165.5t89 129.5q21 20 60 54t62 56t49.5 52t39 59.5t12.5 59.5q0 61 -41.5 97t-108.5 36q-142 0 -299 -189l-225 248q218 283 555 283q237 0 375 -129q139 -130 139 -320q0 -92 -38 -171.5t-99 -137.5q-19 -16 -57 -48.5t-59.5 -51t-51 -49
t-45 -54.5t-27.5 -54.5t-12 -61.5v-95zM553 -27q-83 0 -141 56.5t-58 140.5q0 82 57.5 138.5t141.5 56.5q81 0 136.5 -56.5t55.5 -138.5q0 -84 -56 -140.5t-136 -56.5z" />
    <glyph glyph-name="at" unicode="@" horiz-adv-x="1966" 
d="M1155 932v69h266v-501q0 -109 72 -109q57 0 106 82q52 82 52 205q0 263 -191 436q-190 175 -459 166q-283 -6 -481 -207q-194 -200 -194 -483q0 -294 204 -498q206 -203 496 -203q134 0 277 49t251 128l115 -199q-107 -89 -276 -150q-180 -65 -373 -65q-264 0 -481 129
q-215 125 -340 342q-123 217 -123 471q0 386 270 653q272 269 666 269q392 0 641 -240q252 -237 252 -580q0 -246 -131 -401q-132 -156 -326 -156q-172 0 -246 142q-109 -142 -297 -142q-178 0 -297 125t-119 320q0 190 117 319t297 129q159 0 252 -100zM958 391
q80 0 136.5 57t56.5 138q0 82 -56 140t-134 58q-80 0 -136.5 -56t-56.5 -140q0 -82 56 -139.5t134 -57.5z" />
    <glyph glyph-name="A" unicode="A" horiz-adv-x="1460" 
d="M1452 0h-393l-88 276h-482l-90 -276h-395l553 1513h356zM586 608h293l-144 449z" />
    <glyph glyph-name="B" unicode="B" horiz-adv-x="1447" 
d="M1094 831q137 -35 211.5 -138t74.5 -247q0 -193 -135 -319q-136 -127 -352 -127h-743v1513h708q211 0 326 -112q116 -110 116 -262q0 -101 -57.5 -188.5t-148.5 -119.5zM786 1190h-262v-256h246q76 0 116 36t40 93q0 53 -38 90t-102 37zM524 328h287q86 0 131 42.5
t45 106.5q0 66 -44.5 109t-123.5 43h-295v-301z" />
    <glyph glyph-name="C" unicode="C" horiz-adv-x="1548" 
d="M852 -23q-328 0 -555 216q-223 216 -223 559q0 344 225 565q226 223 555 223q200 0 371.5 -80.5t277.5 -218.5l-243 -256q-177 189 -381 189q-174 0 -293 -119q-117 -120 -117 -301q0 -175 117 -295q120 -117 291 -117q224 0 389 195l254 -244q-105 -138 -281 -227
t-387 -89z" />
    <glyph glyph-name="D" unicode="D" horiz-adv-x="1597" 
d="M760 0h-610v1513h616q354 0 553 -202q201 -204 201 -555q0 -350 -203 -553q-200 -203 -557 -203zM532 1147v-780h246q167 0 254 112q90 116 90 279q0 160 -90 276q-88 113 -254 113h-246z" />
    <glyph glyph-name="E" unicode="E" horiz-adv-x="1349" 
d="M1241 0h-1091v1513h1093v-354h-708v-223h655v-352h-655v-230h706v-354z" />
    <glyph glyph-name="F" unicode="F" horiz-adv-x="1284" 
d="M532 0h-382v1513h1075v-358h-693v-252h613v-354h-613v-549z" />
    <glyph glyph-name="G" unicode="G" horiz-adv-x="1656" 
d="M872 -23q-349 0 -577 220q-223 219 -223 559q0 342 231 563q235 221 582 221q174 0 331.5 -60t264.5 -161l-244 -285q-158 140 -356 140q-185 0 -301 -119q-117 -120 -117 -295q0 -171 115 -295q114 -123 303 -123q97 0 190 34t150 87v131h-344v328h690v-656
q-298 -289 -695 -289z" />
    <glyph glyph-name="H" unicode="H" horiz-adv-x="1597" 
d="M532 0h-382v1513h382v-577h531v577h385v-1513h-385v569h-531v-569z" />
    <glyph glyph-name="I" unicode="I" horiz-adv-x="684" 
d="M150 0v1513h385v-1513h-385z" />
    <glyph glyph-name="J" unicode="J" horiz-adv-x="1239" 
d="M489 -25q-300 0 -493 181l164 307q139 -121 289 -121q129 0 202.5 80.5t73.5 216.5v874h383v-886q0 -139 -33.5 -250t-90.5 -185t-136.5 -123.5t-168.5 -71.5t-190 -22z" />
    <glyph glyph-name="K" unicode="K" horiz-adv-x="1474" 
d="M1499 0h-467l-336 545l-164 -199v-346h-382v1513h382v-622l478 622h463l-525 -669z" />
    <glyph glyph-name="L" unicode="L" horiz-adv-x="1296" 
d="M1270 0h-1120v1513h385v-1148h735v-365z" />
    <glyph glyph-name="M" unicode="M" horiz-adv-x="1953" 
d="M524 0h-374v1513h282l545 -778l543 778h284v-1513h-379v727l-378 -530h-144l-379 530v-727z" />
    <glyph glyph-name="N" unicode="N" horiz-adv-x="1650" 
d="M1124 692v821h377v-1513h-289l-688 811v-811h-374v1513h274z" />
    <glyph glyph-name="O" unicode="O" horiz-adv-x="1726" 
d="M864 -25q-338 0 -567 226q-225 225 -225 555t227 557t563 227q338 0 565 -227q228 -228 228 -557q0 -327 -228 -555q-226 -226 -563 -226zM862 354q168 0 283 115t115 289q-3 176 -119 289q-114 114 -279 114q-166 0 -280 -117q-115 -115 -115 -286q0 -174 115 -289
t280 -115z" />
    <glyph glyph-name="P" unicode="P" horiz-adv-x="1359" 
d="M150 1513h602q289 0 428 -151q141 -150 141 -375q0 -224 -145 -369q-143 -143 -451 -143h-193v-475h-382v1513zM532 819h211q88 0 136.5 48.5t48.5 123.5t-49 123.5t-127 48.5h-220v-344z" />
    <glyph glyph-name="Q" unicode="Q" horiz-adv-x="1726" 
d="M1653 2l53 -309q-162 -55 -315 -55q-410 0 -635 346q-298 40 -492 258q-192 216 -192 516q0 328 227 555t565 227q336 0 563 -227q228 -228 228 -557q0 -244 -129 -437q-125 -192 -340 -282q83 -74 229 -74q114 0 238 39zM575 1051q-116 -119 -116 -295t116 -295
q120 -117 289 -117q170 0 287 117q117 120 117 295t-117 295q-115 118 -287 118q-171 0 -289 -118z" />
    <glyph glyph-name="R" unicode="R" horiz-adv-x="1435" 
d="M1386 0h-438l-266 502h-150v-502h-382v1513h630q274 0 414 -143q141 -141 141 -358q0 -147 -70 -267t-206 -184zM776 1163h-244v-327h230q115 -6 160 79.5t0 170.5t-146 77z" />
    <glyph glyph-name="S" unicode="S" horiz-adv-x="1310" 
d="M643 -27q-377 0 -616 263l192 280q190 -190 430 -190q73 0 121.5 29t48.5 81q0 70 -123 117l-135 45q-149 55 -192 78q-250 133 -250 393q0 201 157 334t406 133q309 0 539 -190l-179 -291q-67 55 -167 90t-187 35q-76 0 -119 -28t-43 -71q0 -65 121 -112l133 -49
q98 -35 174 -66q289 -123 289 -397q0 -210 -164 -348q-165 -136 -436 -136z" />
    <glyph glyph-name="T" unicode="T" horiz-adv-x="1282" 
d="M449 0v1145h-420v368h1224v-368h-417v-1145h-387z" />
    <glyph glyph-name="U" unicode="U" horiz-adv-x="1515" 
d="M133 588v925h385v-919q0 -124 65 -188t175 -64q107 0 172 65.5t65 186.5v919h387v-925q0 -130 -35 -235t-94 -174.5t-139.5 -117t-169 -68t-186.5 -20.5q-97 0 -185.5 20.5t-169.5 68t-140.5 117t-94.5 174.5t-35 235z" />
    <glyph glyph-name="V" unicode="V" horiz-adv-x="1558" 
d="M782 557l332 956h440l-602 -1513h-342l-610 1513h444z" />
    <glyph glyph-name="W" unicode="W" horiz-adv-x="2238" 
d="M858 0h-369l-487 1513h424l258 -946l299 946h272l301 -946l256 946h424l-487 -1513h-367l-262 881z" />
    <glyph glyph-name="X" unicode="X" horiz-adv-x="1439" 
d="M446 0h-444l471 764l-432 749h440l240 -462l262 462h444l-462 -749l452 -764h-438l-262 477z" />
    <glyph glyph-name="Y" unicode="Y" horiz-adv-x="1456" 
d="M999 1513h449l-530 -1005v-508h-381v508l-525 1005h451l264 -579z" />
    <glyph glyph-name="Z" unicode="Z" horiz-adv-x="1386" 
d="M1307 0h-1229v289l690 876h-666v348h1182v-301l-672 -864h695v-348z" />
    <glyph glyph-name="bracketleft" unicode="[" horiz-adv-x="894" 
d="M848 -465h-711v2126h711v-332h-342v-1462h342v-332z" />
    <glyph glyph-name="backslash" unicode="\" horiz-adv-x="1443" 
d="M446 1690l965 -1942h-407l-969 1942h411z" />
    <glyph glyph-name="bracketright" unicode="]" horiz-adv-x="894" 
d="M758 -465h-711v332h342v1462h-342v332h711v-2126z" />
    <glyph glyph-name="asciicircum" unicode="^" horiz-adv-x="1144" 
d="M416 883h-355l385 714h256l383 -714h-352l-160 344z" />
    <glyph glyph-name="underscore" unicode="_" horiz-adv-x="1222" 
d="M1223 -426h-1223v336h1223v-336z" />
    <glyph glyph-name="grave" unicode="`" horiz-adv-x="749" 
d="M469 1645l131 -375h-326l-192 375h387z" />
    <glyph glyph-name="a" unicode="a" horiz-adv-x="1404" 
d="M950 1028v102h340v-1130h-340v98q-139 -127 -334 -127q-241 0 -397 172q-156 173 -156 426q0 255 156 422q155 168 397 168q197 0 334 -131zM946 567q0 109 -76 185q-77 77 -186 77q-112 0 -186 -77t-74 -185q0 -111 74 -188q78 -78 186 -78t186 78q76 76 76 188z" />
    <glyph glyph-name="b" unicode="b" horiz-adv-x="1404" 
d="M780 1159q244 0 402 -168q161 -167 161 -426q0 -257 -159 -426q-158 -168 -402 -168q-194 0 -319 131v-102h-348v1563h360v-521q123 117 305 117zM717 303q112 0 185 75.5t73 188.5q0 108 -74 185q-71 77 -184 77q-111 0 -185 -77q-71 -77 -71 -185q0 -113 73 -188.5
t183 -75.5z" />
    <glyph glyph-name="c" unicode="c" horiz-adv-x="1243" 
d="M664 -25q-266 0 -435 166q-166 166 -166 426q0 261 168 426q169 166 439 166q180 0 323.5 -86t214.5 -244l-288 -151q-86 145 -242 145q-113 0 -186 -73q-72 -75 -72 -183q0 -112 72.5 -186t181.5 -74q78 0 144 40t97 106l289 -172q-74 -142 -217.5 -224t-322.5 -82z" />
    <glyph glyph-name="d" unicode="d" horiz-adv-x="1396" 
d="M922 1042v521h362v-1563h-352v98q-127 -127 -316 -127q-240 0 -395 168q-158 172 -158 426q0 252 158 424q159 170 395 170q183 0 306 -117zM678 301q112 0 185 76.5t73 189.5q0 111 -73 186.5t-185 75.5q-110 0 -184 -77t-74 -185q0 -113 74 -190q73 -76 184 -76z" />
    <glyph glyph-name="e" unicode="e" 
d="M1247 594q0 -68 -12 -145h-807q62 -179 277 -179q186 0 342 105l141 -244q-218 -156 -500 -156q-299 0 -463 170q-162 171 -162 420q0 256 168 424q170 170 437 170q250 0 415 -151q164 -150 164 -414zM668 870q-186 0 -244 -174h479q-23 83 -84 128.5t-151 45.5z" />
    <glyph glyph-name="f" unicode="f" horiz-adv-x="946" 
d="M764 1315q-86 0 -135 -44.5t-49 -123.5v-17h346v-299h-346v-831h-361v831h-160v299h160v25q0 232 135 352q136 121 351 121q182 0 374 -98l-121 -270q-113 55 -194 55z" />
    <glyph glyph-name="g" unicode="g" horiz-adv-x="1394" 
d="M956 1036v94h326v-1021q0 -269 -182 -428q-183 -160 -461 -160q-303 0 -535 170l132 264q197 -129 389 -129q148 0 230.5 72t82.5 188v25q-119 -113 -315 -113q-254 0 -406 162q-154 165 -154 415q0 258 164 422q162 162 412 162q188 0 317 -123zM940 571q0 110 -73 183
t-183 73q-111 0 -183.5 -72t-72.5 -184q0 -113 73 -187.5t183 -74.5t183 74.5t73 187.5z" />
    <glyph glyph-name="h" unicode="h" horiz-adv-x="1357" 
d="M475 0h-360v1563h352v-586q43 79 139.5 131.5t214.5 52.5q182 0 309 -121t127 -346v-694h-362v598q0 110 -53 171.5t-146 61.5q-99 0 -160 -66.5t-61 -174.5v-590z" />
    <glyph glyph-name="i" unicode="i" horiz-adv-x="589" 
d="M303 1231q-91 0 -150 59t-59 150q0 87 60.5 146t148.5 59t147.5 -58.5t59.5 -146.5q0 -90 -59.5 -149.5t-147.5 -59.5zM485 1130v-1130h-362v1130h362z" />
    <glyph glyph-name="j" unicode="j" horiz-adv-x="638" 
d="M344 1231q-91 0 -150 59t-59 150q0 87 60.5 146t148.5 59t147.5 -58.5t59.5 -146.5q0 -90 -59.5 -149.5t-147.5 -59.5zM47 -481q-202 0 -303 67l66 281q103 -35 170 -35q90 0 137 55t47 160v1083h362v-1120q0 -248 -135 -368q-132 -123 -344 -123z" />
    <glyph glyph-name="k" unicode="k" horiz-adv-x="1257" 
d="M1292 0h-430l-334 449l-53 -50v-399h-360v1563h360v-760l340 327h440l-485 -454z" />
    <glyph glyph-name="l" unicode="l" horiz-adv-x="587" 
d="M475 1563v-1563h-360v1563h360z" />
    <glyph glyph-name="m" unicode="m" horiz-adv-x="2099" 
d="M1528 1163q197 0 332 -123q137 -119 137 -350v-690h-363v618q0 103 -51.5 158t-136.5 55q-94 0 -152.5 -60.5t-58.5 -164.5v-606h-361v618q0 99 -53.5 156t-140.5 57q-90 0 -147.5 -60.5t-57.5 -164.5v-606h-360v1130h352v-157q47 87 144 139.5t206 50.5q227 -3 313 -188
q62 90 168 139t230 49z" />
    <glyph glyph-name="n" unicode="n" horiz-adv-x="1359" 
d="M475 0h-360v1130h352v-157q43 82 138.5 135t215.5 53q182 0 309 -121t127 -346v-694h-362v598q0 110 -53 171.5t-146 61.5q-99 0 -160 -66.5t-61 -176.5v-588z" />
    <glyph glyph-name="o" unicode="o" horiz-adv-x="1353" 
d="M676 -31q-273 0 -445 172q-170 173 -170 424t170 424q171 174 445 174q276 0 444 -174q172 -172 172 -424t-172 -424q-169 -172 -444 -172zM676 307q108 0 182 74q74 77 74 186q0 110 -76 183q-73 73 -180 73q-108 0 -180 -75q-74 -74 -74 -181q0 -109 74 -186
q74 -74 180 -74z" />
    <glyph glyph-name="p" unicode="p" horiz-adv-x="1411" 
d="M797 1159q241 0 397 -172q156 -169 156 -420q0 -246 -158 -424q-156 -172 -393 -172q-190 0 -322 123v-559h-362v1595h356v-104q133 133 326 133zM981 563q0 111 -72 185.5t-182 74.5t-183 -74.5t-73 -185.5q0 -106 72 -184q73 -76 184 -76q112 0 182 76q72 78 72 184z
" />
    <glyph glyph-name="q" unicode="q" horiz-adv-x="1411" 
d="M940 1028v102h358v-1595h-362v561q-131 -125 -324 -125q-237 0 -393 172q-156 175 -156 424t154 420q156 172 397 172q192 0 326 -131zM686 303q110 0 180 76q74 77 74 184q0 111 -72 185.5t-182 74.5q-112 0 -184 -74.5t-72 -185.5q0 -106 72 -184q70 -76 184 -76z" />
    <glyph glyph-name="r" unicode="r" horiz-adv-x="913" 
d="M475 0h-360v1130h346v-139q108 170 301 170q71 0 141 -31l-29 -344q-79 27 -149 27q-250 0 -250 -326v-487z" />
    <glyph glyph-name="s" unicode="s" horiz-adv-x="1085" 
d="M539 -31q-295 0 -502 195l162 244q165 -142 338 -142q120 0 120 72q0 39 -61 63q-1 0 -7.5 2t-17 5.5t-24.5 8t-34 11t-42 14.5q-127 45 -156 58q-211 99 -211 307q0 158 127 258q124 100 340 100q241 0 422 -147l-155 -238q-145 97 -273 97q-44 0 -73 -18.5t-29 -45.5
q0 -55 102 -82q169 -48 266 -98q102 -51 147.5 -119.5t45.5 -167.5q0 -165 -131 -272q-132 -105 -354 -105z" />
    <glyph glyph-name="t" unicode="t" horiz-adv-x="999" 
d="M897 352l96 -289q-157 -92 -360 -92q-420 0 -420 467v393h-172v299h176v402h358v-402h355v-299h-355v-350q0 -180 144 -180q82 0 178 51z" />
    <glyph glyph-name="u" unicode="u" horiz-adv-x="1288" 
d="M100 494v636h363v-641q0 -85 49 -136.5t131 -51.5q84 0 133 51.5t49 136.5v641h363v-636q0 -249 -145 -386t-400 -137t-399 137t-144 386z" />
    <glyph glyph-name="v" unicode="v" horiz-adv-x="1273" 
d="M643 485l229 645h396l-486 -1128h-290l-484 1128h398z" />
    <glyph glyph-name="w" unicode="w" horiz-adv-x="1857" 
d="M717 2h-322l-385 1128h381l195 -657l215 657h254l219 -657l192 657h381l-385 -1128h-321l-213 600z" />
    <glyph glyph-name="x" unicode="x" horiz-adv-x="1204" 
d="M844 567l346 -567h-418l-172 332l-186 -332h-412l356 569l-311 561h412l145 -307l172 307h400z" />
    <glyph glyph-name="y" unicode="y" horiz-adv-x="1298" 
d="M674 481l223 649h391l-438 -1132q-95 -242 -225.5 -360.5t-321.5 -118.5q-144 0 -244 63l70 297q74 -39 147 -39q135 0 218 164l6 14l-492 1112h416z" />
    <glyph glyph-name="z" unicode="z" horiz-adv-x="1150" 
d="M1059 870l-490 -573h512v-297h-1011v254l505 577h-483v297h967v-258z" />
    <glyph glyph-name="braceleft" unicode="{" horiz-adv-x="892" 
d="M467 594v-6q78 -22 133 -84t55 -150q0 -44 -12 -164q-12 -117 -12 -163q0 -140 137 -140h51v-360h-180q-387 0 -387 403q0 33 10 156t10 166q0 104 -53.5 143t-181.5 45v308q128 6 181.5 45t53.5 143q0 41 -10 168q-10 130 -10 172q0 193 100 289t312 96h155v-361h-51
q-137 0 -137 -139q0 -48 12 -168t12 -164q0 -87 -54.5 -148t-133.5 -87z" />
    <glyph glyph-name="bar" unicode="|" horiz-adv-x="647" 
d="M510 -367h-373v2102h373v-2102z" />
    <glyph glyph-name="braceright" unicode="}" horiz-adv-x="892" 
d="M426 588v6q-80 25 -135 86.5t-55 148.5q0 44 12 164q14 112 14 168q0 139 -137 139h-51v361h155q212 0 312 -96t100 -289q0 -42 -10 -172q-10 -127 -10 -168q0 -104 53.5 -143t181.5 -45v-308q-128 -6 -181.5 -45t-53.5 -143q0 -43 10 -166t10 -156q0 -403 -385 -403
h-182v360h51q137 0 137 140q0 54 -14 163q-12 120 -12 164q0 88 55 150t135 84z" />
    <glyph glyph-name="asciitilde" unicode="~" horiz-adv-x="1482" 
d="M967 442q-69 0 -144.5 20t-129 44.5t-108.5 44.5t-87 20q-44 0 -85.5 -29.5t-107.5 -109.5l-231 189q66 130 179.5 201t254.5 71q67 0 142.5 -20t129 -43.5t110.5 -43.5t91 -20q46 0 87.5 32t105.5 122l239 -197q-165 -281 -446 -281z" />
    <glyph glyph-name="exclamdown" unicode="&#xa1;" horiz-adv-x="595" 
d="M338 1079q80 0 135 -56t55 -140q0 -81 -56 -138t-134 -57q-85 0 -143 56.5t-58 138.5q0 84 58 140t143 56zM150 -510l22 1102h324l26 -1102h-372z" />
    <glyph glyph-name="cent" unicode="&#xa2;" horiz-adv-x="1284" 
d="M762 813v-496q118 38 164 136l288 -172q-67 -124 -184 -202t-268 -97v-154h-180v154q-229 27 -369 188q-139 165 -139 397q0 234 139 394q137 162 369 192v150h180v-148q155 -19 275 -103t182 -223l-289 -151q-57 100 -168 135zM430 567q0 -81 41 -145.5t111 -93.5v475
q-69 -29 -110.5 -93t-41.5 -143z" />
    <glyph glyph-name="sterling" unicode="&#xa3;" horiz-adv-x="1232" 
d="M1022 610h-395q-9 -135 -107 -260h621v-350h-1032v293q134 155 149 317h-166v277h113q-29 116 -29 194q0 192 152 326q151 133 358 133q153 0 284 -67t193 -173l-233 -237q-73 113 -203 113q-75 0 -123.5 -46t-48.5 -118q0 -45 25 -125h442v-277z" />
    <glyph glyph-name="currency" unicode="&#xa4;" horiz-adv-x="1331" 
d="M1157 752q0 -134 -72 -244l162 -158l-157 -160l-166 166q-119 -67 -265 -67q-142 0 -253 63l-162 -162l-158 160l156 154q-74 115 -74 248q0 147 86 268l-168 166l158 157l180 -178q112 56 235 56q136 0 246 -58l185 180l157 -157l-172 -170q82 -119 82 -264zM659 543
q90 0 151.5 62.5t61.5 150.5q0 89 -61 150t-152 61q-87 0 -146.5 -61.5t-59.5 -149.5t59.5 -150.5t146.5 -62.5z" />
    <glyph glyph-name="yen" unicode="&#xa5;" horiz-adv-x="1499" 
d="M1018 1513h430l-322 -626h146v-273h-285l-39 -75h324v-275h-332v-264h-383v264h-332v275h326l-39 75h-287v273h148l-318 626h432l263 -604z" />
    <glyph glyph-name="brokenbar" unicode="&#xa6;" horiz-adv-x="647" 
d="M510 889h-373v846h373v-846zM137 479h373v-846h-373v846z" />
    <glyph glyph-name="section" unicode="&#xa7;" horiz-adv-x="1351" 
d="M1280 440q0 -175 -139 -293q61 -91 61 -202q0 -187 -153 -316q-152 -131 -398 -131q-372 0 -585 287l235 252q62 -80 157 -132t185 -52q65 0 103 26t38 68q0 51 -69 94q-44 28 -72 41l-43 18q-34 19 -94 45q-87 39 -145 72.5t-123 83.5q-129 111 -129 272q0 170 139 297
q-64 94 -64 207q0 210 156 336q156 129 393 129q295 0 490 -219l-258 -246q-103 109 -224 109q-67 0 -110 -30.5t-43 -74.5q0 -52 71 -98q5 -2 31 -17t47 -24q27 -9 45 -18q15 -5 57.5 -23t43.5 -18q92 -41 147.5 -73t118.5 -83q131 -107 131 -287zM657 459q27 -13 88 -41
q76 -34 121 -56q21 27 21 54q0 35 -42 67.5t-140 79.5q-121 56 -199 96q-21 -30 -21 -55q0 -37 40.5 -69t131.5 -76z" />
    <glyph glyph-name="dieresis" unicode="&#xa8;" horiz-adv-x="1064" 
d="M86 1458q0 82 56.5 138.5t140.5 56.5t140 -56.5t56 -138.5q0 -86 -55.5 -141t-140.5 -55t-141 55t-56 141zM559 1458q0 82 57.5 138.5t141.5 56.5t140 -56.5t56 -138.5q0 -86 -55.5 -141t-140.5 -55t-142 55t-57 141z" />
    <glyph glyph-name="copyright" unicode="&#xa9;" horiz-adv-x="1722" 
d="M72 756q0 322 231 553t557 231t557 -231q232 -232 232 -553q0 -319 -232 -551q-230 -230 -557 -230t-557 230q-231 231 -231 551zM1448 756q0 242 -172 411q-172 172 -416 172q-242 0 -414 -172q-172 -169 -172 -411q0 -240 172 -412q173 -170 414 -170t414 170
q174 171 174 412zM868 332q-186 0 -307 121t-121 303q0 184 119 303q121 121 307 121q123 0 220.5 -58.5t150.5 -167.5l-184 -104q-77 102 -181 102q-85 0 -139.5 -55.5t-54.5 -140.5q0 -87 54 -143t138 -56q116 0 181 102l184 -118q-120 -209 -367 -209z" />
    <glyph glyph-name="ordfeminine" unicode="&#xaa;" horiz-adv-x="829" 
d="M401 1507q147 0 235.5 -82.5t88.5 -248.5v-377h-201v67q-76 -82 -211 -82q-114 0 -177.5 61.5t-63.5 160.5q0 108 83.5 163.5t229.5 55.5q7 0 57 -1t70 -1q-15 94 -139 94q-111 0 -207 -47l-66 164q140 73 301 73zM360 954q64 0 109 39t45 99q-31 -2 -115 -2
q-118 -3 -118 -72q0 -64 79 -64z" />
    <glyph glyph-name="guillemotleft" unicode="&#xab;" horiz-adv-x="1312" 
d="M709 180h-387l-267 416l269 416h385l-283 -416zM1233 180h-387l-268 416l270 416h385l-283 -416z" />
    <glyph glyph-name="logicalnot" unicode="&#xac;" horiz-adv-x="1228" 
d="M772 477h-655v332h983v-543h-328v211z" />
    <glyph glyph-name="uni00AD" unicode="&#xad;" horiz-adv-x="1005" 
d="M895 504h-782v336h782v-336z" />
    <glyph glyph-name="registered" unicode="&#xae;" horiz-adv-x="1257" 
d="M240 1458q165 160 389 160t389 -160q162 -158 162 -387t-162 -387q-165 -160 -389 -160t-389 160q-162 158 -162 387t162 387zM350 791q114 -117 279 -117q164 0 278 117q113 116 113 280q0 165 -113 281t-278 116q-166 0 -279 -116q-112 -115 -112 -281q0 -165 112 -280
zM844 1155q0 -100 -90 -147l98 -179h-152l-84 160h-51v-160h-141v494h246q75 0 124.5 -47.5t49.5 -120.5zM635 1208h-70v-106h68q63 0 63 55q0 51 -61 51z" />
    <glyph glyph-name="overscore" unicode="&#xaf;" horiz-adv-x="901" 
d="M784 1292l-702 -4v314h702v-310z" />
    <glyph glyph-name="degree" unicode="&#xb0;" horiz-adv-x="753" 
d="M51 1391q0 136 94 227q94 94 232 94q137 0 231 -94q94 -91 94 -227q0 -135 -94 -226q-95 -92 -231 -92q-137 0 -232 92q-94 91 -94 226zM377 1274q50 0 84.5 34t34.5 83t-34.5 82.5t-84.5 33.5q-48 0 -82.5 -33.5t-34.5 -82.5t34.5 -83t82.5 -34z" />
    <glyph glyph-name="plusminus" unicode="&#xb1;" 
d="M1204 1022v-330h-385v-315h385v-322h-1102v322h390v315h-390v330h390v387h327v-387h385z" />
    <glyph glyph-name="uni00B2" unicode="&#xb2;" horiz-adv-x="712" 
d="M526 1372l-135 -135h254v-199h-575v181l264 264q78 81 78 125q0 25 -20.5 42t-51.5 17q-76 0 -201 -119l-104 166q142 154 319 154q125 0 207 -72.5t82 -187.5q0 -119 -117 -236z" />
    <glyph glyph-name="uni00B3" unicode="&#xb3;" horiz-adv-x="686" 
d="M10 1108l90 176q115 -53 191 -53q102 0 102 63q0 29 -28.5 45.5t-73.5 16.5h-113v190h96q103 0 103 60q0 53 -86 53q-72 0 -152 -51l-108 161q123 99 288 99q122 0 205 -62q84 -63 84 -151q0 -65 -40.5 -113t-108.5 -69v-5q83 -18 127.5 -70.5t44.5 -123.5
q4 -81 -53 -142.5t-145.5 -88t-203.5 -11.5t-219 76z" />
    <glyph glyph-name="acute" unicode="&#xb4;" horiz-adv-x="759" 
d="M406 1270h-324l131 375h387z" />
    <glyph glyph-name="paragraph" unicode="&#xb6;" horiz-adv-x="1722" 
d="M561 1503h1073v-364h-168v-1555h-372v1555h-144v-1555h-372v948h-60q-203 0 -336 130q-129 129 -129 350q0 227 137 358q139 133 371 133z" />
    <glyph glyph-name="middot" unicode="&#xb7;" horiz-adv-x="559" 
d="M283 -33q-85 0 -143 56.5t-58 140.5q0 82 58 137t143 55q79 0 135.5 -56t56.5 -136q0 -84 -56 -140.5t-136 -56.5z" />
    <glyph glyph-name="cedilla" unicode="&#xb8;" horiz-adv-x="755" 
d="M516 37l-57 -137q95 -11 156 -69t61 -146q0 -106 -86 -183t-238 -77q-128 0 -270 65l72 197q85 -43 165 -43q99 0 99 65q0 68 -119 68h-109l-14 63l80 201z" />
    <glyph glyph-name="uni00B9" unicode="&#xb9;" horiz-adv-x="585" 
d="M8 1620l314 227h170v-809h-228v498l-139 -98z" />
    <glyph glyph-name="ordmasculine" unicode="&#xba;" horiz-adv-x="858" 
d="M59 1139q0 156 105 258q108 102 264 102q157 0 264 -104q107 -101 107 -256t-107 -256q-109 -103 -264 -103t-264 103q-105 102 -105 256zM428 993q67 0 109.5 42t42.5 104q0 63 -43 106t-109 43q-63 0 -106 -43t-43 -106t43 -104.5t106 -41.5z" />
    <glyph glyph-name="guillemotright" unicode="&#xbb;" horiz-adv-x="1312" 
d="M735 596l-268 -416h-387l282 416l-282 416h385zM1257 596l-266 -416h-387l283 416l-283 416h385z" />
    <glyph glyph-name="onequarter" unicode="&#xbc;" horiz-adv-x="1853" 
d="M537 711h-228v497l-139 -98l-117 182l314 228h170v-809zM215 0l1184 1513h280l-1181 -1513h-283zM1679 348h82v-178h-82v-170h-211v170h-352l-47 135l424 506h186v-463zM1468 545l-165 -197h165v197z" />
    <glyph glyph-name="onehalf" unicode="&#xbd;" horiz-adv-x="1814" 
d="M539 711h-228v497l-139 -98l-117 182l314 228h170v-809zM174 0l1184 1513h278l-1179 -1513h-283zM1610 334l-135 -135h254v-199h-576v180l264 264q78 81 78 125q0 25 -20.5 42.5t-51.5 17.5q-75 0 -200 -119l-105 166q141 153 320 153q125 0 206.5 -72.5t81.5 -187.5
q0 -119 -116 -235z" />
    <glyph glyph-name="threequarters" unicode="&#xbe;" horiz-adv-x="1753" 
d="M319 903q103 0 103 64q0 29 -28.5 45t-74.5 16h-112v191h96q103 0 103 59q0 53 -87 53q-71 0 -151 -51l-109 162q122 98 289 98q123 0 205 -61q84 -63 84 -152q0 -65 -41 -113t-109 -69v-4q83 -18 127.5 -71t44.5 -124q4 -81 -53 -142.5t-145 -88t-203 -11.5t-219 76
l90 176q115 -53 190 -53zM195 0l1183 1513h279l-1180 -1513h-282zM1374 811h187v-463h81v-178h-81v-170h-211v170h-353l-47 135zM1350 545l-166 -197h166v197z" />
    <glyph glyph-name="questiondown" unicode="&#xbf;" horiz-adv-x="1177" 
d="M629 1081q83 0 140.5 -56t57.5 -140q0 -82 -57 -138.5t-141 -56.5q-82 0 -137.5 56.5t-55.5 138.5q0 84 56.5 140t136.5 56zM459 608h352v-121q0 -89 -34 -165t-89 -129q-24 -24 -73.5 -67.5t-76 -69.5t-50 -66t-23.5 -78q0 -61 41 -97t108 -36q143 0 299 188l226 -248
q-217 -282 -555 -282q-237 0 -375 129q-139 130 -139 319q0 92 38 173t99 135q21 19 68 59t71.5 64t55 58.5t44 69t13.5 70.5v94z" />
    <glyph glyph-name="Agrave" unicode="&#xc0;" horiz-adv-x="1460" 
d="M768 2030l139 -402h-348l-205 402h414zM1452 0h-393l-88 276h-482l-90 -276h-395l553 1513h356zM586 608h293l-144 449z" />
    <glyph glyph-name="Aacute" unicode="&#xc1;" horiz-adv-x="1460" 
d="M711 2025h411l-207 -399h-344zM1452 0h-393l-88 276h-482l-90 -276h-395l553 1513h356zM586 608h293l-144 449z" />
    <glyph glyph-name="Acircumflex" unicode="&#xc2;" horiz-adv-x="1460" 
d="M862 1628l-129 184l-129 -184h-348l336 404h291l340 -404h-361zM1452 0h-393l-88 276h-482l-90 -276h-395l553 1513h356zM586 608h293l-144 449z" />
    <glyph glyph-name="Atilde" unicode="&#xc3;" horiz-adv-x="1460" 
d="M602 1714q-82 0 -141 -115l-238 119q74 145 154 211t194 66q74 0 160 -47q83 -45 119 -45q66 0 127 108l240 -115q-120 -278 -320 -278q-66 0 -162 47q-91 49 -133 49zM1452 0h-393l-88 276h-482l-90 -276h-395l553 1513h356zM586 608h293l-144 449z" />
    <glyph glyph-name="Adieresis" unicode="&#xc4;" horiz-adv-x="1460" 
d="M473 1616q-88 0 -147.5 58.5t-59.5 148.5q0 86 59.5 144t147.5 58q87 0 146 -58t59 -144q0 -90 -59 -148.5t-146 -58.5zM762 1823q0 86 60 144t147 58q88 0 147.5 -58t59.5 -144q0 -90 -59.5 -148.5t-147.5 -58.5t-147.5 58.5t-59.5 148.5zM1452 0h-393l-88 276h-482
l-90 -276h-395l553 1513h356zM586 608h293l-144 449z" />
    <glyph glyph-name="Aring" unicode="&#xc5;" horiz-adv-x="1460" 
d="M420 1894q0 131 92 220q93 90 225 90q133 0 226 -90q92 -89 92 -220q0 -126 -92 -215q-91 -88 -226 -88q-134 0 -225 88q-92 89 -92 215zM737 2007q-47 0 -78.5 -31t-31.5 -78q0 -45 31.5 -77.5t78.5 -32.5q44 0 76.5 33t32.5 77t-32.5 76.5t-76.5 32.5zM1452 0h-393
l-88 276h-482l-90 -276h-395l553 1513h356zM586 608h293l-144 449z" />
    <glyph glyph-name="AE" unicode="&#xc6;" horiz-adv-x="2207" 
d="M2101 1513v-354h-712v-223h659v-352h-659v-230h708v-354h-1098v285h-473l-155 -285h-414l891 1513h1253zM999 1143l-288 -525h288v525z" />
    <glyph glyph-name="Ccedilla" unicode="&#xc7;" horiz-adv-x="1546" 
d="M1264 537l254 -244q-89 -119 -232 -201t-311 -106l-37 -86q95 -11 156 -69t61 -146q0 -106 -86 -183t-238 -77q-128 0 -270 65l72 197q85 -43 166 -43q98 0 98 65q0 68 -119 68h-108l-15 63l60 148q-280 43 -463 250q-180 207 -180 514q0 344 225 565q226 223 555 223
q200 0 371.5 -80.5t277.5 -218.5l-244 -256q-177 189 -380 189q-174 0 -293 -119q-117 -120 -117 -301q0 -175 117 -295q117 -117 290 -117q225 0 390 195z" />
    <glyph glyph-name="Egrave" unicode="&#xc8;" horiz-adv-x="1349" 
d="M750 2030l139 -402h-348l-205 402h414zM1241 0h-1091v1513h1093v-354h-708v-223h655v-352h-655v-230h706v-354z" />
    <glyph glyph-name="Eacute" unicode="&#xc9;" horiz-adv-x="1349" 
d="M854 1626h-344l139 399h412zM1241 0h-1091v1513h1093v-354h-708v-223h655v-352h-655v-230h706v-354z" />
    <glyph glyph-name="Ecircumflex" unicode="&#xca;" horiz-adv-x="1349" 
d="M563 1628h-348l336 404h291l340 -404h-361l-129 184zM1241 0h-1091v1513h1093v-354h-708v-223h655v-352h-655v-230h706v-354z" />
    <glyph glyph-name="Edieresis" unicode="&#xcb;" horiz-adv-x="1349" 
d="M451 1616q-88 0 -147.5 58.5t-59.5 148.5q0 86 59.5 144t147.5 58q86 0 145 -58t59 -144q0 -90 -58.5 -148.5t-145.5 -58.5zM739 1823q0 86 60 144t147 58q88 0 147.5 -58t59.5 -144q0 -90 -59.5 -148.5t-147.5 -58.5t-147.5 58.5t-59.5 148.5zM1241 0h-1091v1513h1093
v-354h-708v-223h655v-352h-655v-230h706v-354z" />
    <glyph glyph-name="Igrave" unicode="&#xcc;" horiz-adv-x="684" 
d="M389 2032l139 -402h-348l-205 402h414zM152 0v1513h385v-1513h-385z" />
    <glyph glyph-name="Iacute" unicode="&#xcd;" horiz-adv-x="684" 
d="M504 1630h-344l139 400h412zM150 0v1513h385v-1513h-385z" />
    <glyph glyph-name="Icircumflex" unicode="&#xce;" horiz-adv-x="684" 
d="M213 1632h-348l336 404h291l339 -404h-360l-129 185zM152 0v1513h385v-1513h-385z" />
    <glyph glyph-name="Idieresis" unicode="&#xcf;" horiz-adv-x="684" 
d="M-113 1825q0 88 59.5 147.5t147.5 59.5t147.5 -59.5t59.5 -147.5q0 -90 -59.5 -148.5t-147.5 -58.5t-147.5 58.5t-59.5 148.5zM385 1825q0 87 61.5 147t149.5 60t147.5 -59.5t59.5 -147.5q0 -90 -59.5 -148.5t-147.5 -58.5q-89 0 -150 58.5t-61 148.5zM152 0v1513h385
v-1513h-385z" />
    <glyph glyph-name="Eth" unicode="&#xd0;" horiz-adv-x="1622" 
d="M176 1513h617q354 0 553 -202q200 -203 200 -555q0 -350 -203 -553q-200 -203 -557 -203h-610v608h-135v299h135v606zM559 367h246q167 0 254 112q90 116 90 279q0 160 -90 276q-88 113 -254 113h-246v-240h356v-299h-356v-241z" />
    <glyph glyph-name="Ntilde" unicode="&#xd1;" horiz-adv-x="1650" 
d="M567 1612l-237 119q74 145 154 210.5t194 65.5q74 0 160 -47q83 -45 118 -45q66 0 127 108l240 -114q-120 -279 -319 -279q-66 0 -162 47q-91 49 -133 49q-83 0 -142 -114zM1124 692v821h377v-1513h-289l-688 811v-811h-374v1513h274z" />
    <glyph glyph-name="Ograve" unicode="&#xd2;" horiz-adv-x="1726" 
d="M915 2030l140 -402h-348l-205 402h413zM864 -25q-338 0 -567 226q-225 225 -225 555t227 557t563 227q338 0 565 -227q228 -228 228 -557q0 -327 -228 -555q-226 -226 -563 -226zM862 354q168 0 283 115t115 289q-3 176 -119 289q-114 114 -279 114q-166 0 -280 -117
q-115 -115 -115 -286q0 -174 115 -289t280 -115z" />
    <glyph glyph-name="Oacute" unicode="&#xd3;" horiz-adv-x="1726" 
d="M1038 1626h-344l140 399h411zM864 -25q-338 0 -567 226q-225 225 -225 555t227 557t563 227q338 0 565 -227q228 -228 228 -557q0 -327 -228 -555q-226 -226 -563 -226zM862 354q168 0 283 115t115 289q-3 176 -119 289q-114 114 -279 114q-166 0 -280 -117
q-115 -115 -115 -286q0 -174 115 -289t280 -115z" />
    <glyph glyph-name="Ocircumflex" unicode="&#xd4;" horiz-adv-x="1726" 
d="M733 1628h-348l336 404h291l340 -404h-361l-129 184zM864 -25q-338 0 -567 226q-225 225 -225 555t227 557t563 227q338 0 565 -227q228 -228 228 -557q0 -327 -228 -555q-226 -226 -563 -226zM862 354q168 0 283 115t115 289q-3 176 -119 289q-114 114 -279 114
q-166 0 -280 -117q-115 -115 -115 -286q0 -174 115 -289t280 -115z" />
    <glyph glyph-name="Otilde" unicode="&#xd5;" horiz-adv-x="1726" 
d="M608 1599l-237 119q74 145 154 211t194 66q74 0 160 -47q83 -45 118 -45q65 0 127 108l240 -115q-120 -278 -320 -278q-65 0 -161 47q-91 49 -133 49q-83 0 -142 -115zM864 -25q-338 0 -567 226q-225 225 -225 555t227 557t563 227q338 0 565 -227q228 -228 228 -557
q0 -327 -228 -555q-226 -226 -563 -226zM862 354q168 0 283 115t115 289q-3 176 -119 289q-114 114 -279 114q-166 0 -280 -117q-115 -115 -115 -286q0 -174 115 -289t280 -115z" />
    <glyph glyph-name="Odieresis" unicode="&#xd6;" horiz-adv-x="1726" 
d="M618 1616q-88 0 -147 58.5t-59 148.5q0 86 59 144t147 58q87 0 146 -58t59 -144q0 -90 -59 -148.5t-146 -58.5zM907 1823q0 86 60 144t147 58q88 0 147.5 -58t59.5 -144q0 -90 -59.5 -148.5t-147.5 -58.5t-147.5 58.5t-59.5 148.5zM864 -25q-338 0 -567 226
q-225 225 -225 555t227 557t563 227q338 0 565 -227q228 -228 228 -557q0 -327 -228 -555q-226 -226 -563 -226zM862 354q168 0 283 115t115 289q-3 176 -119 289q-114 114 -279 114q-166 0 -280 -117q-115 -115 -115 -286q0 -174 115 -289t280 -115z" />
    <glyph glyph-name="multiply" unicode="&#xd7;" horiz-adv-x="1200" 
d="M897 1219l225 -218l-303 -305l303 -303l-217 -229l-309 309l-305 -309l-217 229l301 301l-299 299l215 228l305 -303z" />
    <glyph glyph-name="Oslash" unicode="&#xd8;" horiz-adv-x="1726" 
d="M1567 1501l-135 -192q223 -226 223 -553t-228 -555q-226 -226 -563 -226q-176 0 -325 64l-127 -180l-211 143l123 174q-119 106 -185.5 257.5t-66.5 322.5q0 330 227 557t563 227q189 0 365 -84l133 189zM467 758q0 -147 86 -256l448 635q-65 24 -139 24
q-166 0 -280 -117q-115 -115 -115 -286zM862 354q168 0 283 115t115 289q0 124 -62 219l-430 -612q64 -11 94 -11z" />
    <glyph glyph-name="Ugrave" unicode="&#xd9;" horiz-adv-x="1515" 
d="M809 2030l139 -402h-348l-205 402h414zM133 588v925h385v-919q0 -124 65 -188t175 -64q107 0 172 65.5t65 186.5v919h387v-925q0 -130 -35 -235t-94 -174.5t-139.5 -117t-169 -68t-186.5 -20.5q-97 0 -185.5 20.5t-169.5 68t-140.5 117t-94.5 174.5t-35 235z" />
    <glyph glyph-name="Uacute" unicode="&#xda;" horiz-adv-x="1515" 
d="M920 1626h-345l140 399h411zM133 588v925h385v-919q0 -124 65 -188t175 -64q107 0 172 65.5t65 186.5v919h387v-925q0 -130 -35 -235t-94 -174.5t-139.5 -117t-169 -68t-186.5 -20.5q-97 0 -185.5 20.5t-169.5 68t-140.5 117t-94.5 174.5t-35 235z" />
    <glyph glyph-name="Ucircumflex" unicode="&#xdb;" horiz-adv-x="1515" 
d="M627 1628h-348l335 404h291l340 -404h-360l-129 184zM133 588v925h385v-919q0 -124 65 -188t175 -64q107 0 172 65.5t65 186.5v919h387v-925q0 -130 -35 -235t-94 -174.5t-139.5 -117t-169 -68t-186.5 -20.5q-97 0 -185.5 20.5t-169.5 68t-140.5 117t-94.5 174.5t-35 235
z" />
    <glyph glyph-name="Udieresis" unicode="&#xdc;" horiz-adv-x="1515" 
d="M510 1616q-88 0 -147.5 58.5t-59.5 148.5q0 86 59.5 144t147.5 58q87 0 146 -58t59 -144q0 -90 -59 -148.5t-146 -58.5zM799 1823q0 86 60 144t147 58q88 0 147 -58t59 -144q0 -90 -59 -148.5t-147 -58.5t-147.5 58.5t-59.5 148.5zM133 588v925h385v-919q0 -124 65 -188
t175 -64q107 0 172 65.5t65 186.5v919h387v-925q0 -130 -35 -235t-94 -174.5t-139.5 -117t-169 -68t-186.5 -20.5q-97 0 -185.5 20.5t-169.5 68t-140.5 117t-94.5 174.5t-35 235z" />
    <glyph glyph-name="Yacute" unicode="&#xdd;" horiz-adv-x="1456" 
d="M891 1626h-344l139 399h412zM999 1513h449l-530 -1005v-508h-381v508l-525 1005h451l264 -579z" />
    <glyph glyph-name="Thorn" unicode="&#xde;" horiz-adv-x="1384" 
d="M532 1284h234q281 0 418 -149t137 -367q0 -217 -145 -362q-144 -144 -437 -144h-207v-262h-382v1513h382v-229zM532 610h218q86 0 131 46t45 116t-45 115t-123 45h-226v-322z" />
    <glyph glyph-name="germandbls" unicode="&#xdf;" horiz-adv-x="1402" 
d="M1069 813q126 -36 199 -144t73 -251q0 -195 -143 -326q-141 -129 -373 -129q-149 0 -264 47l66 301q59 -26 147 -26q92 0 147.5 44.5t55.5 119.5q0 178 -315 178v280q103 0 166 53.5t63 133.5q0 70 -48.5 115.5t-131.5 45.5q-110 0 -172 -83t-62 -230v-1304h-362v1339
q0 105 21.5 194t57.5 152.5t86 113.5t104 81t115.5 51.5t116.5 28.5t111 8q229 0 383 -133t154 -326q0 -222 -195 -334z" />
    <glyph glyph-name="agrave" unicode="&#xe0;" horiz-adv-x="1411" 
d="M739 1665l131 -375h-325l-193 375h387zM950 1028v102h340v-1130h-340v98q-139 -127 -334 -127q-241 0 -397 172q-156 173 -156 426q0 255 156 422q155 168 397 168q197 0 334 -131zM946 567q0 109 -76 185q-77 77 -186 77q-112 0 -186 -77t-74 -185q0 -111 74 -188
q78 -78 186 -78t186 78q76 76 76 188z" />
    <glyph glyph-name="aacute" unicode="&#xe1;" horiz-adv-x="1411" 
d="M668 1663h387l-195 -375h-323zM950 1028v102h340v-1130h-340v98q-139 -127 -334 -127q-241 0 -397 172q-156 173 -156 426q0 255 156 422q155 168 397 168q197 0 334 -131zM946 567q0 109 -76 185q-77 77 -186 77q-112 0 -186 -77t-74 -185q0 -111 74 -188
q78 -78 186 -78t186 78q76 76 76 188z" />
    <glyph glyph-name="acircumflex" unicode="&#xe2;" horiz-adv-x="1411" 
d="M823 1288l-121 172l-120 -172h-328l315 379h275l317 -379h-338zM950 1028v102h340v-1130h-340v98q-139 -127 -334 -127q-241 0 -397 172q-156 173 -156 426q0 255 156 422q155 168 397 168q197 0 334 -131zM946 567q0 109 -76 185q-77 77 -186 77q-112 0 -186 -77
t-74 -185q0 -111 74 -188q78 -78 186 -78t186 78q76 76 76 188z" />
    <glyph glyph-name="atilde" unicode="&#xe3;" horiz-adv-x="1411" 
d="M604 1370q-79 0 -137 -110l-227 114q69 139 146 202.5t187 63.5q74 0 154 -45q82 -43 115 -43q61 0 123 103l229 -109q-117 -268 -307 -268q-70 0 -156 45q-89 47 -127 47zM950 1028v102h340v-1130h-340v98q-139 -127 -334 -127q-241 0 -397 172q-156 173 -156 426
q0 255 156 422q155 168 397 168q197 0 334 -131zM946 567q0 109 -76 185q-77 77 -186 77q-112 0 -186 -77t-74 -185q0 -111 74 -188q78 -78 186 -78t186 78q76 76 76 188z" />
    <glyph glyph-name="adieresis" unicode="&#xe4;" horiz-adv-x="1411" 
d="M285 1460q0 82 56 138.5t140 56.5t140.5 -56.5t56.5 -138.5q0 -86 -56 -141t-141 -55t-140.5 55t-55.5 141zM758 1460q0 82 57 138.5t141 56.5t140.5 -56.5t56.5 -138.5q0 -86 -56 -141t-141 -55t-141.5 55t-56.5 141zM950 1028v102h340v-1130h-340v98
q-139 -127 -334 -127q-241 0 -397 172q-156 173 -156 426q0 255 156 422q155 168 397 168q197 0 334 -131zM946 567q0 109 -76 185q-77 77 -186 77q-112 0 -186 -77t-74 -185q0 -111 74 -188q78 -78 186 -78t186 78q76 76 76 188z" />
    <glyph glyph-name="aring" unicode="&#xe5;" horiz-adv-x="1411" 
d="M410 1536q0 122 86 205q89 86 213 86q125 0 211 -86q86 -83 86 -205q0 -120 -86 -203q-85 -82 -211 -82q-125 0 -213 82q-86 83 -86 203zM709 1640q-44 0 -74.5 -28.5t-30.5 -71.5t30.5 -73.5t74.5 -30.5q41 0 70.5 30.5t29.5 73.5q0 42 -29 71t-71 29zM950 1028v102h340
v-1130h-340v98q-139 -127 -334 -127q-241 0 -397 172q-156 173 -156 426q0 255 156 422q155 168 397 168q197 0 334 -131zM946 567q0 109 -76 185q-77 77 -186 77q-112 0 -186 -77t-74 -185q0 -111 74 -188q78 -78 186 -78t186 78q76 76 76 188z" />
    <glyph glyph-name="ae" unicode="&#xe6;" horiz-adv-x="1984" 
d="M1923 612q0 -90 -12 -151l-776 2q27 -93 95 -146t169 -53q163 0 317 109l150 -236q-210 -162 -490 -162q-300 0 -456 197q-156 -197 -439 -197q-199 0 -314.5 102t-115.5 265q0 188 152 272q154 86 391 86h190q-52 174 -254 174q-159 0 -325 -96l-107 248q97 60 225 96.5
t244 36.5q263 0 394 -168q162 168 415 168q233 0 389 -141q158 -143 158 -406zM1378 874q-87 0 -151 -45t-90 -129h471q-19 81 -80.5 127.5t-149.5 46.5zM526 264q90 0 160 50.5t98 150.5h-178q-219 0 -219 -103q0 -44 38 -71t101 -27z" />
    <glyph glyph-name="ccedilla" unicode="&#xe7;" horiz-adv-x="1243" 
d="M674 307q78 0 144 40t97 106l289 -172q-134 -250 -434 -297l-35 -84q95 -11 156 -69t61 -146q0 -106 -86 -183t-237 -77q-129 0 -271 65l72 197q85 -43 166 -43q98 0 98 65q0 68 -119 68h-108l-14 63l59 152q-206 47 -328 198q-121 157 -121 377q0 261 168 426
q169 166 439 166q180 0 323.5 -86t214.5 -244l-288 -151q-86 145 -242 145q-113 0 -186 -73q-72 -75 -72 -183q0 -112 72.5 -186t181.5 -74z" />
    <glyph glyph-name="egrave" unicode="&#xe8;" 
d="M717 1663l131 -375h-326l-192 375h387zM1247 594q0 -68 -12 -145h-807q62 -179 277 -179q186 0 342 105l141 -244q-218 -156 -500 -156q-299 0 -463 170q-162 171 -162 420q0 256 168 424q170 170 437 170q250 0 415 -151q164 -150 164 -414zM668 870q-186 0 -244 -174
h479q-23 83 -84 128.5t-151 45.5z" />
    <glyph glyph-name="eacute" unicode="&#xe9;" 
d="M610 1663h387l-194 -375h-324zM1247 594q0 -68 -12 -145h-807q62 -179 277 -179q186 0 342 105l141 -244q-218 -156 -500 -156q-299 0 -463 170q-162 171 -162 420q0 256 168 424q170 170 437 170q250 0 415 -151q164 -150 164 -414zM668 870q-186 0 -244 -174h479
q-23 83 -84 128.5t-151 45.5z" />
    <glyph glyph-name="ecircumflex" unicode="&#xea;" 
d="M784 1296l-120 172l-121 -172h-328l315 379h275l317 -379h-338zM1247 594q0 -68 -12 -145h-807q62 -179 277 -179q186 0 342 105l141 -244q-218 -156 -500 -156q-299 0 -463 170q-162 171 -162 420q0 256 168 424q170 170 437 170q250 0 415 -151q164 -150 164 -414z
M668 870q-186 0 -244 -174h479q-23 83 -84 128.5t-151 45.5z" />
    <glyph glyph-name="edieresis" unicode="&#xeb;" 
d="M254 1446q0 82 56.5 138t140.5 56t140 -56t56 -138q0 -86 -55.5 -141.5t-140.5 -55.5t-141 55.5t-56 141.5zM727 1446q0 82 57 138t142 56q84 0 140 -56t56 -138q0 -86 -55.5 -141.5t-140.5 -55.5t-142 55.5t-57 141.5zM1247 594q0 -68 -12 -145h-807q62 -179 277 -179
q186 0 342 105l141 -244q-218 -156 -500 -156q-299 0 -463 170q-162 171 -162 420q0 256 168 424q170 170 437 170q250 0 415 -151q164 -150 164 -414zM668 870q-186 0 -244 -174h479q-23 83 -84 128.5t-151 45.5z" />
    <glyph glyph-name="igrave" unicode="&#xec;" horiz-adv-x="598" 
d="M342 1663l131 -375h-326l-192 375h387zM485 1130v-1130h-362v1130h362z" />
    <glyph glyph-name="iacute" unicode="&#xed;" horiz-adv-x="581" 
d="M449 1288h-324l131 375h387zM477 1130v-1130h-362v1130h362z" />
    <glyph glyph-name="icircumflex" unicode="&#xee;" horiz-adv-x="589" 
d="M180 1292h-327l315 379h274l318 -379h-338l-121 172zM485 1130v-1130h-362v1130h362z" />
    <glyph glyph-name="idieresis" unicode="&#xef;" horiz-adv-x="589" 
d="M-131 1456q0 82 56.5 138.5t140.5 56.5t140 -56.5t56 -138.5q0 -86 -55.5 -141t-140.5 -55t-141 55t-56 141zM342 1456q0 82 57.5 138.5t141.5 56.5t140 -56.5t56 -138.5q0 -86 -55.5 -141t-140.5 -55t-142 55t-57 141zM485 1130v-1130h-362v1130h362z" />
    <glyph glyph-name="eth" unicode="&#xf0;" horiz-adv-x="1339" 
d="M1141 1532l-146 -107q273 -350 273 -720q0 -313 -183 -523q-183 -207 -467 -207q-245 0 -403 158q-156 156 -156 385q0 227 158 373q157 145 356 145q197 0 320 -159q-59 191 -178 340l-150 -111l-125 154l140 104q-92 89 -191 166l256 242q106 -79 221 -197l152 113z
M874 530q0 96 -65 160t-158 64q-98 0 -162.5 -66.5t-64.5 -163.5q0 -95 63.5 -161t159.5 -66q97 0 162 66.5t65 166.5z" />
    <glyph glyph-name="ntilde" unicode="&#xf1;" horiz-adv-x="1359" 
d="M442 1266l-227 114q69 139 146.5 203t187.5 64q73 0 153 -45q82 -43 115 -43q61 0 123 102l229 -109q-117 -268 -307 -268q-69 0 -155 45q-89 47 -127 47q-80 0 -138 -110zM475 0h-360v1130h352v-157q43 82 138.5 135t215.5 53q182 0 309 -121t127 -346v-694h-362v598
q0 110 -53 171.5t-146 61.5q-99 0 -160 -66.5t-61 -176.5v-588z" />
    <glyph glyph-name="ograve" unicode="&#xf2;" horiz-adv-x="1353" 
d="M721 1663l131 -375h-326l-192 375h387zM676 -31q-273 0 -445 172q-170 173 -170 424t170 424q171 174 445 174q276 0 444 -174q172 -172 172 -424t-172 -424q-169 -172 -444 -172zM676 307q108 0 182 74q74 77 74 186q0 110 -76 183q-73 73 -180 73q-108 0 -180 -75
q-74 -74 -74 -181q0 -109 74 -186q74 -74 180 -74z" />
    <glyph glyph-name="oacute" unicode="&#xf3;" horiz-adv-x="1353" 
d="M821 1288h-323l131 375h387zM676 -31q-273 0 -445 172q-170 173 -170 424t170 424q171 174 445 174q276 0 444 -174q172 -172 172 -424t-172 -424q-169 -172 -444 -172zM676 307q108 0 182 74q74 77 74 186q0 110 -76 183q-73 73 -180 73q-108 0 -180 -75
q-74 -74 -74 -181q0 -109 74 -186q74 -74 180 -74z" />
    <glyph glyph-name="ocircumflex" unicode="&#xf4;" horiz-adv-x="1353" 
d="M549 1290h-328l316 379h274l317 -379h-337l-121 172zM676 -31q-273 0 -445 172q-170 173 -170 424t170 424q171 174 445 174q276 0 444 -174q172 -172 172 -424t-172 -424q-169 -172 -444 -172zM676 307q108 0 182 74q74 77 74 186q0 110 -76 183q-73 73 -180 73
q-108 0 -180 -75q-74 -74 -74 -181q0 -109 74 -186q74 -74 180 -74z" />
    <glyph glyph-name="otilde" unicode="&#xf5;" horiz-adv-x="1353" 
d="M434 1264l-227 114q69 139 146.5 203t187.5 64q71 0 153 -46q82 -43 115 -43q61 0 123 103l229 -109q-117 -268 -307 -268q-70 0 -156 45q-89 47 -127 47q-79 0 -137 -110zM676 -31q-273 0 -445 172q-170 173 -170 424t170 424q171 174 445 174q276 0 444 -174
q172 -172 172 -424t-172 -424q-169 -172 -444 -172zM676 307q108 0 182 74q74 77 74 186q0 110 -76 183q-73 73 -180 73q-108 0 -180 -75q-74 -74 -74 -181q0 -109 74 -186q74 -74 180 -74z" />
    <glyph glyph-name="odieresis" unicode="&#xf6;" horiz-adv-x="1353" 
d="M242 1458q0 82 56 138.5t140 56.5t140.5 -56.5t56.5 -138.5q0 -86 -56 -141t-141 -55t-140.5 55t-55.5 141zM715 1458q0 82 57 138.5t141 56.5t140.5 -56.5t56.5 -138.5q0 -86 -56 -141t-141 -55t-141.5 55t-56.5 141zM676 -31q-273 0 -445 172q-170 173 -170 424
t170 424q171 174 445 174q276 0 444 -174q172 -172 172 -424t-172 -424q-169 -172 -444 -172zM676 307q108 0 182 74q74 77 74 186q0 110 -76 183q-73 73 -180 73q-108 0 -180 -75q-74 -74 -74 -181q0 -109 74 -186q74 -74 180 -74z" />
    <glyph glyph-name="divide" unicode="&#xf7;" horiz-adv-x="1136" 
d="M569 946q-75 0 -129.5 52.5t-54.5 127.5q0 73 54.5 126t129.5 53q73 0 126 -52.5t53 -126.5q0 -75 -52.5 -127.5t-126.5 -52.5zM1065 573h-993v299h993v-299zM569 145q-75 0 -129.5 53t-54.5 128q0 73 54.5 125.5t129.5 52.5q74 0 126.5 -52.5t52.5 -125.5
q0 -75 -52.5 -128t-126.5 -53z" />
    <glyph glyph-name="oslash" unicode="&#xf8;" horiz-adv-x="1353" 
d="M1194 1161l-100 -145q198 -171 198 -451q0 -252 -172 -424q-169 -172 -444 -172q-145 0 -268 54l-113 -162l-150 102l109 158q-193 169 -193 444q0 251 170 424q171 174 445 174q145 0 262 -51l100 148zM422 567q0 -78 41 -143l270 393q-27 6 -57 6q-108 0 -180 -75
q-74 -74 -74 -181zM676 307q108 0 182 74q74 77 74 186q0 86 -45 148l-277 -400q24 -8 66 -8z" />
    <glyph glyph-name="ugrave" unicode="&#xf9;" horiz-adv-x="1288" 
d="M684 1663l131 -375h-326l-192 375h387zM100 494v636h363v-641q0 -85 49 -136.5t131 -51.5q84 0 133 51.5t49 136.5v641h363v-636q0 -249 -145 -386t-400 -137t-399 137t-144 386z" />
    <glyph glyph-name="uacute" unicode="&#xfa;" horiz-adv-x="1288" 
d="M795 1288h-324l131 375h387zM100 494v636h363v-641q0 -85 49 -136.5t131 -51.5q84 0 133 51.5t49 136.5v641h363v-636q0 -249 -145 -386t-400 -137t-399 137t-144 386z" />
    <glyph glyph-name="ucircumflex" unicode="&#xfb;" horiz-adv-x="1288" 
d="M522 1296h-327l315 379h274l318 -379h-338l-121 172zM100 494v636h363v-641q0 -85 49 -136.5t131 -51.5q84 0 133 51.5t49 136.5v641h363v-636q0 -249 -145 -386t-400 -137t-399 137t-144 386z" />
    <glyph glyph-name="udieresis" unicode="&#xfc;" horiz-adv-x="1288" 
d="M211 1456q0 82 56.5 138.5t140.5 56.5t140 -56.5t56 -138.5q0 -86 -55.5 -141t-140.5 -55t-141 55t-56 141zM684 1456q0 82 57.5 138.5t141.5 56.5t140 -56.5t56 -138.5q0 -86 -55.5 -141t-140.5 -55t-142 55t-57 141zM100 494v636h363v-641q0 -85 49 -136.5t131 -51.5
q84 0 133 51.5t49 136.5v641h363v-636q0 -249 -145 -386t-400 -137t-399 137t-144 386z" />
    <glyph glyph-name="yacute" unicode="&#xfd;" horiz-adv-x="1298" 
d="M608 1663h387l-194 -375h-324zM674 481l223 649h391l-438 -1132q-95 -242 -225.5 -360.5t-321.5 -118.5q-144 0 -244 63l70 297q74 -39 147 -39q135 0 218 164l6 14l-492 1112h416z" />
    <glyph glyph-name="thorn" unicode="&#xfe;" horiz-adv-x="1417" 
d="M793 1159q236 0 399 -172q164 -173 164 -420q0 -246 -164 -422q-162 -174 -395 -174q-183 0 -322 133v-569h-360v2028h354v-535q134 131 324 131zM981 563q0 111 -73 185.5t-183 74.5t-183 -74.5t-73 -185.5q0 -106 72 -184q73 -76 184 -76q112 0 182 76q74 77 74 184z
" />
    <glyph glyph-name="ydieresis" unicode="&#xff;" horiz-adv-x="1298" 
d="M231 1458q0 82 56.5 138.5t140.5 56.5t140.5 -56.5t56.5 -138.5q0 -86 -56 -141t-141 -55t-141 55t-56 141zM705 1458q0 82 57 138.5t141 56.5t140.5 -56.5t56.5 -138.5q0 -86 -56 -141t-141 -55t-141.5 55t-56.5 141zM674 481l223 649h391l-438 -1132
q-95 -242 -225.5 -360.5t-321.5 -118.5q-144 0 -244 63l70 297q74 -39 147 -39q135 0 218 164l6 14l-492 1112h416z" />
    <glyph glyph-name="Amacron" unicode="&#x100;" horiz-adv-x="1460" 
d="M336 1964h801v-309l-801 -4v313zM1452 0h-393l-88 276h-482l-90 -276h-395l553 1513h356zM586 608h293l-144 449z" />
    <glyph glyph-name="amacron" unicode="&#x101;" horiz-adv-x="1411" 
d="M356 1612h703v-309l-703 -5v314zM950 1028v102h340v-1130h-340v98q-139 -127 -334 -127q-241 0 -397 172q-156 173 -156 426q0 255 156 422q155 168 397 168q197 0 334 -131zM946 567q0 109 -76 185q-77 77 -186 77q-112 0 -186 -77t-74 -185q0 -111 74 -188
q78 -78 186 -78t186 78q76 76 76 188z" />
    <glyph glyph-name="Abreve" unicode="&#x102;" horiz-adv-x="1460" 
d="M299 2021h293q5 -73 41 -119.5t100 -46.5q66 0 102.5 46.5t38.5 119.5h297q-17 -195 -133 -303t-305 -108q-190 0 -305.5 108.5t-128.5 302.5zM1452 0h-393l-88 276h-482l-90 -276h-395l553 1513h356zM586 608h293l-144 449z" />
    <glyph glyph-name="abreve" unicode="&#x103;" horiz-adv-x="1411" 
d="M702 1280q-178 0 -286 101.5t-121 283.5h274q5 -70 39 -113t94 -43q61 0 96.5 44t37.5 112h278q-13 -182 -123 -283.5t-289 -101.5zM950 1028v102h340v-1130h-340v98q-139 -127 -334 -127q-241 0 -397 172q-156 173 -156 426q0 255 156 422q155 168 397 168
q197 0 334 -131zM946 567q0 109 -76 185q-77 77 -186 77q-112 0 -186 -77t-74 -185q0 -111 74 -188q78 -78 186 -78t186 78q76 76 76 188z" />
    <glyph glyph-name="Aogonek" unicode="&#x104;" horiz-adv-x="1454" 
d="M1425 -264l58 -221q-118 -62 -240 -62q-121 0 -190.5 68.5t-69.5 175.5q0 171 188 303h-112l-88 276h-482l-90 -276h-395l553 1513h356l539 -1513q-75 -36 -128.5 -98t-53.5 -115q0 -35 20 -54.5t51 -19.5q20 0 84 23zM586 608h293l-144 449z" />
    <glyph glyph-name="aogonek" unicode="&#x105;" horiz-adv-x="1392" 
d="M1264 -264l57 -221q-118 -62 -240 -62q-121 0 -190.5 68.5t-69.5 175.5q0 170 189 303h-60v98q-139 -127 -334 -127q-241 0 -397 172q-156 173 -156 426q0 255 156 422q155 168 397 168q197 0 334 -131v102h340v-1130q-75 -36 -128.5 -98t-53.5 -115q0 -34 20 -54t52 -20
q20 0 84 23zM946 567q0 109 -76 185q-77 77 -186 77q-112 0 -186 -77t-74 -185q0 -111 74 -188q78 -78 186 -78t186 78q76 76 76 188z" />
    <glyph glyph-name="Cacute" unicode="&#x106;" horiz-adv-x="1548" 
d="M1030 1626h-344l139 399h412zM852 -23q-328 0 -555 216q-223 216 -223 559q0 344 225 565q226 223 555 223q200 0 371.5 -80.5t277.5 -218.5l-243 -256q-177 189 -381 189q-174 0 -293 -119q-117 -120 -117 -301q0 -175 117 -295q120 -117 291 -117q224 0 389 195
l254 -244q-105 -138 -281 -227t-387 -89z" />
    <glyph glyph-name="cacute" unicode="&#x107;" horiz-adv-x="1243" 
d="M815 1288h-323l131 375h387zM664 -25q-266 0 -435 166q-166 166 -166 426q0 261 168 426q169 166 439 166q180 0 323.5 -86t214.5 -244l-288 -151q-86 145 -242 145q-113 0 -186 -73q-72 -75 -72 -183q0 -112 72.5 -186t181.5 -74q78 0 144 40t97 106l289 -172
q-74 -142 -217.5 -224t-322.5 -82z" />
    <glyph glyph-name="Ccircumflex" unicode="&#x108;" horiz-adv-x="1548" 
d="M715 1628h-348l335 404h291l340 -404h-360l-129 184zM852 -23q-328 0 -555 216q-223 216 -223 559q0 344 225 565q226 223 555 223q200 0 371.5 -80.5t277.5 -218.5l-243 -256q-177 189 -381 189q-174 0 -293 -119q-117 -120 -117 -301q0 -175 117 -295
q120 -117 291 -117q224 0 389 195l254 -244q-105 -138 -281 -227t-387 -89z" />
    <glyph glyph-name="ccircumflex" unicode="&#x109;" horiz-adv-x="1243" 
d="M537 1290h-328l315 379h275l317 -379h-338l-121 172zM664 -25q-266 0 -435 166q-166 166 -166 426q0 261 168 426q169 166 439 166q180 0 323.5 -86t214.5 -244l-288 -151q-86 145 -242 145q-113 0 -186 -73q-72 -75 -72 -183q0 -112 72.5 -186t181.5 -74q78 0 144 40
t97 106l289 -172q-74 -142 -217.5 -224t-322.5 -82z" />
    <glyph glyph-name="Cdotaccent" unicode="&#x10a;" horiz-adv-x="1548" 
d="M852 1620q-91 0 -150 59t-59 150q0 87 60.5 146t148.5 59t147.5 -58.5t59.5 -146.5q0 -90 -59.5 -149.5t-147.5 -59.5zM852 -23q-328 0 -555 216q-223 216 -223 559q0 344 225 565q226 223 555 223q200 0 371.5 -80.5t277.5 -218.5l-243 -256q-177 189 -381 189
q-174 0 -293 -119q-117 -120 -117 -301q0 -175 117 -295q120 -117 291 -117q224 0 389 195l254 -244q-105 -138 -281 -227t-387 -89z" />
    <glyph glyph-name="cdotaccent" unicode="&#x10b;" horiz-adv-x="1243" 
d="M664 1237q-91 0 -150 59t-59 150q0 87 60.5 146t148.5 59t147 -58.5t59 -146.5q0 -90 -59 -149.5t-147 -59.5zM664 -25q-266 0 -435 166q-166 166 -166 426q0 261 168 426q169 166 439 166q180 0 323.5 -86t214.5 -244l-288 -151q-86 145 -242 145q-113 0 -186 -73
q-72 -75 -72 -183q0 -112 72.5 -186t181.5 -74q78 0 144 40t97 106l289 -172q-74 -142 -217.5 -224t-322.5 -82z" />
    <glyph glyph-name="Ccaron" unicode="&#x10c;" horiz-adv-x="1548" 
d="M727 1630l-315 379h327l121 -172l121 172h338l-318 -379h-274zM852 -23q-328 0 -555 216q-223 216 -223 559q0 344 225 565q226 223 555 223q200 0 371.5 -80.5t277.5 -218.5l-243 -256q-177 189 -381 189q-174 0 -293 -119q-117 -120 -117 -301q0 -175 117 -295
q120 -117 291 -117q224 0 389 195l254 -244q-105 -138 -281 -227t-387 -89z" />
    <glyph glyph-name="ccaron" unicode="&#x10d;" horiz-adv-x="1243" 
d="M532 1288l-315 379h328l121 -172l120 172h338l-317 -379h-275zM664 -25q-266 0 -435 166q-166 166 -166 426q0 261 168 426q169 166 439 166q180 0 323.5 -86t214.5 -244l-288 -151q-86 145 -242 145q-113 0 -186 -73q-72 -75 -72 -183q0 -112 72.5 -186t181.5 -74
q78 0 144 40t97 106l289 -172q-74 -142 -217.5 -224t-322.5 -82z" />
    <glyph glyph-name="Dcaron" unicode="&#x10e;" horiz-adv-x="1597" 
d="M592 1630l-316 379h328l121 -172l121 172h338l-318 -379h-274zM760 0h-610v1513h616q354 0 553 -202q201 -204 201 -555q0 -350 -203 -553q-200 -203 -557 -203zM532 1147v-780h246q167 0 254 112q90 116 90 279q0 160 -90 276q-88 113 -254 113h-246z" />
    <glyph glyph-name="dcaron" unicode="&#x10f;" horiz-adv-x="1456" 
d="M1350 1284l143 385h371l-207 -385h-307zM922 1042v521h362v-1563h-352v98q-127 -127 -316 -127q-240 0 -395 168q-158 172 -158 426q0 252 158 424q159 170 395 170q183 0 306 -117zM678 301q112 0 185 76.5t73 189.5q0 111 -73 186.5t-185 75.5q-110 0 -184 -77
t-74 -185q0 -113 74 -190q73 -76 184 -76z" />
    <glyph glyph-name="Dcroat" unicode="&#x110;" horiz-adv-x="1622" 
d="M176 1513h617q354 0 553 -202q200 -203 200 -555q0 -350 -203 -553q-200 -203 -557 -203h-610v608h-135v299h135v606zM559 367h246q167 0 254 112q90 116 90 279q0 160 -90 276q-88 113 -254 113h-246v-240h356v-299h-356v-241z" />
    <glyph glyph-name="dslash" unicode="&#x111;" horiz-adv-x="1394" 
d="M1284 1423h148v-213h-148v-1210h-352v98q-127 -127 -316 -127q-240 0 -395 168q-158 172 -158 426q0 252 158 424q159 170 395 170q183 0 306 -117v168h-254v213h254v140h362v-140zM678 301q112 0 185 76.5t73 189.5q0 111 -73 186.5t-185 75.5q-110 0 -184 -77t-74 -185
q0 -113 74 -190q73 -76 184 -76z" />
    <glyph glyph-name="Emacron" unicode="&#x112;" horiz-adv-x="1349" 
d="M1102 1651l-801 -4v313h801v-309zM1241 0h-1091v1513h1093v-354h-708v-223h655v-352h-655v-230h706v-354z" />
    <glyph glyph-name="emacron" unicode="&#x113;" 
d="M307 1618h703v-309l-703 -4v313zM1247 594q0 -68 -12 -145h-807q62 -179 277 -179q186 0 342 105l141 -244q-218 -156 -500 -156q-299 0 -463 170q-162 171 -162 420q0 256 168 424q170 170 437 170q250 0 415 -151q164 -150 164 -414zM668 870q-186 0 -244 -174h479
q-23 83 -84 128.5t-151 45.5z" />
    <glyph glyph-name="Ebreve" unicode="&#x114;" horiz-adv-x="1349" 
d="M279 2021h292q5 -73 41 -119.5t101 -46.5q66 0 102.5 46.5t38.5 119.5h297q-17 -195 -133 -303t-305 -108q-190 0 -305.5 108.5t-128.5 302.5zM1241 0h-1091v1513h1093v-354h-708v-223h655v-352h-655v-230h706v-354z" />
    <glyph glyph-name="ebreve" unicode="&#x115;" 
d="M674 1276q-178 0 -286.5 101.5t-121.5 283.5h275q5 -70 39 -113t94 -43q61 0 96 44t37 112h278q-13 -182 -122.5 -283.5t-288.5 -101.5zM1247 594q0 -68 -12 -145h-807q62 -179 277 -179q186 0 342 105l141 -244q-218 -156 -500 -156q-299 0 -463 170q-162 171 -162 420
q0 256 168 424q170 170 437 170q250 0 415 -151q164 -150 164 -414zM668 870q-186 0 -244 -174h479q-23 83 -84 128.5t-151 45.5z" />
    <glyph glyph-name="Edotaccent" unicode="&#x116;" horiz-adv-x="1349" 
d="M700 1620q-91 0 -149.5 59t-58.5 150q0 87 60 146t148 59t147.5 -58.5t59.5 -146.5q0 -90 -59.5 -149.5t-147.5 -59.5zM1241 0h-1091v1513h1093v-354h-708v-223h655v-352h-655v-230h706v-354z" />
    <glyph glyph-name="edotaccent" unicode="&#x117;" 
d="M680 1245q-91 0 -150 59t-59 150q0 87 60.5 146t148.5 59t147.5 -58.5t59.5 -146.5q0 -90 -59.5 -149.5t-147.5 -59.5zM1247 594q0 -68 -12 -145h-807q62 -179 277 -179q186 0 342 105l141 -244q-218 -156 -500 -156q-299 0 -463 170q-162 171 -162 420q0 256 168 424
q170 170 437 170q250 0 415 -151q164 -150 164 -414zM668 870q-186 0 -244 -174h479q-23 83 -84 128.5t-151 45.5z" />
    <glyph glyph-name="Eogonek" unicode="&#x118;" horiz-adv-x="1335" 
d="M1214 -264l58 -221q-118 -62 -240 -62q-121 0 -190.5 68.5t-69.5 175.5q0 170 189 303h-811v1513h1093v-354h-708v-223h655v-352h-655v-230h706v-354q-75 -36 -128.5 -98t-53.5 -115q0 -35 19.5 -54.5t51.5 -19.5q20 0 84 23z" />
    <glyph glyph-name="eogonek" unicode="&#x119;" 
d="M1245 594q0 -68 -12 -145h-807q62 -179 276 -179q186 0 342 105l142 -244q-113 -82 -262 -123q-73 -37 -122.5 -96.5t-49.5 -112.5q0 -34 19.5 -53.5t51.5 -19.5q23 0 84 22l58 -221q-118 -62 -240 -62q-121 0 -190.5 68.5t-69.5 175.5q0 144 145 271q-262 21 -407 188
q-142 168 -142 397q0 256 168 424q170 170 437 170q250 0 415 -151q164 -150 164 -414zM666 870q-186 0 -244 -174h479q-23 83 -84 128.5t-151 45.5z" />
    <glyph glyph-name="Ecaron" unicode="&#x11a;" horiz-adv-x="1349" 
d="M578 1630l-316 379h328l121 -172l120 172h338l-317 -379h-274zM1241 0h-1091v1513h1093v-354h-708v-223h655v-352h-655v-230h706v-354z" />
    <glyph glyph-name="ecaron" unicode="&#x11b;" 
d="M1124 1663l-317 -379h-275l-315 379h328l121 -172l120 172h338zM1247 594q0 -68 -12 -145h-807q62 -179 277 -179q186 0 342 105l141 -244q-218 -156 -500 -156q-299 0 -463 170q-162 171 -162 420q0 256 168 424q170 170 437 170q250 0 415 -151q164 -150 164 -414z
M668 870q-186 0 -244 -174h479q-23 83 -84 128.5t-151 45.5z" />
    <glyph glyph-name="Gcircumflex" unicode="&#x11c;" horiz-adv-x="1656" 
d="M756 1634h-348l335 404h291l340 -404h-360l-129 185zM872 -23q-349 0 -577 220q-223 219 -223 559q0 342 231 563q235 221 582 221q174 0 331.5 -60t264.5 -161l-244 -285q-158 140 -356 140q-185 0 -301 -119q-117 -120 -117 -295q0 -171 115 -295q114 -123 303 -123
q97 0 190 34t150 87v131h-344v328h690v-656q-298 -289 -695 -289z" />
    <glyph glyph-name="gcircumflex" unicode="&#x11d;" horiz-adv-x="1394" 
d="M797 1286l-121 172l-121 -172h-328l316 379h274l318 -379h-338zM956 1036v94h326v-1021q0 -269 -182 -428q-183 -160 -461 -160q-303 0 -535 170l132 264q197 -129 389 -129q148 0 230.5 72t82.5 188v25q-119 -113 -315 -113q-254 0 -406 162q-154 165 -154 415
q0 258 164 422q162 162 412 162q188 0 317 -123zM940 571q0 110 -73 183t-183 73q-111 0 -183.5 -72t-72.5 -184q0 -113 73 -187.5t183 -74.5t183 74.5t73 187.5z" />
    <glyph glyph-name="Gbreve" unicode="&#x11e;" horiz-adv-x="1656" 
d="M436 2028h293q5 -73 41 -119.5t100 -46.5q66 0 103 47t39 119h297q-17 -195 -133.5 -303.5t-305.5 -108.5q-190 0 -305.5 109t-128.5 303zM872 -23q-349 0 -577 220q-223 219 -223 559q0 342 231 563q235 221 582 221q174 0 331.5 -60t264.5 -161l-244 -285
q-158 140 -356 140q-185 0 -301 -119q-117 -120 -117 -295q0 -171 115 -295q114 -123 303 -123q97 0 190 34t150 87v131h-344v328h690v-656q-298 -289 -695 -289z" />
    <glyph glyph-name="gbreve" unicode="&#x11f;" horiz-adv-x="1394" 
d="M670 1276q-178 0 -286.5 101.5t-121.5 283.5h275q5 -70 39 -113t94 -43q61 0 96 44t37 112h278q-13 -182 -122.5 -283.5t-288.5 -101.5zM956 1036v94h326v-1021q0 -269 -182 -428q-183 -160 -461 -160q-303 0 -535 170l132 264q197 -129 389 -129q148 0 230.5 72
t82.5 188v25q-119 -113 -315 -113q-254 0 -406 162q-154 165 -154 415q0 258 164 422q162 162 412 162q188 0 317 -123zM940 571q0 110 -73 183t-183 73q-111 0 -183.5 -72t-72.5 -184q0 -113 73 -187.5t183 -74.5t183 74.5t73 187.5z" />
    <glyph glyph-name="Gdotaccent" unicode="&#x120;" horiz-adv-x="1656" 
d="M877 1614q-91 0 -150 59t-59 150q0 87 60.5 146t148.5 59t147 -58.5t59 -146.5q0 -90 -59 -149.5t-147 -59.5zM872 -23q-349 0 -577 220q-223 219 -223 559q0 342 231 563q235 221 582 221q174 0 331.5 -60t264.5 -161l-244 -285q-158 140 -356 140q-185 0 -301 -119
q-117 -120 -117 -295q0 -171 115 -295q114 -123 303 -123q97 0 190 34t150 87v131h-344v328h690v-656q-298 -289 -695 -289z" />
    <glyph glyph-name="gdotaccent" unicode="&#x121;" horiz-adv-x="1394" 
d="M678 1241q-91 0 -150 59t-59 150q0 87 60.5 146t148.5 59t147.5 -58.5t59.5 -146.5q0 -90 -59.5 -149.5t-147.5 -59.5zM956 1036v94h326v-1021q0 -269 -182 -428q-183 -160 -461 -160q-303 0 -535 170l132 264q197 -129 389 -129q148 0 230.5 72t82.5 188v25
q-119 -113 -315 -113q-254 0 -406 162q-154 165 -154 415q0 258 164 422q162 162 412 162q188 0 317 -123zM940 571q0 110 -73 183t-183 73q-111 0 -183.5 -72t-72.5 -184q0 -113 73 -187.5t183 -74.5t183 74.5t73 187.5z" />
    <glyph glyph-name="Gcommaaccent" unicode="&#x122;" horiz-adv-x="1656" 
d="M877 594v328h690v-656q-298 -289 -695 -289q-349 0 -577 220q-223 219 -223 559q0 342 231 563q235 221 582 221q174 0 331.5 -60t264.5 -161l-244 -285q-158 140 -356 140q-185 0 -301 -119q-117 -120 -117 -295q0 -171 115 -295q114 -123 303 -123q97 0 190 34t150 87
v131h-344zM1085 -297q0 -105 -79.5 -203t-264.5 -233l-125 158q103 75 164 133q-48 20 -79 67.5t-31 102.5q0 79 58.5 134.5t143.5 55.5q89 0 151 -60t62 -155z" />
    <glyph glyph-name="gcommaaccent" unicode="&#x123;" horiz-adv-x="1394" 
d="M467 1442q0 101 75.5 193t254.5 225l121 -152q-100 -72 -158 -127q47 -20 76.5 -65t29.5 -99q0 -76 -55 -129t-139 -53q-87 0 -146 57.5t-59 149.5zM956 1036v94h326v-1021q0 -269 -182 -428q-183 -160 -461 -160q-303 0 -535 170l132 264q197 -129 389 -129
q148 0 230.5 72t82.5 188v25q-119 -113 -315 -113q-254 0 -406 162q-154 165 -154 415q0 258 164 422q162 162 412 162q188 0 317 -123zM940 571q0 110 -73 183t-183 73q-111 0 -183.5 -72t-72.5 -184q0 -113 73 -187.5t183 -74.5t183 74.5t73 187.5z" />
    <glyph glyph-name="Hcircumflex" unicode="&#x124;" horiz-adv-x="1597" 
d="M670 1628h-348l335 404h291l340 -404h-360l-129 184zM532 0h-382v1513h382v-577h531v577h385v-1513h-385v569h-531v-569z" />
    <glyph glyph-name="hcircumflex" unicode="&#x125;" horiz-adv-x="1361" 
d="M164 1642h-348l336 404h290l340 -404h-360l-129 185zM479 0h-360v1563h352v-586q43 79 139.5 131.5t214.5 52.5q183 0 310 -121t127 -346v-694h-363v598q0 110 -53 171.5t-146 61.5q-99 0 -160 -66.5t-61 -174.5v-590z" />
    <glyph glyph-name="Hbar" unicode="&#x126;" horiz-adv-x="1652" 
d="M1473 1337h143v-237h-143v-1100h-386v569h-530v-569h-383v1100h-145v237h145v176h383v-176h530v176h386v-176zM557 936h530v164h-530v-164z" />
    <glyph glyph-name="hbar" unicode="&#x127;" horiz-adv-x="1361" 
d="M825 1161q183 0 310 -121t127 -346v-694h-363v598q0 110 -53 171.5t-146 61.5q-99 0 -160 -66.5t-61 -174.5v-590h-360v1212h-137v213h137v138h352v-138h274v-213h-274v-235q43 79 139.5 131.5t214.5 52.5z" />
    <glyph glyph-name="Itilde" unicode="&#x128;" horiz-adv-x="684" 
d="M82 1610l-238 119q74 145 154.5 210.5t194.5 65.5q73 0 159 -47q83 -45 119 -45q65 0 127 108l240 -114q-120 -279 -320 -279q-66 0 -162 47q-91 49 -133 49q-83 0 -141 -114zM152 0v1513h385v-1513h-385z" />
    <glyph glyph-name="itilde" unicode="&#x129;" horiz-adv-x="589" 
d="M55 1262l-227 114q69 139 146.5 202.5t187.5 63.5q73 0 153 -45q82 -43 115 -43q61 0 123 103l229 -109q-117 -268 -307 -268q-70 0 -156 45q-89 47 -126 47q-80 0 -138 -110zM485 1130v-1130h-362v1130h362z" />
    <glyph glyph-name="Imacron" unicode="&#x12a;" horiz-adv-x="684" 
d="M743 1661l-800 -4v313h800v-309zM152 0v1513h385v-1513h-385z" />
    <glyph glyph-name="imacron" unicode="&#x12b;" horiz-adv-x="589" 
d="M655 1311l-702 -4v313h702v-309zM485 1130v-1130h-362v1130h362z" />
    <glyph glyph-name="Ibreve" unicode="&#x12c;" horiz-adv-x="684" 
d="M-92 2028h293q5 -73 41 -119.5t100 -46.5q66 0 102.5 46.5t38.5 119.5h297q-17 -195 -133 -303.5t-305 -108.5q-190 0 -305.5 109t-128.5 303zM152 0v1513h385v-1513h-385z" />
    <glyph glyph-name="ibreve" unicode="&#x12d;" horiz-adv-x="589" 
d="M301 1282q-178 0 -286 101.5t-121 283.5h274q5 -70 39 -113t94 -43q61 0 96 44t37 112h279q-13 -182 -123 -283.5t-289 -101.5zM485 1130v-1130h-362v1130h362z" />
    <glyph glyph-name="Iogonek" unicode="&#x12e;" horiz-adv-x="684" 
d="M510 -264l57 -221q-118 -62 -239 -62t-190.5 68.5t-69.5 175.5q0 171 188 303h-106v1513h385v-1513h2q-75 -36 -129 -98t-54 -115q0 -34 20 -54t52 -20q20 0 84 23z" />
    <glyph glyph-name="iogonek" unicode="&#x12f;" horiz-adv-x="589" 
d="M305 1231q-91 0 -150 59t-59 150q0 87 60.5 146t148.5 59t147.5 -58.5t59.5 -146.5q0 -90 -59.5 -149.5t-147.5 -59.5zM459 -264l57 -221q-118 -62 -240 -62q-121 0 -190.5 68.5t-69.5 175.5q0 170 189 303h-82v1130h362v-1130q-75 -36 -128.5 -98t-53.5 -115
q0 -34 20 -54t52 -20q20 0 84 23z" />
    <glyph glyph-name="Idot" unicode="&#x130;" horiz-adv-x="684" 
d="M332 1614q-91 0 -150 59t-59 150q0 87 60.5 146t148.5 59t147.5 -58.5t59.5 -146.5q0 -90 -59.5 -149.5t-147.5 -59.5zM139 0v1513h385v-1513h-385z" />
    <glyph glyph-name="dotlessi" unicode="&#x131;" horiz-adv-x="589" 
d="M477 1130v-1130h-362v1130h362z" />
    <glyph glyph-name="IJ" unicode="&#x132;" horiz-adv-x="1910" 
d="M150 0v1513h385v-1513h-385zM1171 -25q-300 0 -493 181l164 307q139 -121 288 -121q129 0 203 80.5t74 216.5v874h383v-886q0 -139 -33.5 -250t-90.5 -185t-136.5 -123.5t-168.5 -71.5t-190 -22z" />
    <glyph glyph-name="ij" unicode="&#x133;" horiz-adv-x="1275" 
d="M303 1231q-91 0 -150 59t-59 150q0 87 60.5 146t148.5 59t147.5 -58.5t59.5 -146.5q0 -90 -59.5 -149.5t-147.5 -59.5zM899 1231q-91 0 -150 59t-59 150q0 87 60.5 146t148.5 59t147.5 -58.5t59.5 -146.5q0 -90 -59.5 -149.5t-147.5 -59.5zM485 1130v-1130h-362v1130h362
zM602 -481q-202 0 -303 67l66 281q103 -35 170 -35q90 0 137 55t47 160v1083h362v-1120q0 -248 -135 -368q-132 -123 -344 -123z" />
    <glyph glyph-name="Jcircumflex" unicode="&#x134;" horiz-adv-x="1228" 
d="M782 1628h-348l336 404h291l340 -404h-361l-129 184zM489 -25q-300 0 -493 181l164 307q139 -121 289 -121q129 0 202.5 80.5t73.5 216.5v874h383v-886q0 -139 -33.5 -250t-90.5 -185t-136.5 -123.5t-168.5 -71.5t-190 -22z" />
    <glyph glyph-name="jcircumflex" unicode="&#x135;" horiz-adv-x="638" 
d="M215 1292h-328l316 379h274l318 -379h-338l-121 172zM47 -481q-202 0 -303 67l66 281q103 -35 170 -35q90 0 137 55t47 160v1083h362v-1120q0 -248 -135 -368q-132 -123 -344 -123z" />
    <glyph glyph-name="Kcommaaccent" unicode="&#x136;" horiz-adv-x="1474" 
d="M1473 1513l-525 -669l551 -844h-467l-336 545l-164 -199v-346h-382v1513h382v-622l478 622h463zM981 -279q0 -105 -79.5 -203t-264.5 -233l-125 158q103 75 164 133q-48 21 -79.5 68t-31.5 102q0 79 59 135t144 56q88 0 150.5 -60.5t62.5 -155.5z" />
    <glyph glyph-name="kcommaaccent" unicode="&#x137;" horiz-adv-x="1257" 
d="M528 449l-53 -50v-399h-360v1563h360v-760l340 327h440l-485 -454l522 -676h-430zM864 -238q0 -101 -75 -192.5t-254 -224.5l-121 151q95 69 157 127q-47 20 -76.5 65t-29.5 99q0 76 55 129t139 53q87 0 146 -57.5t59 -149.5z" />
    <glyph glyph-name="kgreenlandic" unicode="&#x138;" horiz-adv-x="1222" 
d="M1249 0h-413l-301 414l-72 -74v-340h-348v1130h348v-372l356 372h416l-469 -481z" />
    <glyph glyph-name="Lacute" unicode="&#x139;" horiz-adv-x="1296" 
d="M518 1626h-344l139 399h412zM1270 0h-1120v1513h385v-1148h735v-365z" />
    <glyph glyph-name="lacute" unicode="&#x13a;" horiz-adv-x="583" 
d="M463 1632h-344l139 400h412zM475 1563v-1563h-360v1563h360z" />
    <glyph glyph-name="Lcommaaccent" unicode="&#x13b;" horiz-adv-x="1296" 
d="M535 1513v-1148h735v-365h-1120v1513h385zM940 -281q0 -105 -79.5 -203t-264.5 -233l-125 158q103 75 164 133q-48 21 -79.5 68t-31.5 102q0 79 58.5 134.5t144.5 55.5q89 0 151 -60t62 -155z" />
    <glyph glyph-name="lcommaaccent" unicode="&#x13c;" horiz-adv-x="587" 
d="M121 1563h360v-1563h-360v1563zM494 -293q0 -101 -75.5 -193t-254.5 -225l-121 152q100 72 158 127q-48 20 -77.5 65t-29.5 99q0 76 55.5 129t139.5 53q87 0 146 -57.5t59 -149.5z" />
    <glyph glyph-name="Lcaron" unicode="&#x13d;" horiz-adv-x="1308" 
d="M1077 1286h-307l143 385h371zM1270 0h-1120v1513h385v-1148h735v-365z" />
    <glyph glyph-name="lcaron" unicode="&#x13e;" horiz-adv-x="645" 
d="M829 1284h-307l144 385h370zM475 1563v-1563h-360v1563h360z" />
    <glyph glyph-name="Ldot" unicode="&#x13f;" horiz-adv-x="1302" 
d="M1270 0h-1120v1513h385v-1148h735v-365zM993 674q-85 0 -142.5 56t-57.5 140q0 82 57.5 137.5t142.5 55.5q79 0 136 -56.5t57 -136.5q0 -84 -56.5 -140t-136.5 -56z" />
    <glyph glyph-name="ldot" unicode="&#x140;" horiz-adv-x="933" 
d="M475 1563v-1563h-360v1563h360zM764 557q-85 0 -143 56.5t-58 140.5q0 82 58 137t143 55q80 0 136 -56t56 -136q0 -84 -56 -140.5t-136 -56.5z" />
    <glyph glyph-name="Lslash" unicode="&#x141;" horiz-adv-x="1331" 
d="M569 711v-346h736v-365h-1121v477l-135 -82v332l135 82v704h385v-471l205 125v-333z" />
    <glyph glyph-name="lslash" unicode="&#x142;" horiz-adv-x="772" 
d="M567 1102l146 106v-344l-146 -106v-758h-360v498l-131 -97v344l131 97v721h360v-461z" />
    <glyph glyph-name="Nacute" unicode="&#x143;" horiz-adv-x="1650" 
d="M977 1626h-344l139 399h412zM1124 692v821h377v-1513h-289l-688 811v-811h-374v1513h274z" />
    <glyph glyph-name="nacute" unicode="&#x144;" horiz-adv-x="1359" 
d="M840 1288h-324l131 375h387zM475 0h-360v1130h352v-157q43 82 138.5 135t215.5 53q182 0 309 -121t127 -346v-694h-362v598q0 110 -53 171.5t-146 61.5q-99 0 -160 -66.5t-61 -176.5v-588z" />
    <glyph glyph-name="Ncommaaccent" unicode="&#x145;" horiz-adv-x="1650" 
d="M1124 692v821h377v-1513h-289l-688 811v-811h-374v1513h274zM1063 -256q0 -105 -79.5 -203t-264.5 -233l-125 157q98 71 164 134q-48 21 -79.5 68t-31.5 102q0 79 58.5 134.5t144.5 55.5q89 0 151 -60t62 -155z" />
    <glyph glyph-name="ncommaaccent" unicode="&#x146;" horiz-adv-x="1359" 
d="M821 1161q182 0 309 -121t127 -346v-694h-362v598q0 110 -53 171.5t-146 61.5q-99 0 -160 -66.5t-61 -176.5v-588h-360v1130h352v-157q43 82 138.5 135t215.5 53zM893 -256q0 -101 -75.5 -193t-254.5 -225l-121 152q100 72 158 127q-47 20 -76.5 65t-29.5 99q0 76 55 129
t139 53q87 0 146 -57.5t59 -149.5z" />
    <glyph glyph-name="Ncaron" unicode="&#x147;" horiz-adv-x="1650" 
d="M700 1630l-315 379h328l121 -172l120 172h338l-317 -379h-275zM1124 692v821h377v-1513h-289l-688 811v-811h-374v1513h274z" />
    <glyph glyph-name="ncaron" unicode="&#x148;" horiz-adv-x="1359" 
d="M553 1282l-315 379h327l121 -172l121 172h338l-318 -379h-274zM475 0h-360v1130h352v-157q43 82 138.5 135t215.5 53q182 0 309 -121t127 -346v-694h-362v598q0 110 -53 171.5t-146 61.5q-99 0 -160 -66.5t-61 -176.5v-588z" />
    <glyph glyph-name="napostrophe" unicode="&#x149;" horiz-adv-x="1519" 
d="M209 1286h-307l143 385h371zM635 0h-361v1130h353v-157q43 82 138.5 135t215.5 53q182 0 309 -121t127 -346v-694h-362v598q0 110 -53 171.5t-146 61.5q-99 0 -160 -66.5t-61 -176.5v-588z" />
    <glyph glyph-name="Eng" unicode="&#x14a;" horiz-adv-x="1650" 
d="M1124 686v827h377v-1376q0 -332 -172 -491q-171 -160 -430 -160q-162 0 -307 59l78 344q85 -43 202 -43q114 0 184.5 65t71.5 183l-604 719v-813h-374v1513h274z" />
    <glyph glyph-name="eng" unicode="&#x14b;" horiz-adv-x="1359" 
d="M643 -471v315q132 -11 192 32t60 163v563q0 108 -52 168.5t-145 60.5q-99 0 -161 -67t-62 -176v-588h-360v1130h352v-153q45 79 140.5 131.5t213.5 52.5q183 0 309 -123q127 -121 127 -346v-663q0 -157 -51 -267.5t-143 -162.5q-165 -98 -420 -70z" />
    <glyph glyph-name="Omacron" unicode="&#x14c;" horiz-adv-x="1726" 
d="M1266 1655l-801 -4v313h801v-309zM864 -25q-338 0 -567 226q-225 225 -225 555t227 557t563 227q338 0 565 -227q228 -228 228 -557q0 -327 -228 -555q-226 -226 -563 -226zM862 354q168 0 283 115t115 289q-3 176 -119 289q-114 114 -279 114q-166 0 -280 -117
q-115 -115 -115 -286q0 -174 115 -289t280 -115z" />
    <glyph glyph-name="omacron" unicode="&#x14d;" horiz-adv-x="1353" 
d="M1030 1307l-702 -4v313h702v-309zM676 -31q-273 0 -445 172q-170 173 -170 424t170 424q171 174 445 174q276 0 444 -174q172 -172 172 -424t-172 -424q-169 -172 -444 -172zM676 307q108 0 182 74q74 77 74 186q0 110 -76 183q-73 73 -180 73q-108 0 -180 -75
q-74 -74 -74 -181q0 -109 74 -186q74 -74 180 -74z" />
    <glyph glyph-name="Obreve" unicode="&#x14e;" horiz-adv-x="1726" 
d="M438 2021h293q5 -73 41 -119.5t100 -46.5q66 0 103 47t39 119h297q-17 -194 -133.5 -302.5t-305.5 -108.5q-190 0 -305.5 108.5t-128.5 302.5zM864 -25q-338 0 -567 226q-225 225 -225 555t227 557t563 227q338 0 565 -227q228 -228 228 -557q0 -327 -228 -555
q-226 -226 -563 -226zM862 354q168 0 283 115t115 289q-3 176 -119 289q-114 114 -279 114q-166 0 -280 -117q-115 -115 -115 -286q0 -174 115 -289t280 -115z" />
    <glyph glyph-name="obreve" unicode="&#x14f;" horiz-adv-x="1353" 
d="M670 1284q-178 0 -286.5 101.5t-121.5 283.5h275q5 -70 39 -113t94 -43q61 0 96 44t37 112h278q-13 -182 -122.5 -283.5t-288.5 -101.5zM676 -31q-273 0 -445 172q-170 173 -170 424t170 424q171 174 445 174q276 0 444 -174q172 -172 172 -424t-172 -424
q-169 -172 -444 -172zM676 307q108 0 182 74q74 77 74 186q0 110 -76 183q-73 73 -180 73q-108 0 -180 -75q-74 -74 -74 -181q0 -109 74 -186q74 -74 180 -74z" />
    <glyph glyph-name="Ohungarumlaut" unicode="&#x150;" horiz-adv-x="1726" 
d="M786 1628h-319l94 400h389zM1266 1628h-330l145 400h404zM864 -25q-338 0 -567 226q-225 225 -225 555t227 557t563 227q338 0 565 -227q228 -228 228 -557q0 -327 -228 -555q-226 -226 -563 -226zM862 354q168 0 283 115t115 289q-3 176 -119 289q-114 114 -279 114
q-166 0 -280 -117q-115 -115 -115 -286q0 -174 115 -289t280 -115z" />
    <glyph glyph-name="ohungarumlaut" unicode="&#x151;" horiz-adv-x="1353" 
d="M608 1288h-299l88 375h365zM1059 1288h-309l135 375h379zM676 -31q-273 0 -445 172q-170 173 -170 424t170 424q171 174 445 174q276 0 444 -174q172 -172 172 -424t-172 -424q-169 -172 -444 -172zM676 307q108 0 182 74q74 77 74 186q0 110 -76 183q-73 73 -180 73
q-108 0 -180 -75q-74 -74 -74 -181q0 -109 74 -186q74 -74 180 -74z" />
    <glyph glyph-name="OE" unicode="&#x152;" horiz-adv-x="2174" 
d="M2068 1513v-354h-708v-223h655v-352h-655v-230h706v-354h-1075q-65 -6 -129 -6q-387 0 -586 211q-200 212 -200 551q0 341 198 551q201 213 582 213q50 0 129 -7h1083zM473 758q0 -100 35 -187q38 -92 132.5 -152.5t227.5 -60.5q30 0 107 9v780q-68 8 -107 8
q-205 0 -299 -119q-96 -122 -96 -278z" />
    <glyph glyph-name="oe" unicode="&#x153;" horiz-adv-x="2170" 
d="M2111 594q0 -68 -12 -145h-807q62 -179 277 -179q186 0 342 105l141 -244q-218 -156 -500 -156q-286 0 -456 164q-170 -164 -430 -164q-268 0 -437 172q-168 171 -168 420q0 250 168 418q169 172 437 172q256 0 432 -164q169 166 434 166q251 0 416 -151
q163 -150 163 -414zM1532 870q-186 0 -244 -174h479q-23 83 -84 128.5t-151 45.5zM666 307q109 0 182 76q76 76 76 186t-76 183q-72 75 -182 75q-109 0 -181 -75q-73 -73 -73 -183t73 -186t181 -76z" />
    <glyph glyph-name="Racute" unicode="&#x154;" horiz-adv-x="1435" 
d="M596 2025h412l-207 -399h-344zM1386 0h-438l-266 502h-150v-502h-382v1513h630q274 0 414 -143q141 -141 141 -358q0 -147 -70 -267t-206 -184zM776 1163h-244v-327h230q115 -6 160 79.5t0 170.5t-146 77z" />
    <glyph glyph-name="racute" unicode="&#x155;" horiz-adv-x="942" 
d="M653 1288h-323l131 375h387zM475 0h-360v1130h346v-139q108 170 301 170q71 0 141 -31l-29 -344q-79 27 -149 27q-250 0 -250 -326v-487z" />
    <glyph glyph-name="Rcommaaccent" unicode="&#x156;" horiz-adv-x="1435" 
d="M1059 561l327 -561h-438l-266 502h-150v-502h-382v1513h630q274 0 414 -143q141 -141 141 -358q0 -147 -70 -267t-206 -184zM776 1163h-244v-327h230q115 -6 160 79.5t0 170.5t-146 77zM942 -262q0 -105 -79.5 -203t-264.5 -233l-125 157q103 75 164 133q-48 21 -79.5 68
t-31.5 102q0 79 59 135t144 56q89 0 151 -60t62 -155z" />
    <glyph glyph-name="rcommaaccent" unicode="&#x157;" horiz-adv-x="944" 
d="M766 1161q71 0 141 -31l-28 -344q-79 27 -150 27q-250 0 -250 -326v-487h-360v1130h346v-139q108 170 301 170zM496 -272q0 -101 -75.5 -193t-254.5 -225l-121 151q100 72 158 127q-48 20 -77.5 65t-29.5 99q0 76 55.5 129t139.5 53q87 0 146 -57t59 -149z" />
    <glyph glyph-name="Rcaron" unicode="&#x158;" horiz-adv-x="1435" 
d="M1135 2009l-318 -379h-274l-316 379h328l121 -172l121 172h338zM1386 0h-438l-266 502h-150v-502h-382v1513h630q274 0 414 -143q141 -141 141 -358q0 -147 -70 -267t-206 -184zM776 1163h-244v-327h230q115 -6 160 79.5t0 170.5t-146 77z" />
    <glyph glyph-name="rcaron" unicode="&#x159;" horiz-adv-x="942" 
d="M389 1288l-315 379h327l121 -172l121 172h338l-317 -379h-275zM479 0h-360v1130h346v-139q108 170 301 170q71 0 141 -31l-28 -344q-79 27 -150 27q-250 0 -250 -326v-487z" />
    <glyph glyph-name="Sacute" unicode="&#x15a;" horiz-adv-x="1280" 
d="M817 1622h-344l139 399h412zM643 -27q-377 0 -616 263l192 280q190 -190 430 -190q73 0 121.5 29t48.5 81q0 70 -123 117l-135 45q-149 55 -192 78q-250 133 -250 393q0 201 157 334t406 133q309 0 539 -190l-179 -291q-67 55 -167 90t-187 35q-76 0 -119 -28t-43 -71
q0 -65 121 -112l133 -49q98 -35 174 -66q289 -123 289 -397q0 -210 -164 -348q-165 -136 -436 -136z" />
    <glyph glyph-name="sacute" unicode="&#x15b;" horiz-adv-x="1062" 
d="M702 1288h-323l131 375h387zM539 -31q-295 0 -502 195l162 244q165 -142 338 -142q120 0 120 72q0 39 -61 63q-1 0 -7.5 2t-17 5.5t-24.5 8t-34 11t-42 14.5q-127 45 -156 58q-211 99 -211 307q0 158 127 258q124 100 340 100q241 0 422 -147l-155 -238q-145 97 -273 97
q-44 0 -73 -18.5t-29 -45.5q0 -55 102 -82q169 -48 266 -98q102 -51 147.5 -119.5t45.5 -167.5q0 -165 -131 -272q-132 -105 -354 -105z" />
    <glyph glyph-name="Scircumflex" unicode="&#x15c;" horiz-adv-x="1280" 
d="M551 1624h-348l336 404h290l340 -404h-360l-129 184zM643 -27q-377 0 -616 263l192 280q190 -190 430 -190q73 0 121.5 29t48.5 81q0 70 -123 117l-135 45q-149 55 -192 78q-250 133 -250 393q0 201 157 334t406 133q309 0 539 -190l-179 -291q-67 55 -167 90t-187 35
q-76 0 -119 -28t-43 -71q0 -65 121 -112l133 -49q98 -35 174 -66q289 -123 289 -397q0 -210 -164 -348q-165 -136 -436 -136z" />
    <glyph glyph-name="scircumflex" unicode="&#x15d;" horiz-adv-x="1054" 
d="M424 1290h-328l316 379h274l318 -379h-338l-121 172zM539 -31q-295 0 -502 195l162 244q165 -142 338 -142q120 0 120 72q0 39 -61 63q-1 0 -7.5 2t-17 5.5t-24.5 8t-34 11t-42 14.5q-127 45 -156 58q-211 99 -211 307q0 158 127 258q124 100 340 100q241 0 422 -147
l-155 -238q-145 97 -273 97q-44 0 -73 -18.5t-29 -45.5q0 -55 102 -82q169 -48 266 -98q102 -51 147.5 -119.5t45.5 -167.5q0 -165 -131 -272q-132 -105 -354 -105z" />
    <glyph glyph-name="Scedilla" unicode="&#x15e;" horiz-adv-x="1280" 
d="M1243 457q0 -189 -131 -320q-133 -130 -356 -157l-35 -80q95 -11 156 -69t61 -146q0 -106 -86 -183t-238 -77q-128 0 -270 65l72 197q85 -43 166 -43q98 0 98 65q0 68 -119 68h-108l-15 63l58 146q-281 44 -469 250l192 280q190 -190 430 -190q73 0 121.5 29t48.5 81
q0 70 -123 117l-135 45q-149 55 -192 78q-250 133 -250 393q0 201 157 334t406 133q309 0 539 -190l-179 -291q-67 55 -167 90t-187 35q-76 0 -119 -28t-43 -71q0 -65 121 -112l133 -49q98 -35 174 -66q289 -123 289 -397z" />
    <glyph glyph-name="scedilla" unicode="&#x15f;" horiz-adv-x="1062" 
d="M1024 346q0 -153 -111 -254.5t-301 -118.5l-28 -69q95 -11 156 -69t61 -146q0 -106 -86 -183t-238 -77q-128 0 -270 65l72 197q85 -43 165 -43q99 0 99 65q0 68 -119 68h-109l-14 63l57 146q-187 46 -321 174l162 244q165 -142 338 -142q120 0 120 72q0 39 -61 63
q-1 0 -7.5 2t-17 5.5t-24.5 8t-34 11t-42 14.5q-127 45 -156 58q-211 99 -211 307q0 158 127 258q124 100 340 100q241 0 422 -147l-155 -238q-145 97 -273 97q-44 0 -73 -18.5t-29 -45.5q0 -55 102 -82q169 -48 266 -98q102 -51 147.5 -119.5t45.5 -167.5z" />
    <glyph glyph-name="Scaron" unicode="&#x160;" horiz-adv-x="1280" 
d="M549 1628l-316 379h328l121 -172l121 172h338l-318 -379h-274zM643 -27q-377 0 -616 263l192 280q190 -190 430 -190q73 0 121.5 29t48.5 81q0 70 -123 117l-135 45q-149 55 -192 78q-250 133 -250 393q0 201 157 334t406 133q309 0 539 -190l-179 -291q-67 55 -167 90
t-187 35q-76 0 -119 -28t-43 -71q0 -65 121 -112l133 -49q98 -35 174 -66q289 -123 289 -397q0 -210 -164 -348q-165 -136 -436 -136z" />
    <glyph glyph-name="scaron" unicode="&#x161;" horiz-adv-x="1054" 
d="M414 1286l-316 379h328l121 -172l121 172h338l-318 -379h-274zM539 -31q-295 0 -502 195l162 244q165 -142 338 -142q120 0 120 72q0 39 -61 63q-1 0 -7.5 2t-17 5.5t-24.5 8t-34 11t-42 14.5q-127 45 -156 58q-211 99 -211 307q0 158 127 258q124 100 340 100
q241 0 422 -147l-155 -238q-145 97 -273 97q-44 0 -73 -18.5t-29 -45.5q0 -55 102 -82q169 -48 266 -98q102 -51 147.5 -119.5t45.5 -167.5q0 -165 -131 -272q-132 -105 -354 -105z" />
    <glyph glyph-name="Tcaron" unicode="&#x164;" horiz-adv-x="1282" 
d="M512 1630l-315 379h327l121 -172l121 172h338l-318 -379h-274zM449 0v1145h-420v368h1224v-368h-417v-1145h-387z" />
    <glyph glyph-name="tcaron" unicode="&#x165;" horiz-adv-x="983" 
d="M735 1282l144 385h370l-207 -385h-307zM719 301q82 0 178 51l96 -289q-157 -92 -360 -92q-420 0 -420 467v393h-172v299h176v402h358v-402h355v-299h-355v-350q0 -180 144 -180z" />
    <glyph glyph-name="Tbar" unicode="&#x166;" 
d="M1266 1513v-368h-418v-244h244v-299h-244v-602h-387v602h-244v299h244v244h-420v368h1225z" />
    <glyph glyph-name="tbar" unicode="&#x167;" horiz-adv-x="1009" 
d="M905 352l96 -289q-157 -92 -360 -92q-420 0 -420 467v47h-168v222h168v124h-172v299h176v402h359v-402h354v-299h-354v-124h338v-222h-338v-4q0 -180 143 -180q82 0 178 51z" />
    <glyph glyph-name="Utilde" unicode="&#x168;" horiz-adv-x="1515" 
d="M504 1606l-238 118q74 145 154 211t194 66q74 0 160 -47q83 -45 119 -45q65 0 127 108l240 -114q-120 -279 -320 -279q-66 0 -162 47q-91 49 -133 49q-83 0 -141 -114zM133 588v925h385v-919q0 -124 65 -188t175 -64q107 0 172 65.5t65 186.5v919h387v-925
q0 -130 -35 -235t-94 -174.5t-139.5 -117t-169 -68t-186.5 -20.5q-97 0 -185.5 20.5t-169.5 68t-140.5 117t-94.5 174.5t-35 235z" />
    <glyph glyph-name="utilde" unicode="&#x169;" horiz-adv-x="1288" 
d="M391 1266l-227 114q69 139 146.5 203t187.5 64q73 0 153 -45q82 -43 115 -43q62 0 123 102l229 -109q-117 -268 -307 -268q-70 0 -156 45q-89 47 -127 47q-79 0 -137 -110zM100 494v636h363v-641q0 -85 49 -136.5t131 -51.5q84 0 133 51.5t49 136.5v641h363v-636
q0 -249 -145 -386t-400 -137t-399 137t-144 386z" />
    <glyph glyph-name="Umacron" unicode="&#x16a;" horiz-adv-x="1515" 
d="M1161 1663l-801 -4v313h801v-309zM133 588v925h385v-919q0 -124 65 -188t175 -64q107 0 172 65.5t65 186.5v919h387v-925q0 -130 -35 -235t-94 -174.5t-139.5 -117t-169 -68t-186.5 -20.5q-97 0 -185.5 20.5t-169.5 68t-140.5 117t-94.5 174.5t-35 235z" />
    <glyph glyph-name="umacron" unicode="&#x16b;" horiz-adv-x="1288" 
d="M995 1309l-702 -4v313h702v-309zM100 494v636h363v-641q0 -85 49 -136.5t131 -51.5q84 0 133 51.5t49 136.5v641h363v-636q0 -249 -145 -386t-400 -137t-399 137t-144 386z" />
    <glyph glyph-name="Ubreve" unicode="&#x16c;" horiz-adv-x="1515" 
d="M326 2021h292q5 -73 41 -119.5t101 -46.5q66 0 102.5 46.5t38.5 119.5h297q-17 -195 -133 -303t-305 -108q-190 0 -305.5 108.5t-128.5 302.5zM133 588v925h385v-919q0 -124 65 -188t175 -64q107 0 172 65.5t65 186.5v919h387v-925q0 -130 -35 -235t-94 -174.5
t-139.5 -117t-169 -68t-186.5 -20.5q-97 0 -185.5 20.5t-169.5 68t-140.5 117t-94.5 174.5t-35 235z" />
    <glyph glyph-name="ubreve" unicode="&#x16d;" horiz-adv-x="1288" 
d="M643 1276q-178 0 -286 101.5t-121 283.5h274q5 -70 39 -113t94 -43q63 0 97 43.5t36 112.5h279q-13 -182 -123 -283.5t-289 -101.5zM100 494v636h363v-641q0 -85 49 -136.5t131 -51.5q84 0 133 51.5t49 136.5v641h363v-636q0 -249 -145 -386t-400 -137t-399 137t-144 386
z" />
    <glyph glyph-name="Uring" unicode="&#x16e;" horiz-adv-x="1515" 
d="M440 1894q0 131 92 220q93 90 226 90q132 0 225 -90q92 -89 92 -220q0 -126 -92 -215q-91 -88 -225 -88q-135 0 -226 88q-92 89 -92 215zM758 1788q44 0 76 33t32 77t-32 76.5t-76 32.5q-47 0 -79 -31t-32 -78q0 -45 32 -77.5t79 -32.5zM133 588v925h385v-919
q0 -124 65 -188t175 -64q107 0 172 65.5t65 186.5v919h387v-925q0 -130 -35 -235t-94 -174.5t-139.5 -117t-169 -68t-186.5 -20.5q-97 0 -185.5 20.5t-169.5 68t-140.5 117t-94.5 174.5t-35 235z" />
    <glyph glyph-name="uring" unicode="&#x16f;" horiz-adv-x="1288" 
d="M344 1522q0 121 86 204q89 86 213 86q125 0 211 -86q86 -83 86 -204q0 -120 -86 -203q-85 -82 -211 -82q-125 0 -213 82q-86 83 -86 203zM643 1421q41 0 70.5 31t29.5 74q0 42 -29 71t-71 29q-44 0 -74 -28.5t-30 -71.5t30 -74t74 -31zM100 494v636h363v-641
q0 -85 49 -136.5t131 -51.5q84 0 133 51.5t49 136.5v641h363v-636q0 -249 -145 -386t-400 -137t-399 137t-144 386z" />
    <glyph glyph-name="Uhungarumlaut" unicode="&#x170;" horiz-adv-x="1517" 
d="M678 1628h-320l95 400h389zM1157 1628h-330l146 400h403zM133 588v925h385v-919q0 -124 65 -188t175 -64q107 0 172 65.5t65 186.5v919h387v-925q0 -130 -35 -235t-94 -174.5t-139.5 -117t-169 -68t-186.5 -20.5q-97 0 -185.5 20.5t-169.5 68t-140.5 117t-94.5 174.5
t-35 235z" />
    <glyph glyph-name="uhungarumlaut" unicode="&#x171;" horiz-adv-x="1273" 
d="M559 1288h-299l88 375h365zM1010 1288h-310l136 375h378zM100 494v636h363v-641q0 -85 49 -136.5t131 -51.5q84 0 133 51.5t49 136.5v641h363v-636q0 -249 -145 -386t-400 -137t-399 137t-144 386z" />
    <glyph glyph-name="Uogonek" unicode="&#x172;" horiz-adv-x="1515" 
d="M995 594v919h387v-925q0 -226 -103 -373.5t-282 -204.5q-74 -38 -125 -98t-51 -113q0 -34 20 -53.5t52 -19.5q23 0 84 22l57 -221q-118 -62 -239 -62t-190.5 68.5t-69.5 175.5q0 146 143 268q-233 21 -391 173q-154 151 -154 438v925h385v-919q0 -124 65 -188t175 -64
q107 0 172 65.5t65 186.5z" />
    <glyph glyph-name="uogonek" unicode="&#x173;" horiz-adv-x="1288" 
d="M825 489v641h363v-636q0 -193 -87.5 -319.5t-250.5 -174.5q-74 -38 -125 -98t-51 -113q0 -35 20 -54.5t51 -19.5q20 0 84 23l58 -221q-118 -62 -240 -62q-121 0 -190.5 68.5t-69.5 175.5q0 152 156 278q-210 26 -326.5 160.5t-116.5 356.5v636h363v-641q0 -85 49 -136.5
t131 -51.5q84 0 133 51.5t49 136.5z" />
    <glyph glyph-name="Wcircumflex" unicode="&#x174;" horiz-adv-x="2238" 
d="M989 1628h-348l336 404h291l340 -404h-361l-129 184zM858 0h-369l-487 1513h424l258 -946l299 946h272l301 -946l256 946h424l-487 -1513h-367l-262 881z" />
    <glyph glyph-name="wcircumflex" unicode="&#x175;" horiz-adv-x="1857" 
d="M809 1284h-328l316 379h274l318 -379h-338l-121 172zM717 2h-322l-385 1128h381l195 -657l215 657h254l219 -657l192 657h381l-385 -1128h-321l-213 600z" />
    <glyph glyph-name="Ycircumflex" unicode="&#x176;" horiz-adv-x="1456" 
d="M600 1628h-348l336 404h291l340 -404h-361l-129 184zM999 1513h449l-530 -1005v-508h-381v508l-525 1005h451l264 -579z" />
    <glyph glyph-name="ycircumflex" unicode="&#x177;" horiz-adv-x="1298" 
d="M786 1288l-120 172l-121 -172h-328l315 379h275l317 -379h-338zM674 481l223 649h391l-438 -1132q-95 -242 -225.5 -360.5t-321.5 -118.5q-144 0 -244 63l70 297q74 -39 147 -39q135 0 218 164l6 14l-492 1112h416z" />
    <glyph glyph-name="Ydieresis" unicode="&#x178;" horiz-adv-x="1456" 
d="M479 1616q-88 0 -147.5 58.5t-59.5 148.5q0 86 59.5 144t147.5 58q87 0 146 -58t59 -144q0 -90 -59 -148.5t-146 -58.5zM768 1823q0 86 60 144t147 58q88 0 147.5 -58t59.5 -144q0 -90 -59.5 -148.5t-147.5 -58.5t-147.5 58.5t-59.5 148.5zM999 1513h449l-530 -1005v-508
h-381v508l-525 1005h451l264 -579z" />
    <glyph glyph-name="Zacute" unicode="&#x179;" horiz-adv-x="1386" 
d="M862 1630h-344l139 400h412zM1307 0h-1229v289l690 876h-666v348h1182v-301l-672 -864h695v-348z" />
    <glyph glyph-name="zacute" unicode="&#x17a;" horiz-adv-x="1150" 
d="M725 1288h-324l131 375h388zM1059 870l-490 -573h512v-297h-1011v254l505 577h-483v297h967v-258z" />
    <glyph glyph-name="Zdotaccent" unicode="&#x17b;" horiz-adv-x="1386" 
d="M707 1620q-91 0 -150 59t-59 150q0 87 60.5 146t148.5 59t147 -58.5t59 -146.5q0 -90 -59 -149.5t-147 -59.5zM1307 0h-1229v289l690 876h-666v348h1182v-301l-672 -864h695v-348z" />
    <glyph glyph-name="zdotaccent" unicode="&#x17c;" horiz-adv-x="1150" 
d="M588 1237q-91 0 -150 59t-59 150q0 87 60.5 146t148.5 59t147.5 -58.5t59.5 -146.5q0 -90 -59.5 -149.5t-147.5 -59.5zM1059 870l-490 -573h512v-297h-1011v254l505 577h-483v297h967v-258z" />
    <glyph glyph-name="Zcaron" unicode="&#x17d;" horiz-adv-x="1386" 
d="M573 1634l-315 379h328l121 -172l120 172h338l-317 -379h-275zM1307 0h-1229v289l690 876h-666v348h1182v-301l-672 -864h695v-348z" />
    <glyph glyph-name="zcaron" unicode="&#x17e;" horiz-adv-x="1150" 
d="M436 1290l-315 379h328l120 -172l121 172h338l-317 -379h-275zM1059 870l-490 -573h512v-297h-1011v254l505 577h-483v297h967v-258z" />
    <glyph glyph-name="Scommaaccent" unicode="&#x218;" horiz-adv-x="1280" 
d="M954 854q289 -123 289 -397q0 -210 -164 -348q-165 -136 -436 -136q-377 0 -616 263l192 280q190 -190 430 -190q73 0 121.5 29t48.5 81q0 70 -123 117l-135 45q-149 55 -192 78q-250 133 -250 393q0 201 157 334t406 133q309 0 539 -190l-179 -291q-67 55 -167 90
t-187 35q-76 0 -119 -28t-43 -71q0 -65 121 -112l133 -49q98 -35 174 -66zM848 -301q0 -105 -79.5 -203t-264.5 -233l-125 157q98 71 164 134q-48 21 -79.5 68t-31.5 102q0 79 58.5 134.5t144.5 55.5q89 0 151 -60t62 -155z" />
    <glyph glyph-name="scommaaccent" unicode="&#x219;" horiz-adv-x="1062" 
d="M831 633q102 -51 147.5 -119.5t45.5 -167.5q0 -165 -131 -272q-132 -105 -354 -105q-295 0 -502 195l162 244q165 -142 338 -142q120 0 120 72q0 39 -61 63q-1 0 -7.5 2t-17 5.5t-24.5 8t-34 11t-42 14.5q-127 45 -156 58q-211 99 -211 307q0 158 127 258
q124 100 340 100q241 0 422 -147l-155 -238q-145 97 -273 97q-44 0 -73 -18.5t-29 -45.5q0 -55 102 -82q169 -48 266 -98zM733 -305q0 -101 -75.5 -193t-254.5 -225l-120 152q95 69 157 127q-48 20 -77 64.5t-29 98.5q0 76 55 129.5t139 53.5q87 0 146 -57.5t59 -149.5z" />
    <glyph glyph-name="uni021A" unicode="&#x21a;" horiz-adv-x="1282" 
d="M29 1145v368h1224v-368h-417v-1145h-387v1145h-420zM850 -270q0 -106 -79.5 -204t-264.5 -233l-125 158q103 75 164 133q-48 21 -79.5 68t-31.5 102q0 79 59 135t144 56q89 0 151 -60t62 -155z" />
    <glyph glyph-name="uni021B" unicode="&#x21b;" horiz-adv-x="999" 
d="M897 352l96 -289q-157 -92 -360 -92q-420 0 -420 467v393h-172v299h176v402h358v-402h355v-299h-355v-350q0 -180 144 -180q82 0 178 51zM795 -301q0 -101 -75.5 -193t-254.5 -225l-121 152q100 72 158 127q-48 20 -77.5 65t-29.5 99q0 76 55.5 129t139.5 53
q87 0 146 -57.5t59 -149.5z" />
    <glyph glyph-name="uni0237" unicode="&#x237;" horiz-adv-x="638" 
d="M47 -481q-202 0 -303 67l66 281q103 -35 170 -35q90 0 137 55t47 160v1083h362v-1120q0 -248 -135 -368q-132 -123 -344 -123z" />
    <glyph glyph-name="circumflex" unicode="&#x2c6;" horiz-adv-x="1128" 
d="M410 1268h-328l315 379h275l317 -379h-338l-121 172z" />
    <glyph glyph-name="caron" unicode="&#x2c7;" horiz-adv-x="1120" 
d="M397 1276l-315 379h328l120 -172l121 172h338l-317 -379h-275z" />
    <glyph glyph-name="breve" unicode="&#x2d8;" horiz-adv-x="991" 
d="M489 1266q-178 0 -286 101.5t-121 283.5h274q5 -70 39 -113t94 -43q61 0 96.5 44t37.5 112h278q-13 -182 -123 -283.5t-289 -101.5z" />
    <glyph glyph-name="dotaccent" unicode="&#x2d9;" horiz-adv-x="614" 
d="M291 1204q-91 0 -150 59t-59 150q0 87 60.5 146t148.5 59t147.5 -58.5t59.5 -146.5q0 -90 -59.5 -149.5t-147.5 -59.5z" />
    <glyph glyph-name="ring" unicode="&#x2da;" horiz-adv-x="788" 
d="M82 1495q0 122 86 205q89 86 213 86q125 0 211 -86q86 -83 86 -205q0 -120 -86 -203q-85 -82 -211 -82q-125 0 -213 82q-86 83 -86 203zM381 1395q41 0 70.5 30.5t29.5 73.5q0 42 -29 71t-71 29q-44 0 -74.5 -28.5t-30.5 -71.5t30.5 -73.5t74.5 -30.5z" />
    <glyph glyph-name="ogonek" unicode="&#x2db;" horiz-adv-x="700" 
d="M524 -264l58 -221q-118 -62 -240 -62q-121 0 -190.5 68.5t-69.5 175.5q0 197 250 342l219 -39q-75 -36 -128.5 -98t-53.5 -115q0 -35 19.5 -54.5t51.5 -19.5q20 0 84 23z" />
    <glyph glyph-name="tilde" unicode="&#x2dc;" horiz-adv-x="1153" 
d="M309 1260l-227 114q69 139 146.5 202.5t187.5 63.5q73 0 153 -45q82 -43 115 -43q61 0 123 103l229 -109q-117 -268 -307 -268q-70 0 -156 45q-89 47 -127 47q-79 0 -137 -110z" />
    <glyph glyph-name="hungarumlaut" unicode="&#x2dd;" horiz-adv-x="1157" 
d="M385 1270h-299l88 375h365zM836 1270h-310l136 375h378z" />
    <glyph glyph-name="uni0394" unicode="&#x394;" horiz-adv-x="1570" 
d="M1538 0h-1503v258l641 1255h221l641 -1255v-258zM784 1004l-305 -637h615z" />
    <glyph glyph-name="uni03A9" unicode="&#x3a9;" horiz-adv-x="1763" 
d="M807 0h-715v336h268q-106 72 -173.5 201.5t-67.5 293.5q0 305 219 506q221 203 545 203t542 -203q220 -202 220 -506q0 -164 -68 -293.5t-174 -201.5h268v-336h-715v352q134 50 212.5 160t78.5 252q0 172 -106 272q-108 105 -258 105q-152 0 -260 -105
q-107 -101 -107 -272q0 -142 78.5 -252t212.5 -160v-352z" />
    <glyph glyph-name="uni03BC" unicode="&#x3bc;" horiz-adv-x="1388" 
d="M911 602v494h363v-1096h-346v145q-76 -168 -252 -168q-150 0 -215 132v-555h-346v1542h362v-543q0 -117 54 -181.5t151 -64.5q105 0 167 76t62 219z" />
    <glyph glyph-name="pi" unicode="&#x3c0;" horiz-adv-x="1318" 
d="M561 0h-362v776h-136v320h1190v-320h-133v-776h-366v776h-193v-776z" />
    <glyph glyph-name="uni0401" unicode="&#x401;" horiz-adv-x="1349" 
d="M455 1616q-88 0 -147.5 58.5t-59.5 148.5q0 86 59.5 144t147.5 58q86 0 145 -58t59 -144q0 -90 -58.5 -148.5t-145.5 -58.5zM743 1823q0 86 60 144t147 58q88 0 147.5 -58t59.5 -144q0 -90 -59.5 -148.5t-147.5 -58.5t-147.5 58.5t-59.5 148.5zM1241 0h-1091v1513h1093
v-354h-708v-223h655v-352h-655v-230h706v-354z" />
    <glyph glyph-name="uni0410" unicode="&#x410;" horiz-adv-x="1460" 
d="M1452 0h-393l-88 276h-482l-90 -276h-395l553 1513h356zM586 608h293l-144 449z" />
    <glyph glyph-name="uni0411" unicode="&#x411;" horiz-adv-x="1394" 
d="M524 965h269q151 0 264.5 -46t171.5 -126q108 -142 108 -318q0 -206 -139 -342q-139 -133 -375 -133h-673v1513h1030v-323h-656v-225zM524 328h234q90 0 138 43t48 112q0 66 -45.5 110t-128.5 44h-246v-309z" />
    <glyph glyph-name="uni0412" unicode="&#x412;" horiz-adv-x="1447" 
d="M1094 831q137 -35 211.5 -138t74.5 -247q0 -193 -135 -319q-136 -127 -352 -127h-743v1513h708q211 0 326 -112q116 -110 116 -262q0 -101 -57.5 -188.5t-148.5 -119.5zM786 1190h-262v-256h246q76 0 116 36t40 93q0 53 -38 90t-102 37zM524 328h287q86 0 131 42.5
t45 106.5q0 66 -44.5 109t-123.5 43h-295v-301z" />
    <glyph glyph-name="uni0413" unicode="&#x413;" horiz-adv-x="1157" 
d="M524 0h-374v1513h989v-335h-615v-1178z" />
    <glyph glyph-name="uni0414" unicode="&#x414;" horiz-adv-x="1695" 
d="M1061 1513l393 -1169h178v-651h-364v307h-842v-307h-365v651h170l406 1169h424zM848 1100l-232 -756h455z" />
    <glyph glyph-name="uni0415" unicode="&#x415;" horiz-adv-x="1349" 
d="M1241 0h-1091v1513h1093v-354h-708v-223h655v-352h-655v-230h706v-354z" />
    <glyph glyph-name="uni0416" unicode="&#x416;" horiz-adv-x="2181" 
d="M2109 326l19 -316q-73 -33 -186 -33q-160 -10 -285 111q-10 8 -21 21.5t-19.5 26t-20 31t-17.5 29t-16.5 29.5t-12.5 23q-38 76 -45 92q-21 51 -43 90q-42 84 -74.5 118t-74.5 34h-31v-582h-383v582h-31q-42 0 -74.5 -34t-74.5 -118q-22 -39 -43 -90q-7 -16 -45 -92
q-4 -9 -11 -21t-18 -30t-18 -31q-19 -32 -41.5 -57.5t-38.5 -38.5t-53 -39q-76 -54 -211 -54q-114 0 -187 33l19 316q53 -17 112 -17q62 0 101 45q38 43 131 213l59 107q34 60 60 94q-42 36 -74 94q-1 2 -11 23t-18 37l-26 57q-63 123 -109 176q-41 47 -107 47q-43 0 -84 -8
l-16 297q68 45 174 45q146 0 230 -84q83 -83 172 -281q85 -184 110 -215q25 -28 96 -28h27v585h383v-585h27q71 0 96 28q27 34 111 215q89 198 172 281q84 84 229 84q106 0 174 -45l-16 -297q-41 8 -84 8q-68 0 -109 -47q-39 -44 -106 -176q-78 -153 -131 -209
q22 -29 61 -96q149 -266 172 -295q58 -67 119 -70q56 0 112 17z" />
    <glyph glyph-name="uni0417" unicode="&#x417;" horiz-adv-x="1288" 
d="M578 -25q-292 0 -547 150l135 307q213 -110 424 -110q107 0 166 37t59 100q0 58 -51 91.5t-141 33.5h-269v334h174q110 0 172 39.5t62 103.5q2 60 -47 94.5t-135 34.5q-160 0 -351 -111l-170 273q105 87 259.5 137.5t314.5 50.5q240 0 383 -119t143 -278
q0 -98 -57.5 -178t-165.5 -127l-2 -9q134 -38 208.5 -137.5t74.5 -232.5q0 -198 -166 -342q-168 -142 -473 -142z" />
    <glyph glyph-name="uni0418" unicode="&#x418;" horiz-adv-x="1613" 
d="M393 0h-243v1513h374v-882l693 882h247v-1513h-374v872z" />
    <glyph glyph-name="uni0419" unicode="&#x419;" horiz-adv-x="1613" 
d="M373 1835l188 193q82 -103 148 -142t147 -39t147 39t148 142l188 -193q-202 -254 -485 -254q-282 0 -481 254zM393 0h-243v1513h374v-882l693 882h247v-1513h-374v872z" />
    <glyph glyph-name="uni041A" unicode="&#x41a;" horiz-adv-x="1474" 
d="M1499 0h-467l-336 545l-164 -199v-346h-382v1513h382v-622l478 622h463l-525 -669z" />
    <glyph glyph-name="uni041B" unicode="&#x41b;" horiz-adv-x="1470" 
d="M420 0h-414l524 1513h426l508 -1513h-413l-310 1047z" />
    <glyph glyph-name="uni041C" unicode="&#x41c;" horiz-adv-x="1953" 
d="M524 0h-374v1513h282l545 -778l543 778h284v-1513h-379v727l-378 -530h-144l-379 530v-727z" />
    <glyph glyph-name="uni041D" unicode="&#x41d;" horiz-adv-x="1597" 
d="M532 0h-382v1513h382v-577h531v577h385v-1513h-385v569h-531v-569z" />
    <glyph glyph-name="uni041E" unicode="&#x41e;" horiz-adv-x="1726" 
d="M864 -25q-338 0 -567 226q-225 225 -225 555t227 557t563 227q338 0 565 -227q228 -228 228 -557q0 -327 -228 -555q-226 -226 -563 -226zM862 354q168 0 283 115t115 289q-3 176 -119 289q-114 114 -279 114q-166 0 -280 -117q-115 -115 -115 -286q0 -174 115 -289
t280 -115z" />
    <glyph glyph-name="uni041F" unicode="&#x41f;" horiz-adv-x="1597" 
d="M532 0h-382v1513h1298v-1513h-385v1147h-531v-1147z" />
    <glyph glyph-name="uni0420" unicode="&#x420;" horiz-adv-x="1359" 
d="M150 1513h602q289 0 428 -151q141 -150 141 -375q0 -224 -145 -369q-143 -143 -451 -143h-193v-475h-382v1513zM532 819h211q88 0 136.5 48.5t48.5 123.5t-49 123.5t-127 48.5h-220v-344z" />
    <glyph glyph-name="uni0421" unicode="&#x421;" horiz-adv-x="1548" 
d="M852 -23q-328 0 -555 216q-223 216 -223 559q0 344 225 565q226 223 555 223q200 0 371.5 -80.5t277.5 -218.5l-243 -256q-177 189 -381 189q-174 0 -293 -119q-117 -120 -117 -301q0 -175 117 -295q120 -117 291 -117q224 0 389 195l254 -244q-105 -138 -281 -227
t-387 -89z" />
    <glyph glyph-name="uni0422" unicode="&#x422;" horiz-adv-x="1282" 
d="M449 0v1145h-420v368h1224v-368h-417v-1145h-387z" />
    <glyph glyph-name="uni0423" unicode="&#x423;" horiz-adv-x="1337" 
d="M322 -23q-128 0 -226 52l27 305q72 -29 131 -29q172 0 258 197l-471 1011h451l225 -591l198 591h447l-160 -364q-203 -477 -278 -629q-38 -77 -56 -112q-20 -46 -55 -107q-37 -64 -68 -104q-101 -121 -174 -158q-118 -62 -249 -62z" />
    <glyph glyph-name="uni0424" unicode="&#x424;" horiz-adv-x="1984" 
d="M1921 758q0 -303 -199 -502q-200 -200 -538 -227v-193h-385v193q-339 27 -539 227q-197 200 -197 502q0 303 201 504q200 200 535 227v188h385v-188q336 -27 536 -227q201 -201 201 -504zM1184 1155v-799q165 13 259.5 120t94.5 278t-94.5 276.5t-259.5 124.5zM446 754
q0 -169 94 -276t259 -120v797q-163 -20 -258 -126.5t-95 -274.5z" />
    <glyph glyph-name="uni0425" unicode="&#x425;" horiz-adv-x="1439" 
d="M446 0h-444l471 764l-432 749h440l240 -462l262 462h444l-462 -749l452 -764h-438l-262 477z" />
    <glyph glyph-name="uni0426" unicode="&#x426;" horiz-adv-x="1595" 
d="M1518 -307h-383v307h-985v1513h385v-1146h430v1146h385v-1146h168v-674z" />
    <glyph glyph-name="uni0427" unicode="&#x427;" horiz-adv-x="1458" 
d="M924 803v710h385v-1513h-385v446q-143 -47 -269 -47q-569 0 -569 570v544h387v-495q0 -133 53.5 -191.5t165.5 -58.5q107 0 232 35z" />
    <glyph glyph-name="uni0428" unicode="&#x428;" horiz-adv-x="2265" 
d="M2116 0h-1966v1513h385v-1146h405v1146h385v-1146h404v1146h387v-1513z" />
    <glyph glyph-name="uni0429" unicode="&#x429;" horiz-adv-x="2359" 
d="M2281 -307h-380v307h-1751v1513h385v-1146h405v1146h385v-1146h404v1146h387v-1146h165v-674z" />
    <glyph glyph-name="uni042A" unicode="&#x42a;" horiz-adv-x="1570" 
d="M956 1075q257 0 414 -145q160 -145 160 -398q0 -81 -20 -157t-63.5 -145t-107 -120t-158 -81t-208.5 -29h-633v1190h-311v323h686v-475q115 37 241 37zM715 338h184q116 0 176 52.5t60 148.5q0 198 -234 198q-88 0 -186 -28v-371z" />
    <glyph glyph-name="uni042B" unicode="&#x42b;" horiz-adv-x="2043" 
d="M530 1022h263q122 0 219.5 -32t158 -83.5t100.5 -120.5t56 -137t16 -139q0 -223 -141 -367q-137 -143 -377 -143h-669v1513h374v-491zM1509 0v1513h385v-1513h-385zM530 330h230q91 0 140.5 51.5t49.5 132.5q0 76 -50.5 126t-133.5 50h-236v-360z" />
    <glyph glyph-name="uni042C" unicode="&#x42c;" horiz-adv-x="1380" 
d="M766 1075q257 0 414 -145q159 -144 159 -398q0 -81 -20 -157t-63.5 -145t-107 -120t-158 -81t-208.5 -29h-632v1513h374v-475q115 37 242 37zM524 338h185q116 0 175.5 52.5t59.5 148.5q0 198 -233 198q-89 0 -187 -28v-371z" />
    <glyph glyph-name="uni042D" unicode="&#x42d;" horiz-adv-x="1554" 
d="M700 1540q330 0 553 -223q228 -221 228 -565q0 -342 -224 -559q-227 -216 -555 -216q-211 0 -387 89q-174 88 -280 227l254 244q165 -195 389 -195q127 0 226 64.5t147 175.5h-543v336h547q-44 117 -147 186.5t-232 69.5q-204 0 -381 -189l-244 256q106 138 277.5 218.5
t371.5 80.5z" />
    <glyph glyph-name="uni042E" unicode="&#x42e;" horiz-adv-x="2347" 
d="M1483 1540q338 0 565 -227t227 -557q0 -328 -227 -555q-226 -226 -563 -226q-286 0 -498 164q-211 166 -272 426h-180v-565h-385v1513h385v-579h176q62 267 272 436q212 170 500 170zM1483 354q167 0 282 115t115 289q-3 176 -119 289q-114 114 -278 114t-281 -117
q-115 -115 -115 -286q0 -174 115 -289t281 -115z" />
    <glyph glyph-name="uni042F" unicode="&#x42f;" horiz-adv-x="1435" 
d="M721 1513h567v-1513h-377v479q-84 -13 -178 -16l-266 -463h-426l330 528q-260 126 -260 461q0 235 153 379q157 145 457 145zM739 788q68 0 172 17v364h-174q-235 0 -235 -188q0 -193 237 -193z" />
    <glyph glyph-name="uni0430" unicode="&#x430;" horiz-adv-x="1411" 
d="M950 1028v102h340v-1130h-340v98q-139 -127 -334 -127q-241 0 -397 172q-156 173 -156 426q0 255 156 422q155 168 397 168q197 0 334 -131zM946 567q0 109 -76 185q-77 77 -186 77q-112 0 -186 -77t-74 -185q0 -111 74 -188q78 -78 186 -78t186 78q76 76 76 188z" />
    <glyph glyph-name="uni0431" unicode="&#x431;" horiz-adv-x="1435" 
d="M811 1114q227 0 393 -153q168 -149 168 -406q0 -248 -170 -418q-168 -168 -457 -168q-180 0 -316.5 70t-213.5 194q-143 239 -143 560q0 343 143 532q143 192 373 248q81 18 145 29q26 4 139 26q51 14 129 52.5t156 95.5l133 -277q-86 -86 -190 -129q-96 -38 -334 -86
q-177 -35 -264 -113q-86 -77 -107 -276q61 105 171 162t245 57zM748 291q110 0 184 75t74 185q0 107 -74 178q-74 74 -182 74q-105 0 -183 -72q-73 -70 -73 -180q0 -107 71 -184q73 -76 183 -76z" />
    <glyph glyph-name="uni0432" unicode="&#x432;" horiz-adv-x="1359" 
d="M1018 883q135 -38 207.5 -147t72.5 -269q0 -196 -159 -346q-160 -148 -432 -148q-88 0 -156 11t-152 45q-90 38 -153 98q-67 67 -109.5 185.5t-42.5 269.5v381q0 170 49.5 300t137.5 203q168 138 417 138q236 0 379 -113q148 -115 148 -299q0 -105 -56.5 -189.5
t-150.5 -119.5zM690 1272q-67 0 -116.5 -32t-73.5 -85q-41 -87 -41 -176v-12h186q114 0 165.5 43.5t51.5 115.5q0 70 -47.5 108t-124.5 38zM709 303q100 0 159.5 52.5t59.5 127.5q0 89 -52 134t-176 45h-241v-76q0 -283 250 -283z" />
    <glyph glyph-name="uni0433" unicode="&#x433;" horiz-adv-x="1064" 
d="M524 -27q-224 0 -343.5 89t-119.5 231q0 85 28.5 151.5t74.5 107t101 71t110.5 50t101.5 37t74.5 39t28.5 48.5q0 71 -119 71q-129 0 -283 -65l-86 262q213 94 447 94q201 0 319.5 -83.5t118.5 -221.5q0 -101 -50 -178.5t-128 -118.5q-40 -20 -109.5 -48.5t-110.5 -46
t-74.5 -46t-33.5 -60.5q0 -84 147 -84q150 0 326 84l70 -278q-237 -105 -490 -105z" />
    <glyph glyph-name="uni0434" unicode="&#x434;" horiz-adv-x="1392" 
d="M956 1036v94h326v-968q0 -312 -174 -477.5t-492 -165.5q-208 0 -471 88l74 289q186 -70 387 -70q166 0 249 69t83 191v27q-121 -115 -315 -115q-253 -3 -406 160q-154 165 -154 417q0 258 164 422q162 162 412 162q188 0 317 -123zM940 571q0 110 -73 183t-183 73
q-111 0 -183.5 -72t-72.5 -184q0 -113 73 -187.5t183 -74.5t183 74.5t73 187.5z" />
    <glyph glyph-name="uni0435" unicode="&#x435;" 
d="M1247 594q0 -68 -12 -145h-807q62 -179 277 -179q186 0 342 105l141 -244q-218 -156 -500 -156q-299 0 -463 170q-162 171 -162 420q0 256 168 424q170 170 437 170q250 0 415 -151q164 -150 164 -414zM668 870q-186 0 -244 -174h479q-23 83 -84 128.5t-151 45.5z" />
    <glyph glyph-name="uni0436" unicode="&#x436;" horiz-adv-x="1896" 
d="M1829 285l14 -277q-71 -26 -168 -26q-63 0 -125 16q-60 19 -92 37t-67 57q-41 52 -48 64l-40 73l-31 62q-30 59 -56.5 80.5t-64.5 21.5h-25v-393h-358v393h-25q-36 0 -62 -21.5t-56 -80.5q-7 -9 -35 -64q-25 -51 -39 -71q-15 -27 -47 -64q-46 -54 -110 -79t-173 -31
q-97 0 -168 26l15 277q49 -11 82 -11q52 0 100 48q41 41 137 192l37 55q-30 24 -80 115q-34 59 -57 96q-50 72 -121 72l-72 -4l-10 260q61 37 156 37q122 0 196.5 -53.5t132.5 -169.5l27 -54l43 -82q8 -14 14.5 -21t15.5 -14t13 -10q21 -16 63 -16h23v405h358v-405h25
q51 0 84 33q17 17 39 61l51 103q58 116 133 169.5t199 53.5q94 0 155 -37l-10 -260l-71 4q-38 0 -74 -25q-31 -22 -47 -47q-35 -56 -58 -96q-49 -88 -79 -115l34 -55q89 -139 138 -192q48 -48 100 -48q35 0 84 11z" />
    <glyph glyph-name="uni0437" unicode="&#x437;" horiz-adv-x="1161" 
d="M535 -475q-291 0 -535 168l117 278q199 -123 356 -123q117 0 181.5 48t64.5 133q0 82 -58 126t-167 44h-193v301h133q118 0 179 47.5t61 124.5q0 74 -54.5 118t-140.5 44q-128 0 -311 -119l-150 254q88 82 234 135q143 55 293 55q223 0 366 -125q144 -123 144 -295
q0 -104 -56.5 -191t-158.5 -134v-8q125 -38 195.5 -143.5t70.5 -244.5q0 -209 -150 -350q-149 -143 -421 -143z" />
    <glyph glyph-name="uni0438" unicode="&#x438;" horiz-adv-x="1366" 
d="M891 1130h360v-1130h-350v160q-40 -78 -144 -133.5t-229 -55.5q-179 0 -303 121q-123 123 -123 365v673h363v-604q0 -109 50 -167t144 -58q105 0 168.5 67.5t63.5 182.5v579z" />
    <glyph glyph-name="uni0439" unicode="&#x439;" horiz-adv-x="1366" 
d="M250 1432l170 174q72 -93 131.5 -127.5t132.5 -34.5q75 0 134.5 34.5t131.5 127.5l170 -174q-184 -228 -438 -228q-253 0 -432 228zM891 1130h360v-1130h-350v160q-40 -78 -144 -133.5t-229 -55.5q-179 0 -303 121q-123 123 -123 365v673h363v-604q0 -109 50 -167
t144 -58q105 0 168.5 67.5t63.5 182.5v579z" />
    <glyph glyph-name="uni043A" unicode="&#x43a;" horiz-adv-x="1257" 
d="M1292 0h-430l-334 449l-53 -50v-399h-360v1563h360v-760l340 327h440l-485 -454z" />
    <glyph glyph-name="uni043B" unicode="&#x43b;" horiz-adv-x="1312" 
d="M414 0h-404l447 1130h413l430 -1130h-401l-235 733z" />
    <glyph glyph-name="uni043C" unicode="&#x43c;" horiz-adv-x="1619" 
d="M463 0h-348v1130h276l420 -524l418 524h276v-1130h-348v502l-278 -328h-140l-276 328v-502z" />
    <glyph glyph-name="uni043D" unicode="&#x43d;" horiz-adv-x="1318" 
d="M846 725v405h358v-1130h-358v397h-373v-397h-358v1130h358v-405h373z" />
    <glyph glyph-name="uni043E" unicode="&#x43e;" horiz-adv-x="1353" 
d="M676 -31q-273 0 -445 172q-170 173 -170 424t170 424q171 174 445 174q276 0 444 -174q172 -172 172 -424t-172 -424q-169 -172 -444 -172zM676 307q108 0 182 74q74 77 74 186q0 110 -76 183q-73 73 -180 73q-108 0 -180 -75q-74 -74 -74 -181q0 -109 74 -186
q74 -74 180 -74z" />
    <glyph glyph-name="uni043F" unicode="&#x43f;" horiz-adv-x="1359" 
d="M475 0h-360v1130h352v-157q43 82 138.5 135t215.5 53q182 0 309 -121t127 -346v-694h-362v598q0 110 -53 171.5t-146 61.5q-99 0 -160 -66.5t-61 -176.5v-588z" />
    <glyph glyph-name="uni0440" unicode="&#x440;" horiz-adv-x="1411" 
d="M797 1159q241 0 397 -172q156 -169 156 -420q0 -246 -158 -424q-156 -172 -393 -172q-190 0 -322 123v-559h-362v1595h356v-104q133 133 326 133zM981 563q0 111 -72 185.5t-182 74.5t-183 -74.5t-73 -185.5q0 -106 72 -184q73 -76 184 -76q112 0 182 76q72 78 72 184z
" />
    <glyph glyph-name="uni0441" unicode="&#x441;" horiz-adv-x="1243" 
d="M664 -25q-266 0 -435 166q-166 166 -166 426q0 261 168 426q169 166 439 166q180 0 323.5 -86t214.5 -244l-288 -151q-86 145 -242 145q-113 0 -186 -73q-72 -75 -72 -183q0 -112 72.5 -186t181.5 -74q78 0 144 40t97 106l289 -172q-74 -142 -217.5 -224t-322.5 -82z" />
    <glyph glyph-name="uni0442" unicode="&#x442;" horiz-adv-x="2099" 
d="M1528 1163q197 0 332 -123q137 -119 137 -350v-690h-363v618q0 103 -51.5 158t-136.5 55q-94 0 -152.5 -60.5t-58.5 -164.5v-606h-361v618q0 99 -53.5 156t-140.5 57q-90 0 -147.5 -60.5t-57.5 -164.5v-606h-360v1130h352v-157q47 87 144 139.5t206 50.5q227 -3 313 -188
q62 90 168 139t230 49z" />
    <glyph glyph-name="uni0443" unicode="&#x443;" horiz-adv-x="1298" 
d="M672 481l223 649h391l-438 -1132q-95 -242 -225.5 -360.5t-321.5 -118.5q-144 0 -244 63l70 297q74 -39 147 -39q135 0 218 164l6 14l-492 1112h416z" />
    <glyph glyph-name="uni0444" unicode="&#x444;" horiz-adv-x="1792" 
d="M1733 567q0 -268 -175 -421.5t-487 -170.5v-446h-348v446q-296 15 -481 168q-179 150 -179 424q0 267 177 424q174 155 483 170v402h348v-402q304 -15 481 -170q181 -153 181 -424zM1071 848v-565q146 1 224.5 76.5t78.5 205.5t-76.5 203.5t-226.5 79.5zM723 283v565
q-150 -7 -226.5 -80.5t-76.5 -202.5t78.5 -203.5t224.5 -78.5z" />
    <glyph glyph-name="uni0445" unicode="&#x445;" horiz-adv-x="1208" 
d="M846 567l346 -567h-418l-172 332l-186 -332h-412l356 569l-311 561h412l145 -307l172 307h400z" />
    <glyph glyph-name="uni0446" unicode="&#x446;" horiz-adv-x="1546" 
d="M1253 1130v-706q-6 -114 56.5 -152.5t224.5 -38.5v-602h-313v346q-117 0 -194 61.5t-89 180.5q-38 -111 -151 -179.5t-259 -68.5q-179 0 -303 121q-123 123 -123 365v673h363v-604q0 -109 50 -167t144 -58q105 0 168.5 67.5t63.5 182.5v579h362z" />
    <glyph glyph-name="uni0447" unicode="&#x447;" horiz-adv-x="1245" 
d="M770 629v501h363v-1130h-363v309q-134 -28 -221 -28q-101 0 -176.5 18t-147.5 61q-74 45 -113.5 142t-39.5 237v391h362v-366q0 -154 164 -154q85 0 172 19z" />
    <glyph glyph-name="uni0448" unicode="&#x448;" horiz-adv-x="2025" 
d="M1548 524v606h363v-1130h-344v160q-38 -78 -133.5 -133.5t-204.5 -55.5q-97 0 -180.5 45t-126.5 129q-58 -84 -158 -129t-211 -45q-187 0 -320 127q-131 125 -131 375v657h363v-624q0 -97 46 -151t126 -54q87 0 137.5 60t50.5 163v606h365v-626q0 -97 43.5 -150
t122.5 -53q86 0 139 62t53 161z" />
    <glyph glyph-name="uni0449" unicode="&#x449;" horiz-adv-x="2213" 
d="M1911 1130v-706q0 -114 63.5 -152.5t225.5 -38.5v-602h-312v346q-119 0 -194.5 61.5t-87.5 180.5q-41 -111 -149 -179.5t-243 -68.5q-91 0 -171 45.5t-121 128.5q-58 -84 -158 -129t-211 -45q-187 0 -320 127q-131 125 -131 375v657h363v-624q0 -97 46 -151t126 -54
q87 0 137.5 60t50.5 163v606h363v-626q0 -96 44 -149.5t122 -53.5q87 0 140.5 62t53.5 161v606h363z" />
    <glyph glyph-name="uni044A" unicode="&#x44a;" horiz-adv-x="1359" 
d="M834 932q196 0 333 -131q140 -134 140 -338q0 -74 -17.5 -142.5t-58.5 -133t-101.5 -112t-152.5 -76t-205 -28.5q-118 0 -212 34.5t-154 92.5q-152 157 -152 449v291h-225v292h579v-258q111 60 226 60zM782 281q82 0 126 48t44 126q0 81 -46.5 125.5t-135.5 44.5
q-77 0 -162 -31v-107q-2 -37 6 -70.5t26.5 -64t55 -50t86.5 -21.5z" />
    <glyph glyph-name="uni044B" unicode="&#x44b;" horiz-adv-x="1693" 
d="M455 809h196q236 0 346 -119q113 -119 113 -280q0 -180 -121 -295t-327 -115h-547v1130h342zM1223 0v1130h358v-1130h-358zM453 289h176q64 0 97.5 32.5t33.5 84.5q0 49 -35.5 81.5t-93.5 32.5h-176z" />
    <glyph glyph-name="uni044C" unicode="&#x44c;" horiz-adv-x="1202" 
d="M672 932q201 0 338 -131q139 -130 139 -338q0 -74 -18 -143t-59 -133t-101 -111.5t-151.5 -76t-203.5 -28.5q-150 0 -257 51t-162 144q-99 166 -99 381v583h355v-251q103 53 219 53zM627 281q83 0 125.5 47t42.5 127q0 81 -47 125.5t-136 44.5q-74 0 -159 -31v-107
q0 -206 174 -206z" />
    <glyph glyph-name="uni044D" unicode="&#x44d;" horiz-adv-x="1236" 
d="M573 1159q267 0 433 -166q168 -165 168 -426q0 -260 -166 -426t-430 -166q-181 0 -325 82t-218 224l278 168q31 -66 102.5 -111t149.5 -45q73 0 136.5 41.5t99.5 109.5h-336v242h336q-33 68 -98 110t-142 42q-76 0 -143 -42.5t-109 -113.5l-276 147q70 161 213.5 245.5
t326.5 84.5z" />
    <glyph glyph-name="uni044E" unicode="&#x44e;" horiz-adv-x="1863" 
d="M1186 1163q276 0 444 -174q172 -172 172 -424t-172 -424q-169 -172 -444 -172q-229 0 -391 125q-161 128 -207 324h-119v-418h-354v1563h354v-856h119q47 202 205 327q163 129 393 129zM1442 567q0 109 -74 183q-73 73 -182 73q-107 0 -180 -73q-74 -74 -74 -183
q0 -108 72 -186q74 -74 182 -74t182 74q74 77 74 186z" />
    <glyph glyph-name="uni044F" unicode="&#x44f;" horiz-adv-x="1230" 
d="M633 1130h483v-1130h-348v332q-98 -13 -152 -15l-196 -317h-385l256 379q-195 103 -195 346q0 192 137.5 298.5t399.5 106.5zM625 596q66 0 143 14v238h-121q-188 0 -188 -129q0 -123 166 -123z" />
    <glyph glyph-name="uni0451" unicode="&#x451;" 
d="M254 1427q0 82 56.5 138.5t140.5 56.5t140 -56.5t56 -138.5q0 -86 -55.5 -141t-140.5 -55t-141 55t-56 141zM727 1427q0 82 57.5 138.5t141.5 56.5t140 -56.5t56 -138.5q0 -86 -55.5 -141t-140.5 -55t-142 55t-57 141zM1247 594q0 -68 -12 -145h-807q62 -179 277 -179
q186 0 342 105l141 -244q-218 -156 -500 -156q-299 0 -463 170q-162 171 -162 420q0 256 168 424q170 170 437 170q250 0 415 -151q164 -150 164 -414zM668 870q-186 0 -244 -174h479q-23 83 -84 128.5t-151 45.5z" />
    <glyph glyph-name="Wgrave" unicode="&#x1e80;" horiz-adv-x="2238" 
d="M1159 2030l139 -402h-348l-205 402h414zM858 0h-369l-487 1513h424l258 -946l299 946h272l301 -946l256 946h424l-487 -1513h-367l-262 881z" />
    <glyph glyph-name="wgrave" unicode="&#x1e81;" horiz-adv-x="1857" 
d="M973 1663l131 -375h-326l-192 375h387zM717 2h-322l-385 1128h381l195 -657l215 657h254l219 -657l192 657h381l-385 -1128h-321l-213 600z" />
    <glyph glyph-name="Wacute" unicode="&#x1e82;" horiz-adv-x="2238" 
d="M1305 1626h-344l139 399h411zM858 0h-369l-487 1513h424l258 -946l299 946h272l301 -946l256 946h424l-487 -1513h-367l-262 881z" />
    <glyph glyph-name="wacute" unicode="&#x1e83;" horiz-adv-x="1857" 
d="M1092 1288h-324l131 375h387zM717 2h-322l-385 1128h381l195 -657l215 657h254l219 -657l192 657h381l-385 -1128h-321l-213 600z" />
    <glyph glyph-name="Wdieresis" unicode="&#x1e84;" horiz-adv-x="2238" 
d="M874 1616q-88 0 -147 58.5t-59 148.5q0 86 59 144t147 58q87 0 146 -58t59 -144q0 -90 -59 -148.5t-146 -58.5zM1163 1823q0 86 60 144t147 58q88 0 147.5 -58t59.5 -144q0 -90 -59.5 -148.5t-147.5 -58.5t-147.5 58.5t-59.5 148.5zM858 0h-369l-487 1513h424l258 -946
l299 946h272l301 -946l256 946h424l-487 -1513h-367l-262 881z" />
    <glyph glyph-name="wdieresis" unicode="&#x1e85;" horiz-adv-x="1857" 
d="M496 1458q0 82 56 138.5t140 56.5t140.5 -56.5t56.5 -138.5q0 -86 -56 -141t-141 -55t-140.5 55t-55.5 141zM969 1458q0 82 57 138.5t141 56.5t140.5 -56.5t56.5 -138.5q0 -86 -56 -141t-141 -55t-141.5 55t-56.5 141zM717 2h-322l-385 1128h381l195 -657l215 657h254
l219 -657l192 657h381l-385 -1128h-321l-213 600z" />
    <glyph glyph-name="Ygrave" unicode="&#x1ef2;" horiz-adv-x="1456" 
d="M784 2030l140 -402h-349l-204 402h413zM999 1513h449l-530 -1005v-508h-381v508l-525 1005h451l264 -579z" />
    <glyph glyph-name="ygrave" unicode="&#x1ef3;" horiz-adv-x="1298" 
d="M696 1663l131 -375h-325l-193 375h387zM674 481l223 649h391l-438 -1132q-95 -242 -225.5 -360.5t-321.5 -118.5q-144 0 -244 63l70 297q74 -39 147 -39q135 0 218 164l6 14l-492 1112h416z" />
    <glyph glyph-name="uni2009" unicode="&#x2009;" horiz-adv-x="159" 
 />
    <glyph glyph-name="endash" unicode="&#x2013;" horiz-adv-x="1480" 
d="M1368 399h-1255v336h1255v-336z" />
    <glyph glyph-name="emdash" unicode="&#x2014;" horiz-adv-x="2134" 
d="M2021 399h-1908v336h1908v-336z" />
    <glyph glyph-name="quoteleft" unicode="&#x2018;" horiz-adv-x="538" 
d="M291 1427q69 -1 118.5 -53t49.5 -121q0 -81 -59.5 -137.5t-141.5 -56.5q-91 0 -149 63t-58 160q0 238 340 463l96 -137q-156 -120 -196 -181z" />
    <glyph glyph-name="quoteright" unicode="&#x2019;" horiz-adv-x="534" 
d="M289 1731q90 0 148.5 -63.5t58.5 -160.5q0 -238 -340 -463l-97 138q159 122 197 180q-69 1 -118.5 53t-49.5 121q0 84 59 139.5t142 55.5z" />
    <glyph glyph-name="quotesinglbase" unicode="&#x201a;" horiz-adv-x="557" 
d="M272 356q91 0 149 -63t58 -160q0 -238 -340 -463l-96 137q158 121 197 181q-69 1 -118.5 53t-49.5 121q0 84 58.5 139t141.5 55z" />
    <glyph glyph-name="quotedblleft" unicode="&#x201c;" horiz-adv-x="1075" 
d="M395 1745l97 -137q-158 -121 -197 -181q69 -1 118.5 -53t49.5 -121q0 -81 -59.5 -137.5t-141.5 -56.5q-91 0 -149 63t-58 160q0 238 340 463zM827 1427q69 -1 118.5 -53t49.5 -121q0 -81 -59 -137.5t-141 -56.5q-91 0 -149 63t-58 160q0 238 340 463l96 -137
q-158 -121 -197 -181z" />
    <glyph glyph-name="quotedblright" unicode="&#x201d;" horiz-adv-x="1069" 
d="M287 1737q90 0 148.5 -63.5t58.5 -160.5q0 -237 -340 -462l-97 137q159 122 197 180q-69 1 -118.5 53t-49.5 121q0 81 59.5 138t141.5 57zM821 1737q90 0 148.5 -63.5t58.5 -160.5q0 -237 -340 -462l-96 137q157 121 196 180q-69 1 -118 53t-49 121q0 81 59 138t141 57z
" />
    <glyph glyph-name="quotedblbase" unicode="&#x201e;" horiz-adv-x="1089" 
d="M268 354q91 0 149 -63t58 -160q0 -238 -340 -463l-96 137q158 121 197 181q-69 1 -118.5 53t-49.5 121q0 81 59 137.5t141 56.5zM805 354q91 0 149 -63t58 -160q0 -238 -340 -463l-97 137q158 121 197 181q-69 1 -118.5 53t-49.5 121q0 81 59.5 137.5t141.5 56.5z" />
    <glyph glyph-name="dagger" unicode="&#x2020;" horiz-adv-x="1085" 
d="M725 1128h283v-331h-283v-1162h-365v1162h-282v331h282v611h365v-611z" />
    <glyph glyph-name="daggerdbl" unicode="&#x2021;" horiz-adv-x="1085" 
d="M1008 1214v-331h-283v-391h283v-332h-283v-525h-365v525h-282v332h282v391h-282v331h282v525h365v-525h283z" />
    <glyph glyph-name="bullet" unicode="&#x2022;" horiz-adv-x="1003" 
d="M498 313q-156 0 -269 113q-112 112 -112 268q0 161 112 273q114 114 269 114q158 0 272 -114q115 -115 115 -273q0 -155 -115 -270q-114 -111 -272 -111z" />
    <glyph glyph-name="ellipsis" unicode="&#x2026;" horiz-adv-x="1599" 
d="M270 -33q-85 0 -142.5 56.5t-57.5 140.5q0 82 57.5 137t142.5 55q80 0 136.5 -56.5t56.5 -135.5q0 -84 -56.5 -140.5t-136.5 -56.5zM803 -33q-85 0 -143 56.5t-58 140.5q0 82 58 137t143 55q79 0 135.5 -56t56.5 -136q0 -84 -56 -140.5t-136 -56.5zM1335 -33
q-85 0 -142.5 56.5t-57.5 140.5q0 82 57.5 137t142.5 55q80 0 136.5 -56.5t56.5 -135.5q0 -84 -56.5 -140.5t-136.5 -56.5z" />
    <glyph glyph-name="perthousand" unicode="&#x2030;" horiz-adv-x="2721" 
d="M453 782q-166 0 -281 109q-115 112 -115 266q0 156 115 268q113 113 281 113q165 0 278 -113q117 -111 117 -268q0 -155 -117 -266q-115 -109 -278 -109zM561 0h-342l1094 1513h342zM590 1161q0 56 -41 95.5t-96 39.5t-95.5 -39.5t-40.5 -95.5q0 -59 40.5 -98t95.5 -39
t96 39t41 98zM1432 -25q-165 0 -279 111q-115 112 -115 264q0 156 115 268q113 113 279 113q167 0 280 -113q117 -111 117 -268q0 -153 -117 -264q-114 -111 -280 -111zM1884 350q0 156 115 268q114 111 278 111q165 0 279 -111q117 -111 117 -268q0 -153 -117 -264
q-114 -111 -279 -111q-164 0 -278 111q-115 112 -115 264zM2423 352q0 60 -44 103t-102 43t-101.5 -42.5t-43.5 -103.5q0 -62 43.5 -103.5t101.5 -41.5q59 0 102.5 41.5t43.5 103.5zM1432 217q57 0 97 38.5t40 98.5q0 56 -40.5 95.5t-96.5 39.5q-55 0 -95.5 -39.5
t-40.5 -95.5q0 -59 40.5 -98t95.5 -39z" />
    <glyph glyph-name="guilsinglleft" unicode="&#x2039;" horiz-adv-x="788" 
d="M709 180h-387l-267 416l269 416h385l-283 -416z" />
    <glyph glyph-name="guilsinglright" unicode="&#x203a;" horiz-adv-x="788" 
d="M733 596l-266 -416h-387l282 416l-282 416h385z" />
    <glyph glyph-name="fraction" unicode="&#x2044;" horiz-adv-x="471" 
d="M-211 0h-283l1184 1513h281z" />
    <glyph glyph-name="uni2070" unicode="&#x2070;" horiz-adv-x="815" 
d="M408 1026q-175 0 -269 113t-94 307t94 307q95 115 269 115q170 0 265 -114t95 -308q0 -193 -95 -306.5t-265 -113.5zM283 1446q0 -211 125 -211q124 0 124 211t-124 211q-125 0 -125 -211z" />
    <glyph glyph-name="uni2074" unicode="&#x2074;" horiz-adv-x="765" 
d="M627 1386h82v-178h-82v-170h-211v170h-353l-47 135l424 506h187v-463zM416 1583l-166 -197h166v197z" />
    <glyph glyph-name="uni2075" unicode="&#x2075;" horiz-adv-x="690" 
d="M358 1565q128 0 204.5 -73.5t76.5 -191.5q0 -119 -89 -196.5t-235 -77.5q-167 0 -295 90l84 176q109 -65 199 -65q56 0 87.5 23.5t31.5 62.5q0 33 -30.5 55.5t-78.5 22.5q-63 0 -131 -50l-104 111l49 391h455v-188h-306l-14 -105q50 15 96 15z" />
    <glyph glyph-name="uni2076" unicode="&#x2076;" horiz-adv-x="735" 
d="M410 1565q122 0 198 -73t76 -189q0 -119 -86.5 -198t-216.5 -79q-157 0 -243.5 108t-86.5 285q0 192 96 320q99 129 285 129q142 0 242 -74l-84 -160q-68 45 -146 45q-77 0 -129.5 -46.5t-66.5 -125.5q58 58 162 58zM479 1303q4 55 -48.5 78t-104 -0.5t-45.5 -80.5
q0 -39 28 -65.5t70 -26.5q43 0 71.5 27t28.5 68z" />
    <glyph glyph-name="uni2077" unicode="&#x2077;" horiz-adv-x="632" 
d="M25 1638v209h577v-159l-293 -644h-246l279 594h-317z" />
    <glyph glyph-name="uni2078" unicode="&#x2078;" horiz-adv-x="757" 
d="M55 1264q0 138 160 209v2q-125 52 -125 170q0 99 79.5 161t209.5 62q129 0 210 -62.5t81 -160.5q0 -121 -129 -170v-2q164 -68 164 -207q0 -105 -88 -172.5t-238 -67.5q-151 0 -237.5 66.5t-86.5 171.5zM465 1618q6 48 -40 68t-92.5 0t-41.5 -68q-5 -45 41.5 -64t92.5 0
t40 64zM379 1378q-49 0 -79 -24.5t-30 -63.5q0 -38 30.5 -62t78.5 -24q65 -6 92.5 40t0 92.5t-92.5 41.5z" />
    <glyph glyph-name="uni2079" unicode="&#x2079;" horiz-adv-x="731" 
d="M346 1868q156 0 242 -108.5t86 -289.5q0 -191 -99 -317q-95 -127 -282 -127q-141 0 -242 72l84 162q73 -46 148 -46q79 0 130.5 47.5t65.5 129.5q-71 -62 -168 -62q-125 0 -198.5 71.5t-73.5 186.5q0 124 86 202.5t221 78.5zM346 1501q41 0 68.5 26t27.5 64
q0 41 -27.5 68t-68.5 27q-43 0 -71.5 -27t-28.5 -68q0 -38 28.5 -64t71.5 -26z" />
    <glyph glyph-name="uni2080" unicode="&#x2080;" horiz-adv-x="815" 
d="M408 -330q-174 0 -269 115q-94 113 -94 305q0 194 94 307q95 115 269 115q170 0 265 -114t95 -308q0 -193 -95 -306.5t-265 -113.5zM283 90q0 -211 125 -211q124 0 124 211t-124 211q-125 0 -125 -211z" />
    <glyph glyph-name="uni2081" unicode="&#x2081;" horiz-adv-x="585" 
d="M8 264l314 228h170v-809h-228v497l-139 -98z" />
    <glyph glyph-name="uni2082" unicode="&#x2082;" horiz-adv-x="712" 
d="M526 16l-135 -135h254v-198h-575v180l264 264q78 81 78 125q0 25 -20.5 42t-51.5 17q-77 0 -201 -118l-104 165q142 154 319 154q125 0 207 -72.5t82 -187.5q0 -119 -117 -236z" />
    <glyph glyph-name="uni2083" unicode="&#x2083;" horiz-adv-x="686" 
d="M10 -248l90 176q115 -53 191 -53q102 0 102 64q0 29 -28.5 45t-73.5 16h-113v190h96q103 0 103 60q0 53 -86 53q-72 0 -152 -51l-108 162q122 98 288 98q123 0 205 -61q84 -63 84 -152q0 -65 -40.5 -113t-108.5 -69v-4q83 -18 127.5 -71t44.5 -124q4 -81 -53 -142.5
t-145.5 -88t-203.5 -11.5t-219 76z" />
    <glyph glyph-name="uni2084" unicode="&#x2084;" horiz-adv-x="765" 
d="M627 31h82v-178h-82v-170h-211v170h-353l-47 135l424 506h187v-463zM416 227l-166 -196h166v196z" />
    <glyph glyph-name="uni2085" unicode="&#x2085;" horiz-adv-x="690" 
d="M358 209q128 0 204.5 -73t76.5 -191q0 -119 -89.5 -197t-234.5 -78q-167 0 -295 90l84 177q111 -66 199 -66q56 0 87.5 23.5t31.5 62.5q0 33 -30.5 55.5t-78.5 22.5q-64 0 -131 -49l-104 110l49 391h455v-188h-306l-14 -104q46 14 96 14z" />
    <glyph glyph-name="uni2086" unicode="&#x2086;" horiz-adv-x="735" 
d="M410 209q122 0 198 -73t76 -189q0 -119 -86.5 -198t-216.5 -79q-157 0 -243.5 108t-86.5 285q0 192 96 320q99 129 285 129q142 0 242 -74l-84 -159q-68 45 -146 45q-77 0 -129.5 -46.5t-66.5 -125.5q57 57 162 57zM479 -53q4 55 -48.5 78.5t-104 0t-45.5 -80.5
q0 -39 28 -65.5t70 -26.5q43 0 71.5 26.5t28.5 67.5z" />
    <glyph glyph-name="uni2087" unicode="&#x2087;" horiz-adv-x="632" 
d="M25 283v209h577v-160l-293 -643h-246l279 594h-317z" />
    <glyph glyph-name="uni2088" unicode="&#x2088;" horiz-adv-x="757" 
d="M55 -92q0 138 160 209v2q-125 52 -125 170q0 99 79.5 161t209.5 62q129 0 210 -62.5t81 -160.5q0 -121 -129 -170v-2q164 -68 164 -207q0 -105 -88 -172.5t-238 -67.5q-151 0 -237.5 66.5t-86.5 171.5zM465 262q6 48 -40 68t-92.5 0t-41.5 -68q-5 -45 41.5 -64t92.5 0
t40 64zM379 23q-49 0 -79 -25t-30 -64q0 -38 30.5 -62t78.5 -24q65 -6 92.5 40.5t0 93t-92.5 41.5z" />
    <glyph glyph-name="uni2089" unicode="&#x2089;" horiz-adv-x="731" 
d="M346 512q157 0 242.5 -108t85.5 -289q0 -192 -99 -318q-95 -127 -282 -127q-141 0 -242 72l84 162q71 -45 148 -45q79 0 130.5 47t65.5 129q-71 -62 -168 -62q-125 0 -198.5 71.5t-73.5 186.5q0 124 86 202.5t221 78.5zM346 145q41 0 68.5 26.5t27.5 64.5
q0 41 -27.5 67.5t-68.5 26.5q-43 0 -71.5 -26.5t-28.5 -67.5q0 -38 28.5 -64.5t71.5 -26.5z" />
    <glyph glyph-name="Euro" unicode="&#x20ac;" horiz-adv-x="1601" 
d="M1165 494h-409q118 -158 325 -158q91 0 189 26q109 29 168 66v-356q-72 -41 -191 -68q-117 -27 -219 -27q-253 0 -448 142q-194 141 -267 375h-262l88 219h133v43v41h-172l86 219h123q74 241 266 381q192 143 453 143q136 0 272.5 -38t227.5 -103l-176 -299
q-125 82 -269 82q-211 0 -331 -166h628l-98 -219h-610q-2 -8 -2 -39q0 -35 2 -45h585z" />
    <glyph glyph-name="trademark" unicode="&#x2122;" horiz-adv-x="1675" 
d="M258 1317h-195v196h592v-196h-194v-520h-203v520zM1130 1155l238 358h170v-716h-201v319l-159 -233h-91l-159 233v-319h-201v716h170z" />
    <glyph glyph-name="estimated" unicode="&#x212e;" horiz-adv-x="1939" 
d="M983 -35q-378 0 -639 225q-260 224 -260 560q0 337 260 561q260 227 639 227q376 0 635 -223q264 -225 264 -576v-43q0 -10 -14 -10h-1405v-471q0 -5 8 -8q213 -148 512 -148q212 0 388 76t280 215l71 -59q-124 -153 -318.5 -239.5t-420.5 -86.5zM463 1286v-498h1040v500
q0 5 -6 8q-217 150 -514 150q-299 0 -516 -150q-4 -4 -4 -10z" />
    <glyph glyph-name="uni2150" unicode="&#x2150;" horiz-adv-x="1865" 
d="M311 711v497l-139 -98l-117 182l314 228h170v-809h-228zM168 0l1184 1513h280l-1181 -1513h-283zM1200 600v209h578v-160l-293 -643h-246l279 594h-318z" />
    <glyph glyph-name="uni2151" unicode="&#x2151;" horiz-adv-x="1923" 
d="M539 711h-228v497l-139 -98l-117 182l314 228h170v-809zM197 0l1183 1513h281l-1182 -1513h-282zM1507 829q157 0 242.5 -108t85.5 -289q0 -192 -98 -317q-95 -127 -283 -127q-142 0 -242 71l84 162q71 -45 148 -45q79 0 130.5 47t65.5 129q-70 -61 -167 -61
q-126 0 -199.5 72t-73.5 186q0 124 86 202t221 78zM1507 463q41 0 69 26t28 64q0 41 -27.5 67.5t-69.5 26.5q-43 0 -71.5 -26.5t-28.5 -67.5q0 -38 28.5 -64t71.5 -26z" />
    <glyph glyph-name="uni2153" unicode="&#x2153;" horiz-adv-x="1853" 
d="M539 711h-228v497l-139 -98l-117 182l314 228h170v-809zM180 0l1184 1513h278l-1179 -1513h-283zM1587 436v-4q83 -18 127.5 -70.5t44.5 -123.5q4 -81 -53 -142.5t-145 -88t-203 -11.5t-219 76l90 176q115 -53 190 -53q103 0 103 63q0 29 -27.5 45t-75.5 16h-112v191h96
q102 0 102 59q0 54 -86 54q-69 0 -151 -52l-109 162q122 98 289 98q123 0 205 -61q84 -63 84 -152q0 -65 -41 -113t-109 -69z" />
    <glyph glyph-name="uni2154" unicode="&#x2154;" horiz-adv-x="1843" 
d="M94 711v180l264 264q78 81 78 125q0 25 -20 42t-51 17q-77 0 -201 -118l-105 165q142 154 320 154q125 0 207 -72.5t82 -187.5q0 -119 -117 -236l-135 -135h254v-198h-576zM227 0l1184 1513h281l-1182 -1513h-283zM1573 432v-4q83 -18 127.5 -71t44.5 -124
q4 -81 -53 -142.5t-145.5 -87.5t-203.5 -11t-219 76l90 176q117 -54 191 -54q102 0 102 64q0 29 -28.5 45t-73.5 16h-113v191h97q102 0 102 59q0 53 -86 53q-72 0 -152 -51l-108 162q122 98 289 98q122 0 204 -61q84 -63 84 -152q0 -65 -40.5 -113t-108.5 -69z" />
    <glyph glyph-name="uni2155" unicode="&#x2155;" horiz-adv-x="1828" 
d="M539 711h-228v497l-139 -98l-117 182l314 228h170v-809zM188 0l1184 1513h281l-1182 -1513h-283zM1477 526q128 0 204 -73t76 -191q0 -119 -89 -196.5t-234 -77.5q-167 0 -295 90l84 176q111 -66 198 -66q56 0 87.5 23.5t31.5 62.5q0 33 -30 55.5t-78 22.5
q-65 0 -132 -49l-104 111l49 391h455v-189h-305l-15 -104q46 14 97 14z" />
    <glyph glyph-name="uni2156" unicode="&#x2156;" horiz-adv-x="1812" 
d="M92 711v180l264 264q78 81 78 125q0 25 -20.5 42t-51.5 17q-76 0 -200 -118l-105 165q142 154 320 154q125 0 207 -72.5t82 -187.5q0 -119 -117 -236l-135 -135h254v-198h-576zM217 0l1184 1513h280l-1181 -1513h-283zM1417 526q128 0 204.5 -73t76.5 -191
q0 -119 -89 -196.5t-235 -77.5q-167 0 -295 90l84 176q111 -66 199 -66q56 0 87.5 23.5t31.5 62.5q0 33 -30.5 55.5t-78.5 22.5q-64 0 -131 -49l-104 111l49 391h454v-189h-305l-14 -104q49 14 96 14z" />
    <glyph glyph-name="uni2157" unicode="&#x2157;" horiz-adv-x="1724" 
d="M319 903q103 0 103 64q0 29 -28.5 45t-74.5 16h-112v191h96q103 0 103 59q0 53 -87 53q-71 0 -151 -51l-109 162q122 98 289 98q123 0 205 -61q84 -63 84 -152q0 -65 -41 -113t-109 -69v-4q83 -18 127.5 -71t44.5 -124q4 -81 -53 -142.5t-145 -88t-203 -11.5t-219 76
l90 176q115 -53 190 -53zM137 0l1184 1513h281l-1182 -1513h-283zM1352 526q128 0 204 -73t76 -191q0 -119 -89 -196.5t-234 -77.5q-167 0 -295 90l84 176q111 -66 198 -66q56 0 87.5 23.5t31.5 62.5q0 33 -30 55.5t-78 22.5q-64 0 -131 -49l-105 111l49 391h455v-189h-305
l-15 -104q49 14 97 14z" />
    <glyph glyph-name="uni2158" unicode="&#x2158;" horiz-adv-x="1853" 
d="M659 711h-210v170h-353l-47 135l424 506h186v-463h82v-178h-82v-170zM242 0l1183 1513h281l-1182 -1513h-282zM449 1255l-166 -196h166v196zM1448 526q128 0 204.5 -73t76.5 -191q0 -119 -89 -196.5t-235 -77.5q-167 0 -295 90l84 176q111 -66 199 -66q56 0 87 23.5
t31 62.5q0 33 -30 55.5t-78 22.5q-64 0 -131 -49l-105 111l50 391h454v-189h-305l-14 -104q46 14 96 14z" />
    <glyph glyph-name="uni2159" unicode="&#x2159;" horiz-adv-x="1796" 
d="M539 711h-228v497l-139 -98l-117 182l314 228h170v-809zM178 0l1184 1513h280l-1181 -1513h-283zM1466 526q128 0 204.5 -73t76.5 -191q0 -119 -89 -196.5t-235 -77.5q-167 0 -295 90l84 176q111 -66 199 -66q56 0 87.5 23.5t31.5 62.5q0 33 -30.5 55.5t-78.5 22.5
q-64 0 -131 -49l-104 111l49 391h455v-189h-306l-14 -104q49 14 96 14z" />
    <glyph glyph-name="uni215A" unicode="&#x215a;" horiz-adv-x="1816" 
d="M328 899q56 0 87 23.5t31 62.5q0 33 -30 55.5t-78 22.5q-64 0 -131 -49l-105 110l50 392h454v-189h-305l-14 -104q46 14 96 14q128 0 204.5 -73t76.5 -191q0 -119 -89.5 -197t-234.5 -78q-167 0 -295 90l84 177q111 -66 199 -66zM188 0l1184 1513h281l-1182 -1513h-283z
M1460 526q123 0 199 -73t76 -189q0 -119 -86.5 -197.5t-216.5 -78.5q-157 0 -243.5 108t-86.5 285q0 191 96 319q99 129 285 129q143 0 241 -73l-84 -160q-68 45 -145 45t-130 -46.5t-67 -125.5q57 57 162 57zM1530 264q4 55 -48.5 78.5t-104.5 0t-46 -80.5
q0 -39 28.5 -65.5t70.5 -26.5q43 0 71.5 26.5t28.5 67.5z" />
    <glyph glyph-name="oneeighth" unicode="&#x215b;" horiz-adv-x="1857" 
d="M539 711h-228v497l-139 -98l-117 182l314 228h170v-809zM190 0l1184 1513h281l-1182 -1513h-283zM1620 436v-2q164 -68 164 -207q0 -105 -87.5 -172t-238.5 -67t-237 66t-86 171q0 139 159 209v2q-125 52 -125 170q0 99 79.5 161t209.5 62q129 0 210 -62.5t81 -160.5
q0 -118 -129 -170zM1370 580q-5 -45 41.5 -64t92.5 0t40 64q6 48 -40 68t-92.5 0t-41.5 -68zM1458 340q-49 0 -78.5 -24.5t-29.5 -63.5q0 -38 30.5 -62t77.5 -24q65 -6 92.5 40t0 92.5t-92.5 41.5z" />
    <glyph glyph-name="threeeighths" unicode="&#x215c;" horiz-adv-x="1789" 
d="M39 780l90 176q115 -53 190 -53q103 0 103 64q0 29 -28.5 45t-74.5 16h-112v191h96q103 0 103 59q0 53 -87 53q-71 0 -151 -51l-109 162q122 98 289 98q123 0 205 -61q84 -63 84 -152q0 -65 -41 -113t-109 -69v-4q83 -18 127.5 -71t44.5 -124q4 -81 -53 -142.5t-145 -88
t-203 -11.5t-219 76zM467 0h-283l1184 1513h281zM1079 225q0 138 160 209v2q-125 52 -125 170q0 99 79.5 161t209.5 62q129 0 210 -62.5t81 -160.5q0 -118 -129 -170v-2q164 -68 164 -207q0 -105 -87.5 -172t-238.5 -67t-237.5 66t-86.5 171zM1489 580q6 48 -40 68t-92.5 0
t-41.5 -68q-5 -45 41.5 -64t92.5 0t40 64zM1403 340q-49 0 -79 -24.5t-30 -63.5q0 -38 30.5 -62t78.5 -24q65 -6 92.5 40t0 92.5t-92.5 41.5z" />
    <glyph glyph-name="fiveeighths" unicode="&#x215d;" horiz-adv-x="1832" 
d="M328 899q56 0 87 23.5t31 62.5q0 33 -30 55.5t-78 22.5q-64 0 -131 -49l-105 110l50 392h454v-189h-305l-14 -104q46 14 96 14q128 0 204.5 -73t76.5 -191q0 -119 -89.5 -197t-234.5 -78q-167 0 -295 90l84 177q111 -66 199 -66zM227 0l1184 1513h281l-1182 -1513h-283z
M1606 436v-2q163 -67 163 -207q0 -105 -87.5 -172t-237.5 -67q-151 0 -237.5 66t-86.5 171q0 138 160 209v2q-125 52 -125 170q0 99 79.5 161t209.5 62q129 0 210 -62.5t81 -160.5q0 -118 -129 -170zM1356 580q-5 -45 41.5 -64t92.5 0t40 64q6 48 -40 68t-92.5 0t-41.5 -68z
M1444 340q-49 0 -79 -24.5t-30 -63.5q0 -38 30.5 -62t78.5 -24q65 -6 92.5 40t0 92.5t-92.5 41.5z" />
    <glyph glyph-name="seveneighths" unicode="&#x215e;" horiz-adv-x="1687" 
d="M360 717h-245l278 594h-317v209h577v-160zM76 0l1184 1513h280l-1182 -1513h-282zM1462 436v-2q164 -68 164 -207q0 -105 -87.5 -172t-238.5 -67t-237 66t-86 171q0 138 160 209v2q-125 52 -125 170q0 99 79 161t209 62q129 0 210 -62.5t81 -160.5q0 -118 -129 -170z
M1212 580q-5 -45 41.5 -64t92.5 0t40 64q6 48 -40 68t-92.5 0t-41.5 -68zM1300 340q-49 0 -78.5 -24.5t-29.5 -63.5q0 -38 30.5 -62t77.5 -24q65 -6 92.5 40t0 92.5t-92.5 41.5z" />
    <glyph glyph-name="partialdiff" unicode="&#x2202;" horiz-adv-x="1267" 
d="M594 -25q-232 0 -383 148q-152 149 -152 373q0 217 138 364q140 149 350 152q136 3 254 -97q-131 284 -467 490l215 260q182 -92 338 -248q91 -91 155 -192q70 -107 113 -247t43 -284q0 -310 -168 -514q-166 -205 -436 -205zM811 498q0 86 -57.5 145t-139.5 59
q-84 0 -141 -60.5t-57 -147.5q0 -86 55 -146.5t139 -60.5t142.5 61.5t58.5 149.5z" />
    <glyph glyph-name="product" unicode="&#x220f;" horiz-adv-x="1583" 
d="M68 1503h1450v-368h-185v-1377h-385v1377h-311v-1377h-387v1377h-182v368z" />
    <glyph glyph-name="summation" unicode="&#x2211;" horiz-adv-x="1363" 
d="M1292 -367h-1202v299l406 639l-406 643v299h1202v-352h-723l351 -590l-351 -585h723v-353z" />
    <glyph glyph-name="minus" unicode="&#x2212;" horiz-adv-x="1183" 
d="M1065 504h-946v336h946v-336z" />
    <glyph glyph-name="radical" unicode="&#x221a;" horiz-adv-x="1603" 
d="M948 -242h-323l-344 885h-275v332h555l232 -674l460 1354h404z" />
    <glyph glyph-name="infinity" unicode="&#x221e;" horiz-adv-x="1980" 
d="M1450 1206q191 0 322 -131q133 -133 133 -315q0 -187 -136 -320q-134 -131 -323 -131q-132 0 -240 74q-59 44 -98 80l-115 108q-147 -144 -248 -202t-219 -58q-190 0 -321 131q-129 132 -129 316q0 182 133 315q136 133 321 133q103 0 203 -53q93 -48 256 -192
q149 137 252 192q103 53 209 53zM526 602q92 0 262 164q-160 139 -245 139q-68 0 -113 -45t-45 -108q0 -61 42 -105.5t99 -44.5zM1436 602q66 0 112.5 45.5t46.5 108.5t-47.5 106t-113.5 43q-99 0 -242 -137q100 -97 151 -135q48 -31 93 -31z" />
    <glyph glyph-name="integral" unicode="&#x222b;" horiz-adv-x="1060" 
d="M242 -430q-158 0 -285 65l74 310q71 -39 145 -39q84 0 134 56.5t50 174.5v1053q0 257 123 377q127 121 320 121q164 0 307 -76l-94 -305q-65 36 -146 36q-84 0 -133 -57.5t-49 -175.5v-1047q0 -108 -29 -195.5t-75 -142t-106 -91t-118.5 -51t-117.5 -13.5z" />
    <glyph glyph-name="approxequal" unicode="&#x2248;" horiz-adv-x="1327" 
d="M821 776q-108 0 -237 60q-127 59 -170 59q-37 0 -72 -26.5t-94 -100.5l-201 174q55 120 154 185t223 65q109 0 233 -59q125 -58 177 -58q40 0 75.5 30t89.5 112l207 -181q-140 -260 -385 -260zM834 289q-111 0 -238 59q-129 60 -170 60q-37 0 -72 -26.5t-94 -100.5
l-201 174q55 120 154 185t223 65q108 0 234 -60q123 -57 176 -57q40 0 76 29.5t90 111.5l207 -180q-140 -260 -385 -260z" />
    <glyph glyph-name="notequal" unicode="&#x2260;" horiz-adv-x="1187" 
d="M1067 1032v-291h-352l-58 -141h410v-289h-524l-82 -207h-182l81 207h-239v289h354l57 141h-411v291h526l82 207h182l-82 -207h238z" />
    <glyph glyph-name="lessequal" unicode="&#x2264;" horiz-adv-x="1163" 
d="M1032 729v-332l-930 357v254l930 370v-331l-502 -162zM1032 346v-291h-936v291h936z" />
    <glyph glyph-name="greaterequal" unicode="&#x2265;" horiz-adv-x="1163" 
d="M1061 754l-930 -357v332l502 156l-502 162v331l930 -370v-254zM1067 55h-936v291h936v-291z" />
    <glyph glyph-name="lozenge" unicode="&#x25ca;" horiz-adv-x="1454" 
d="M883 -86h-312l-512 856l512 852h312l512 -852zM483 772l244 -418l244 418l-244 414z" />
    <glyph glyph-name="NULL" horiz-adv-x="0" 
 />
    <glyph glyph-name="Euro.osf" horiz-adv-x="1247" 
d="M936 410h-381q102 -172 322 -172q129 0 301 88v-275q-56 -30 -156 -51q-108 -23 -182 -23q-213 0 -375 119q-161 121 -219 314h-234l80 178h-61l86 192h125q53 206 217 336q163 129 385 129q115 0 230.5 -31t189.5 -84l-117 -225q-134 70 -264 70q-117 0 -207.5 -51.5
t-134.5 -143.5h571l-90 -192z" />
    <glyph glyph-name="I_J.loclNLD" horiz-adv-x="1923" 
d="M150 0v1513h385v-1513h-385zM1171 -25q-300 0 -493 181l164 307q139 -121 288 -121q129 0 203 80.5t74 216.5v874h383v-886q0 -139 -33.5 -250t-90.5 -185t-136.5 -123.5t-168.5 -71.5t-190 -22z" />
    <glyph glyph-name="Iacute_J.loclNLD" horiz-adv-x="1910" 
d="M512 1630h-344l139 400h412zM1759 1626h-344l139 399h412zM150 0v1513h385v-1513h-385zM1171 -25q-300 0 -493 181l164 307q139 -121 288 -121q129 0 203 80.5t74 216.5v874h383v-886q0 -139 -33.5 -250t-90.5 -185t-136.5 -123.5t-168.5 -71.5t-190 -22z" />
    <glyph glyph-name="J.loclNLD" horiz-adv-x="1228" 
d="M1077 1626h-344l139 399h412zM489 -25q-300 0 -493 181l164 307q139 -121 289 -121q129 0 202.5 80.5t73.5 216.5v874h383v-886q0 -139 -33.5 -250t-90.5 -185t-136.5 -123.5t-168.5 -71.5t-190 -22z" />
    <glyph glyph-name="Jacute" horiz-adv-x="1228" 
d="M1079 1626h-344l139 399h412zM489 -25q-300 0 -493 181l164 307q139 -121 289 -121q129 0 202.5 80.5t73.5 216.5v874h383v-886q0 -139 -33.5 -250t-90.5 -185t-136.5 -123.5t-168.5 -71.5t-190 -22z" />
    <glyph glyph-name="_1" horiz-adv-x="0" 
 />
    <glyph glyph-name="a.ss02" horiz-adv-x="1210" 
d="M584 1159q212 0 354 -98q81 -52 125.5 -154t44.5 -243v-664h-322v104q-125 -131 -337 -131q-186 0 -291 100.5t-105 260.5q0 178 138.5 268.5t381.5 95.5h82l119 4q-21 148 -211 148q-179 0 -356 -86l-113 266q246 129 490 129zM520 250q95 0 168.5 58t85.5 147l-106 -4
q-43 -2 -78 -2q-197 -3 -197 -103q0 -44 33.5 -70t93.5 -26z" />
    <glyph glyph-name="aacute.ss02" horiz-adv-x="1210" 
d="M565 1663h387l-194 -375h-324zM584 1159q212 0 354 -98q81 -52 125.5 -154t44.5 -243v-664h-322v104q-125 -131 -337 -131q-186 0 -291 100.5t-105 260.5q0 178 138.5 268.5t381.5 95.5h82l119 4q-21 148 -211 148q-179 0 -356 -86l-113 266q246 129 490 129zM520 250
q95 0 168.5 58t85.5 147l-106 -4q-43 -2 -78 -2q-197 -3 -197 -103q0 -44 33.5 -70t93.5 -26z" />
    <glyph glyph-name="abreve.ss02" horiz-adv-x="1210" 
d="M610 1280q-178 0 -286 101.5t-121 283.5h274q5 -70 39 -113t94 -43q63 0 97 43.5t36 112.5h279q-13 -182 -123 -283.5t-289 -101.5zM584 1159q212 0 354 -98q81 -52 125.5 -154t44.5 -243v-664h-322v104q-125 -131 -337 -131q-186 0 -291 100.5t-105 260.5
q0 178 138.5 268.5t381.5 95.5h82l119 4q-21 148 -211 148q-179 0 -356 -86l-113 266q246 129 490 129zM520 250q95 0 168.5 58t85.5 147l-106 -4q-43 -2 -78 -2q-197 -3 -197 -103q0 -44 33.5 -70t93.5 -26z" />
    <glyph glyph-name="acircumflex.ss02" horiz-adv-x="1210" 
d="M713 1288l-121 172l-121 -172h-328l316 379h274l318 -379h-338zM584 1159q212 0 354 -98q81 -52 125.5 -154t44.5 -243v-664h-322v104q-125 -131 -337 -131q-186 0 -291 100.5t-105 260.5q0 178 138.5 268.5t381.5 95.5h82l119 4q-21 148 -211 148q-179 0 -356 -86
l-113 266q246 129 490 129zM520 250q95 0 168.5 58t85.5 147l-106 -4q-43 -2 -78 -2q-197 -3 -197 -103q0 -44 33.5 -70t93.5 -26z" />
    <glyph glyph-name="acute.case" horiz-adv-x="741" 
d="M428 1630h-344l139 400h412z" />
    <glyph glyph-name="adieresis.ss02" horiz-adv-x="1210" 
d="M180 1460q0 82 56.5 138.5t140.5 56.5t140 -56.5t56 -138.5q0 -86 -55.5 -141t-140.5 -55t-141 55t-56 141zM653 1460q0 82 57.5 138.5t141.5 56.5t140.5 -56.5t56.5 -138.5q0 -86 -56 -141t-141 -55t-142 55t-57 141zM584 1159q212 0 354 -98q81 -52 125.5 -154
t44.5 -243v-664h-322v104q-125 -131 -337 -131q-186 0 -291 100.5t-105 260.5q0 178 138.5 268.5t381.5 95.5h82l119 4q-21 148 -211 148q-179 0 -356 -86l-113 266q246 129 490 129zM520 250q95 0 168.5 58t85.5 147l-106 -4q-43 -2 -78 -2q-197 -3 -197 -103
q0 -44 33.5 -70t93.5 -26z" />
    <glyph glyph-name="agrave.ss02" horiz-adv-x="1210" 
d="M674 1665l131 -375h-326l-192 375h387zM584 1159q212 0 354 -98q81 -52 125.5 -154t44.5 -243v-664h-322v104q-125 -131 -337 -131q-186 0 -291 100.5t-105 260.5q0 178 138.5 268.5t381.5 95.5h82l119 4q-21 148 -211 148q-179 0 -356 -86l-113 266q246 129 490 129z
M520 250q95 0 168.5 58t85.5 147l-106 -4q-43 -2 -78 -2q-197 -3 -197 -103q0 -44 33.5 -70t93.5 -26z" />
    <glyph glyph-name="amacron.ss02" horiz-adv-x="1210" 
d="M266 1620h703v-309l-703 -4v313zM584 1159q212 0 354 -98q81 -52 125.5 -154t44.5 -243v-664h-322v104q-125 -131 -337 -131q-186 0 -291 100.5t-105 260.5q0 178 138.5 268.5t381.5 95.5h82l119 4q-21 148 -211 148q-179 0 -356 -86l-113 266q246 129 490 129zM520 250
q95 0 168.5 58t85.5 147l-106 -4q-43 -2 -78 -2q-197 -3 -197 -103q0 -44 33.5 -70t93.5 -26z" />
    <glyph glyph-name="aogonek.ss02" horiz-adv-x="1202" 
d="M1081 -264l58 -221q-118 -62 -240 -62q-121 0 -190.5 68.5t-69.5 175.5q0 171 188 303h-41v104q-125 -131 -337 -131q-186 0 -291 100.5t-105 260.5q0 178 138.5 268.5t381.5 95.5h82l119 4q-21 148 -211 148q-179 0 -356 -86l-113 266q246 129 490 129q212 0 354 -98
q81 -52 125.5 -154t44.5 -243v-664q-75 -36 -128.5 -98t-53.5 -115q0 -35 20 -54.5t51 -19.5q20 0 84 23zM520 250q95 0 168.5 58t85.5 147l-106 -4q-43 -2 -78 -2q-197 -3 -197 -103q0 -44 33.5 -70t93.5 -26z" />
    <glyph glyph-name="aring.ss02" horiz-adv-x="1210" 
d="M311 1536q0 122 86 205q89 86 213 86q125 0 211 -86q86 -83 86 -205q0 -120 -86 -203q-85 -82 -211 -82q-125 0 -213 82q-86 83 -86 203zM610 1640q-44 0 -74 -28.5t-30 -71.5t30 -73.5t74 -30.5q41 0 71 30.5t30 73.5q0 42 -29.5 71t-71.5 29zM584 1159q212 0 354 -98
q81 -52 125.5 -154t44.5 -243v-664h-322v104q-125 -131 -337 -131q-186 0 -291 100.5t-105 260.5q0 178 138.5 268.5t381.5 95.5h82l119 4q-21 148 -211 148q-179 0 -356 -86l-113 266q246 129 490 129zM520 250q95 0 168.5 58t85.5 147l-106 -4q-43 -2 -78 -2
q-197 -3 -197 -103q0 -44 33.5 -70t93.5 -26z" />
    <glyph glyph-name="at.case" horiz-adv-x="1966" 
d="M1155 1102v69h266v-501q0 -54 20.5 -82.5t51.5 -28.5q57 0 106 82q52 82 52 207q0 263 -191 436q-190 172 -459 166q-284 -9 -481 -209q-194 -200 -194 -481q0 -294 204 -498q205 -205 496 -205q137 0 278.5 49t249.5 130l115 -201q-102 -85 -276 -148q-180 -65 -373 -65
q-264 0 -481 129q-215 125 -340 342q-123 218 -123 471q0 386 270 653q272 269 666 269q392 0 641 -240q252 -240 252 -582q0 -244 -131 -399q-132 -156 -326 -156q-168 0 -246 140q-110 -140 -297 -140q-178 0 -297 125t-119 320q0 190 117 319t297 129q155 0 252 -100z
M961 954q-80 0 -136.5 -57t-56.5 -141q-4 -61 31 -110t86.5 -70t110.5 -12.5t98 52.5q46 38 55 98.5t-12.5 114t-69.5 91.5t-106 34z" />
    <glyph glyph-name="atilde.ss02" horiz-adv-x="1210" 
d="M494 1370q-80 0 -138 -110l-227 114q69 139 146.5 202.5t187.5 63.5q73 0 153 -45q82 -43 115 -43q61 0 123 103l229 -109q-117 -268 -307 -268q-69 0 -155 45q-89 47 -127 47zM584 1159q212 0 354 -98q81 -52 125.5 -154t44.5 -243v-664h-322v104q-125 -131 -337 -131
q-186 0 -291 100.5t-105 260.5q0 178 138.5 268.5t381.5 95.5h82l119 4q-21 148 -211 148q-179 0 -356 -86l-113 266q246 129 490 129zM520 250q95 0 168.5 58t85.5 147l-106 -4q-43 -2 -78 -2q-197 -3 -197 -103q0 -44 33.5 -70t93.5 -26z" />
    <glyph glyph-name="backslash.case" horiz-adv-x="1304" 
d="M446 1513l822 -1513h-408l-827 1513h413z" />
    <glyph glyph-name="braceleft.case" horiz-adv-x="911" 
d="M477 766v-6q80 -22 135.5 -84t55.5 -150q0 -44 -15 -164q-12 -117 -12 -163q0 -140 139 -140h49v-360h-180q-385 0 -385 403q0 57 8 156q11 136 11 166q0 104 -53.5 143t-182.5 45v306q130 8 183 46t53 142q0 27 -11 170q-8 104 -8 172q0 193 99 289t311 96h155v-360h-49
q-139 0 -139 -140q0 -48 12 -168q15 -120 15 -164q0 -87 -55 -148.5t-136 -86.5z" />
    <glyph glyph-name="braceright.case" horiz-adv-x="911" 
d="M434 764v6q-81 26 -135.5 87t-54.5 149q0 43 12 163q14 112 14 168q0 138 -139 138h-49v360h156q212 0 310.5 -95t98.5 -288q0 -42 -10 -172t-10 -170q0 -102 53 -141t182 -47v-306q-128 -6 -181.5 -45t-53.5 -143q0 -41 10 -168q10 -123 10 -156q0 -403 -385 -403h-180
v362h49q139 0 139 138q0 54 -14 166q-12 120 -12 163q0 87 54.5 148t135.5 86z" />
    <glyph glyph-name="bracketleft.case" horiz-adv-x="915" 
d="M862 -289h-710v2126h710v-330h-342v-1464h342v-332z" />
    <glyph glyph-name="bracketright.case" horiz-adv-x="915" 
d="M764 -289h-711v332h342v1464h-342v330h711v-2126z" />
    <glyph glyph-name="breve.case" horiz-adv-x="1044" 
d="M84 2025h293q5 -73 41 -119t100 -46q66 0 102.5 46.5t38.5 118.5h297q-17 -195 -133 -303t-305 -108q-190 0 -305.5 108.5t-128.5 302.5z" />
    <glyph glyph-name="brevecombcy" horiz-adv-x="0" 
d="M-1008 1450l189 192q82 -103 148 -141.5t147 -38.5t147 38.5t148 141.5l188 -192q-202 -254 -485 -254t-482 254z" />
    <glyph glyph-name="caron.alt" horiz-adv-x="655" 
d="M352 1284h-307l143 385h371z" />
    <glyph glyph-name="caron.case" horiz-adv-x="1185" 
d="M467 1628l-315 379h327l121 -172l121 172h338l-318 -379h-274z" />
    <glyph glyph-name="cedilla.case" horiz-adv-x="755" 
d="M516 37l-57 -137q95 -11 156 -69t61 -146q0 -106 -86 -183t-238 -77q-128 0 -270 65l72 197q85 -43 165 -43q99 0 99 65q0 68 -119 68h-109l-14 63l80 201z" />
    <glyph glyph-name="circumflex.case" horiz-adv-x="1155" 
d="M430 1630h-348l336 404h291l340 -404h-361l-129 185z" />
    <glyph glyph-name="colon.case" horiz-adv-x="636" 
d="M322 877q-85 0 -143 56t-58 140q0 82 58 137.5t143 55.5q79 0 135.5 -56.5t56.5 -136.5q0 -84 -56 -140t-136 -56zM322 184q-85 0 -143 56.5t-58 140.5q0 82 58 137t143 55q80 0 136 -56.5t56 -135.5q0 -84 -56 -140.5t-136 -56.5z" />
    <glyph glyph-name="comma.ss03" horiz-adv-x="595" 
d="M2 -375l176 680h350l-237 -680h-289z" />
    <glyph glyph-name="commaccent" horiz-adv-x="540" 
d="M502 -326q0 -100 -75 -192t-255 -225l-121 151q100 72 158 127q-48 20 -77.5 65t-29.5 99q0 76 55.5 129t139.5 53q87 0 146 -57.5t59 -149.5z" />
    <glyph glyph-name="commaccent.case" horiz-adv-x="559" 
d="M526 -338q0 -105 -79.5 -203t-264.5 -233l-125 158q103 75 164 133q-48 20 -79 67.5t-31 102.5q0 79 58.5 134.5t143.5 55.5q89 0 151 -60t62 -155z" />
    <glyph glyph-name="dieresis.case" horiz-adv-x="1087" 
d="M293 1622q-88 0 -147.5 58.5t-59.5 148.5q0 86 59.5 144.5t147.5 58.5q86 0 145.5 -58.5t59.5 -144.5q0 -90 -59 -148.5t-146 -58.5zM582 1829q0 86 59.5 144.5t146.5 58.5q88 0 147.5 -58.5t59.5 -144.5q0 -90 -59.5 -148.5t-147.5 -58.5t-147 58.5t-59 148.5z" />
    <glyph glyph-name="dollar.osf" horiz-adv-x="1110" 
d="M1063 360q0 -133 -89 -230t-239 -136v-246h-313v236q-240 46 -375 237l209 207q56 -70 137.5 -114t169.5 -44q60 0 95.5 20.5t35.5 57.5q0 28 -23.5 47.5t-80.5 44.5q-190 76 -285 135q-100 62 -145 131t-45 162q0 138 83 231t228 126v231h313v-227q164 -36 295 -139
l-168 -236q-151 98 -282 98q-60 0 -93.5 -20t-33.5 -53q0 -29 30.5 -50.5t120.5 -60.5l94 -41q118 -46 172 -76q189 -109 189 -291z" />
    <glyph glyph-name="dotaccent.case" horiz-adv-x="614" 
d="M291 1620q-91 0 -150 59t-59 150q0 87 60.5 146t148.5 59t147.5 -58.5t59.5 -146.5q0 -90 -59.5 -149.5t-147.5 -59.5z" />
    <glyph glyph-name="eight.dnom" horiz-adv-x="757" 
d="M55 225q0 138 160 209v2q-125 52 -125 170q0 99 79.5 161t209.5 62q129 0 210 -62.5t81 -160.5q0 -118 -129 -170v-2q164 -68 164 -207q0 -105 -87.5 -172t-238.5 -67t-237.5 66t-86.5 171zM465 580q6 48 -40 68t-92.5 0t-41.5 -68q-5 -45 41.5 -64t92.5 0t40 64z
M379 340q-49 0 -79 -24.5t-30 -63.5q0 -38 30.5 -62t78.5 -24q65 -6 92.5 40t0 92.5t-92.5 41.5z" />
    <glyph glyph-name="eight.lf" horiz-adv-x="1318" 
d="M662 -25q-264 0 -426 125q-160 127 -160 324q0 129 74.5 233t199.5 148v4q-97 44 -154 127.5t-57 193.5q0 181 144 295q145 115 379 115q231 0 376 -115q144 -114 144 -295q0 -218 -213 -321v-6q124 -43 199 -146.5t75 -232.5q0 -197 -160 -324q-158 -125 -421 -125z
M659 944q79 0 127 40t48 103q0 62 -49 103t-126 41q-78 0 -127 -41t-49 -103q0 -64 47.5 -103.5t128.5 -39.5zM662 309q87 0 141.5 45t54.5 113q0 70 -55 113q-51 45 -144 45q-90 0 -145 -43q-53 -44 -53 -113q0 -70 55.5 -115t145.5 -45z" />
    <glyph glyph-name="eight.num" horiz-adv-x="757" 
d="M55 936q0 138 160 209v2q-125 52 -125 170q0 99 79.5 161t209.5 62q129 0 210 -62.5t81 -160.5q0 -121 -129 -170v-2q164 -68 164 -207q0 -105 -88 -172.5t-238 -67.5q-151 0 -237.5 66.5t-86.5 171.5zM465 1290q6 48 -40 68t-92.5 0t-41.5 -68q-5 -45 41.5 -64t92.5 0
t40 64zM379 1051q-49 0 -79 -24.5t-30 -63.5q0 -38 30.5 -62t78.5 -24q65 -6 92.5 40t0 92.5t-92.5 41.5z" />
    <glyph glyph-name="eight.osf" horiz-adv-x="1304" 
d="M655 -23q-264 0 -426 119q-159 120 -159 312q0 122 75 220.5t199 141.5v4q-97 43 -154 121.5t-57 183.5q0 173 143 283q144 111 379 111q234 0 375 -111q144 -111 144 -283q0 -213 -213 -305v-6q127 -41 201.5 -139t74.5 -221q0 -191 -160 -312q-158 -119 -422 -119z
M653 903q79 0 127.5 37.5t48.5 95.5t-49.5 96.5t-126.5 38.5q-80 0 -130 -38.5t-50 -96.5t49.5 -95.5t130.5 -37.5zM655 303q87 0 143 41.5t56 104.5q0 64 -55.5 104.5t-145.5 40.5q-91 0 -146.5 -39.5t-55.5 -103.5q0 -66 56 -107t148 -41z" />
    <glyph glyph-name="eight.tf" horiz-adv-x="1308" 
d="M655 -25q-264 0 -426 125q-159 126 -159 324q0 129 74.5 233t199.5 148v4q-97 44 -154 127.5t-57 193.5q0 182 143 295q145 115 379 115q232 0 377 -115q144 -114 144 -295q0 -218 -213 -321v-6q124 -43 199 -146.5t75 -232.5q0 -197 -160 -324q-158 -125 -422 -125z
M653 944q79 0 126.5 39.5t47.5 103.5q0 62 -48.5 103t-125.5 41q-78 0 -127 -41t-49 -103q0 -64 47.5 -103.5t128.5 -39.5zM655 309q87 0 142 45t55 113q0 70 -55 113q-51 45 -144 45q-90 0 -145 -43q-53 -44 -53 -113q0 -70 55 -115t145 -45z" />
    <glyph glyph-name="eight_fraction_nine" horiz-adv-x="1828" 
d="M715 938q0 -105 -88 -172.5t-238 -67.5t-236.5 66.5t-86.5 171.5q0 138 159 209v2q-125 52 -125 170q0 99 79.5 161t209.5 62q129 0 210 -62.5t81 -160.5q0 -121 -129 -170v-2q164 -68 164 -207zM180 0l1184 1513h278l-1179 -1513h-283zM301 1290q-5 -45 41.5 -64t92.5 0
t40 64q6 48 -40 68t-92.5 0t-41.5 -68zM389 1051q-49 0 -78.5 -24.5t-29.5 -63.5q0 -38 30.5 -62t77.5 -24q65 -6 92.5 40t0 92.5t-92.5 41.5zM1421 829q157 0 242.5 -108t85.5 -289q0 -192 -98 -317q-95 -127 -283 -127q-142 0 -242 71l84 162q71 -45 148 -45
q79 0 130.5 47t65.5 129q-70 -61 -168 -61q-125 0 -198.5 71.5t-73.5 186.5q0 124 86 202t221 78zM1421 463q41 0 69 26t28 64q0 41 -27.5 67.5t-69.5 26.5q-43 0 -71.5 -26.5t-28.5 -67.5q0 -38 28.5 -64t71.5 -26z" />
    <glyph glyph-name="emdash.case" horiz-adv-x="2150" 
d="M2030 573h-1909v367h1909v-367z" />
    <glyph glyph-name="endash.case" horiz-adv-x="1497" 
d="M1376 573h-1255v367h1255v-367z" />
    <glyph glyph-name="exclamdown.case" horiz-adv-x="641" 
d="M360 1550q80 0 135.5 -56t55.5 -140q0 -81 -56.5 -138t-134.5 -57q-85 0 -142.5 56.5t-57.5 138.5q0 84 57.5 140t142.5 56zM172 -39l23 1102h323l27 -1102h-373z" />
    <glyph glyph-name="five.dnom" horiz-adv-x="690" 
d="M358 526q128 0 204.5 -73t76.5 -191q0 -119 -89 -196.5t-235 -77.5q-167 0 -295 90l84 176q111 -66 199 -66q56 0 87.5 23.5t31.5 62.5q0 33 -30.5 55.5t-78.5 22.5q-64 0 -131 -49l-104 111l49 391h455v-189h-306l-14 -104q46 14 96 14z" />
    <glyph glyph-name="five.lf" horiz-adv-x="1230" 
d="M649 967q217 0 363 -131q149 -131 149 -347q0 -220 -160 -368q-158 -146 -428 -146q-281 0 -524 156l137 307q196 -112 367 -112q107 0 167 47t60 119q0 67 -57 111t-143 44q-124 0 -230 -86l-209 193l78 759h838v-352h-557l-23 -219q92 25 172 25z" />
    <glyph glyph-name="five.num" horiz-adv-x="690" 
d="M358 1237q128 0 204.5 -73t76.5 -191q0 -119 -89.5 -197t-234.5 -78q-167 0 -295 90l84 177q111 -66 199 -66q56 0 87.5 23.5t31.5 62.5q0 33 -30.5 55.5t-78.5 22.5q-64 0 -131 -49l-104 110l49 392h455v-189h-306l-14 -104q46 14 96 14z" />
    <glyph glyph-name="five.osf" horiz-adv-x="1200" 
d="M635 698q215 0 362 -123q150 -123 150 -323q0 -207 -160 -346q-157 -139 -428 -139q-283 0 -524 143l139 293q201 -103 367 -103q105 0 165 41.5t60 104.5q0 60 -58 100.5t-143 40.5q-119 0 -229 -78l-207 191l76 712h837v-333h-555l-24 -205q89 24 172 24z" />
    <glyph glyph-name="five.tf" horiz-adv-x="1308" 
d="M674 967q216 0 362 -131q150 -132 150 -347q0 -220 -160 -368q-158 -146 -428 -146q-281 0 -524 156l137 307q196 -112 367 -112q107 0 167 47t60 119q0 67 -57 111t-144 44q-123 0 -229 -86l-209 193l78 759h837v-352h-557l-22 -219q92 25 172 25z" />
    <glyph glyph-name="five_fraction_nine" horiz-adv-x="1822" 
d="M328 899q56 0 87 23.5t31 62.5q0 33 -30 55.5t-78 22.5q-64 0 -131 -49l-105 110l50 392h454v-189h-305l-14 -104q46 14 96 14q128 0 204.5 -73t76.5 -191q0 -119 -89.5 -197t-234.5 -78q-167 0 -295 90l84 177q111 -66 199 -66zM172 0l1184 1513h280l-1181 -1513h-283z
M1413 829q157 0 242.5 -108t85.5 -289q0 -191 -99 -317q-95 -127 -282 -127q-142 0 -242 71l84 162q71 -45 148 -45q79 0 130.5 47t65.5 129q-70 -61 -168 -61q-125 0 -198.5 71.5t-73.5 186.5q0 124 86 202t221 78zM1413 463q41 0 68.5 26t27.5 64q0 41 -27.5 67.5
t-68.5 26.5q-43 0 -71.5 -26.5t-28.5 -67.5q0 -38 28.5 -64t71.5 -26z" />
    <glyph glyph-name="five_fraction_seven" horiz-adv-x="1804" 
d="M336 899q56 0 87.5 23.5t31.5 62.5q0 33 -30.5 55.5t-78.5 22.5q-64 0 -131 -49l-104 110l49 392h454v-189h-305l-14 -104q46 14 96 14q128 0 204.5 -73t76.5 -191q0 -119 -89.5 -197t-234.5 -78q-167 0 -295 90l84 177q111 -66 199 -66zM158 0l1183 1513h281
l-1182 -1513h-282zM1143 600v209h577v-160l-293 -643h-245l278 594h-317z" />
    <glyph glyph-name="four.dnom" horiz-adv-x="765" 
d="M627 348h82v-178h-82v-170h-211v170h-353l-47 135l424 506h187v-463zM416 545l-166 -197h166v197z" />
    <glyph glyph-name="four.lf" horiz-adv-x="1296" 
d="M1063 639h158v-311h-158v-328h-352v328h-635l-74 252l764 933h297v-874zM711 1022l-308 -383h308v383z" />
    <glyph glyph-name="four.num" horiz-adv-x="765" 
d="M627 1059h82v-178h-82v-170h-211v170h-353l-47 135l424 506h187v-463zM416 1255l-166 -196h166v196z" />
    <glyph glyph-name="four.osf" horiz-adv-x="1304" 
d="M1079 424h158v-303h-158v-326h-350v326h-631l-75 246l761 847h295v-790zM729 754l-291 -330h291v330z" />
    <glyph glyph-name="four.tf" horiz-adv-x="1308" 
d="M1090 639h157v-311h-157v-328h-353v328h-635l-73 252l764 933h297v-874zM737 1022l-307 -383h307v383z" />
    <glyph glyph-name="four_fraction_nine" horiz-adv-x="2015" 
d="M659 711h-210v170h-353l-47 135l424 506h186v-463h82v-178h-82v-170zM330 0l1183 1513h281l-1182 -1513h-282zM449 1255l-166 -196h166v196zM1587 829q157 0 242.5 -108t85.5 -289q0 -192 -98 -317q-95 -127 -283 -127q-142 0 -242 71l84 162q71 -45 148 -45
q79 0 130.5 47t65.5 129q-70 -61 -168 -61q-125 0 -198.5 71.5t-73.5 186.5q0 124 86 202t221 78zM1587 463q41 0 68.5 26t27.5 64q0 41 -27.5 67.5t-68.5 26.5q-43 0 -71.5 -26.5t-28.5 -67.5q0 -38 28.5 -64t71.5 -26z" />
    <glyph glyph-name="four_fraction_seven" horiz-adv-x="1925" 
d="M659 711h-210v170h-353l-47 135l424 506h186v-463h82v-178h-82v-170zM270 0l1184 1513h279l-1180 -1513h-283zM449 1255l-166 -196h166v196zM1253 600v209h578v-160l-293 -643h-246l279 594h-318z" />
    <glyph glyph-name="grave.case" horiz-adv-x="735" 
d="M498 2032l139 -402h-348l-205 402h414z" />
    <glyph glyph-name="guillemotleft.case" horiz-adv-x="1327" 
d="M717 346h-387l-269 416l271 416h385l-283 -416zM1239 346h-387l-266 416l268 416h385l-283 -416z" />
    <glyph glyph-name="guillemotright.case" horiz-adv-x="1327" 
d="M741 762l-268 -416h-387l283 416l-283 416h385zM1264 762l-267 -416h-387l283 416l-283 416h385z" />
    <glyph glyph-name="guilsinglleft.case" horiz-adv-x="802" 
d="M717 346h-387l-269 416l271 416h385l-283 -416z" />
    <glyph glyph-name="guilsinglright.case" horiz-adv-x="802" 
d="M739 762l-266 -416h-387l283 416l-283 416h385z" />
    <glyph glyph-name="hungarumlaut.case" horiz-adv-x="1220" 
d="M406 1630h-320l94 400h389zM885 1630h-330l145 400h404z" />
    <glyph glyph-name="hyphen.case" horiz-adv-x="1122" 
d="M1004 573h-883v367h883v-367z" />
    <glyph glyph-name="i.loclTRK" horiz-adv-x="589" 
d="M305 1231q-91 0 -150 59t-59 150q0 87 60.5 146t148.5 59t147.5 -58.5t59.5 -146.5q0 -90 -59.5 -149.5t-147.5 -59.5zM485 1130v-1130h-362v1130h362z" />
    <glyph glyph-name="i_j.loclNLD" horiz-adv-x="1284" 
d="M303 1231q-91 0 -150 59t-59 150q0 87 60.5 146t148.5 59t147.5 -58.5t59.5 -146.5q0 -90 -59.5 -149.5t-147.5 -59.5zM899 1231q-91 0 -150 59t-59 150q0 87 60.5 146t148.5 59t147.5 -58.5t59.5 -146.5q0 -90 -59.5 -149.5t-147.5 -59.5zM485 1130v-1130h-362v1130h362
zM602 -481q-202 0 -303 67l66 281q103 -35 170 -35q90 0 137 55t47 160v1083h362v-1120q0 -248 -135 -368q-132 -123 -344 -123z" />
    <glyph glyph-name="iacute_j.loclNLD" horiz-adv-x="1193" 
d="M449 1288h-324l131 375h387zM1065 1288h-324l131 375h388zM477 1130v-1130h-362v1130h362zM602 -481q-202 0 -303 67l66 281q103 -35 170 -35q90 0 137 55t47 160v1083h362v-1120q0 -248 -135 -368q-132 -123 -344 -123z" />
    <glyph glyph-name="j.loclNLD" horiz-adv-x="638" 
d="M344 1231q-91 0 -150 59t-59 150q0 87 60.5 146t148.5 59t147.5 -58.5t59.5 -146.5q0 -90 -59.5 -149.5t-147.5 -59.5zM47 -481q-202 0 -303 67l66 281q103 -35 170 -35q90 0 137 55t47 160v1083h362v-1120q0 -248 -135 -368q-132 -123 -344 -123z" />
    <glyph glyph-name="jacute" horiz-adv-x="638" 
d="M489 1288h-323l131 375h387zM47 -481q-202 0 -303 67l66 281q103 -35 170 -35q90 0 137 55t47 160v1083h362v-1120q0 -248 -135 -368q-132 -123 -344 -123z" />
    <glyph glyph-name="macron.case" horiz-adv-x="989" 
d="M885 1661l-801 -4v313h801v-309z" />
    <glyph glyph-name="nine.dnom" horiz-adv-x="731" 
d="M346 829q157 0 242.5 -108t85.5 -289q0 -191 -99 -317q-95 -127 -282 -127q-142 0 -242 71l84 162q71 -45 148 -45q79 0 130.5 47t65.5 129q-70 -61 -168 -61q-125 0 -198.5 71.5t-73.5 186.5q0 124 86 202t221 78zM346 463q41 0 68.5 26t27.5 64q0 41 -27.5 67.5
t-68.5 26.5q-43 0 -71.5 -26.5t-28.5 -67.5q0 -38 28.5 -64t71.5 -26z" />
    <glyph glyph-name="nine.lf" horiz-adv-x="1290" 
d="M633 1540q287 0 440 -205q156 -203 156 -520q0 -225 -72 -416q-71 -187 -225 -305q-155 -119 -377 -119q-249 0 -436 140l137 278q137 -84 272 -84q133 0 217.5 83.5t110.5 236.5q-115 -86 -291 -86q-214 0 -352 135q-139 139 -139 348q0 225 153 369q157 145 406 145z
M627 856q60 -4 107.5 29.5t67 83t11 105.5t-50.5 93q-52 52 -133 52t-135 -51t-54 -132q0 -79 53.5 -129.5t133.5 -50.5z" />
    <glyph glyph-name="nine.num" horiz-adv-x="731" 
d="M346 1540q157 0 242.5 -108t85.5 -289q0 -192 -99 -318q-95 -127 -282 -127q-141 0 -242 72l84 162q71 -45 148 -45q79 0 130.5 47t65.5 129q-71 -62 -168 -62q-125 0 -198.5 72t-73.5 187q0 124 86 202t221 78zM346 1174q41 0 68.5 26t27.5 64q0 41 -27.5 67.5
t-68.5 26.5q-43 0 -71.5 -26.5t-28.5 -67.5q0 -38 28.5 -64t71.5 -26z" />
    <glyph glyph-name="nine.osf" horiz-adv-x="1263" 
d="M610 1253q280 0 430 -194q154 -195 154 -494q0 -218 -70 -395q-70 -175 -223 -289q-150 -114 -366 -114q-254 0 -431 133l138 270q132 -78 266 -78q129 0 211 76.5t108 218.5q-107 -82 -284 -82q-208 0 -346 129q-136 133 -136 330q0 210 152 350q154 139 397 139z
M788 770q0 69 -53 116.5t-131 47.5q-79 0 -130.5 -46t-51.5 -120q0 -72 52 -118t130 -46t131 47t53 119z" />
    <glyph glyph-name="nine.tf" horiz-adv-x="1308" 
d="M643 1540q287 0 440 -205q156 -203 156 -520q0 -225 -72 -416q-71 -187 -225 -305q-155 -119 -377 -119q-249 0 -436 140l137 278q137 -84 273 -84q132 0 216.5 83.5t110.5 236.5q-115 -86 -291 -86q-214 0 -352 135q-139 139 -139 348q0 224 154 369q157 145 405 145z
M637 856q60 -4 107.5 29.5t67 83t11 105.5t-50.5 93q-52 52 -133 52t-134.5 -51t-53.5 -132q0 -79 53 -129.5t133 -50.5z" />
    <glyph glyph-name="ogonek.case" horiz-adv-x="675" 
d="M524 -264l58 -221q-118 -62 -240 -62q-121 0 -190.5 68.5t-69.5 175.5q0 197 250 342l219 -39q-75 -36 -128.5 -98t-53.5 -115q0 -35 19.5 -54.5t51.5 -19.5q20 0 84 23z" />
    <glyph glyph-name="one.dnom" horiz-adv-x="585" 
d="M8 582l314 227h170v-809h-228v498l-139 -99z" />
    <glyph glyph-name="one.lf" horiz-adv-x="907" 
d="M-16 1130l499 383h275v-1513h-369v1014l-217 -158z" />
    <glyph glyph-name="one.num" horiz-adv-x="585" 
d="M8 1292l314 228h170v-809h-228v497l-139 -98z" />
    <glyph glyph-name="one.numalt" horiz-adv-x="704" 
d="M25 1292l313 228h170v-809h-227v497l-140 -98z" />
    <glyph glyph-name="one.osf" horiz-adv-x="1091" 
d="M805 1225v-912h260v-313h-954v313h331v486l-266 -170l-164 268l506 328h287z" />
    <glyph glyph-name="one.tf" horiz-adv-x="1308" 
d="M885 1513v-1165h303v-350h-989v350h317v666l-217 -158l-188 274l499 383h275z" />
    <glyph glyph-name="parenleft.case" horiz-adv-x="894" 
d="M866 6l-170 -289q-308 167 -468 436t-160 619q0 352 162.5 621t480.5 434l155 -293q-403 -271 -403 -760q0 -242 99 -428t304 -340z" />
    <glyph glyph-name="parenright.case" horiz-adv-x="894" 
d="M199 -283l-170 289q205 154 303 339.5t98 428.5q0 489 -403 760l155 293q318 -165 481.5 -434t163.5 -621q0 -347 -160 -617.5t-468 -437.5z" />
    <glyph glyph-name="periodcentered.case" horiz-adv-x="559" 
d="M283 541q-85 0 -143 56t-58 140q0 82 58 137.5t143 55.5q79 0 135.5 -56.5t56.5 -136.5q0 -84 -56 -140t-136 -56z" />
    <glyph glyph-name="questiondown.case" horiz-adv-x="1191" 
d="M639 1552q83 0 141 -56t58 -140q0 -82 -57.5 -138.5t-141.5 -56.5q-82 0 -137.5 56.5t-55.5 138.5q0 84 56.5 140t136.5 56zM469 1079h352v-121q0 -89 -34 -165t-89 -129q-21 -20 -60 -54t-62 -56t-49.5 -52t-39 -59.5t-12.5 -59.5q0 -61 41.5 -97t108.5 -36
q143 0 299 188l225 -248q-217 -282 -555 -282q-237 0 -375 129q-139 130 -139 319q0 92 38 173t99 135q21 19 68 59t71.5 64t55 58.5t44 69t13.5 70.5v94z" />
    <glyph glyph-name="quotedblbase.ss03" horiz-adv-x="1089" 
d="M10 -315l176 680h351l-238 -680h-289zM514 -315l176 680h350l-237 -680h-289z" />
    <glyph glyph-name="quotedblleft.ss03" horiz-adv-x="1062" 
d="M569 1772l-176 -680h-350l238 680h288zM1075 1772l-176 -680h-350l237 680h289z" />
    <glyph glyph-name="quotedblright.ss03" horiz-adv-x="1069" 
d="M35 1094l176 680h350l-237 -680h-289zM539 1094l176 680h350l-238 -680h-288z" />
    <glyph glyph-name="quoteleft.ss03" horiz-adv-x="538" 
d="M553 1772l-176 -680h-350l237 680h289z" />
    <glyph glyph-name="quoteright.ss03" horiz-adv-x="534" 
d="M23 1094l176 680h350l-238 -680h-288z" />
    <glyph glyph-name="quotesinglbase.ss03" horiz-adv-x="557" 
d="M-14 -315l176 680h350l-238 -680h-288z" />
    <glyph glyph-name="ring.case" horiz-adv-x="804" 
d="M84 1888q0 130 92 219q94 91 225 91q132 0 226 -91q92 -89 92 -219q0 -126 -92 -215q-91 -88 -226 -88q-134 0 -225 88q-92 89 -92 215zM401 1782q44 0 76.5 33t32.5 77t-32.5 76.5t-76.5 32.5q-47 0 -78.5 -31t-31.5 -78q0 -45 31.5 -77.5t78.5 -32.5z" />
    <glyph glyph-name="semicolon.case" horiz-adv-x="651" 
d="M346 864q-87 0 -148 59.5t-61 145.5q0 84 61 142.5t148 58.5q82 0 141.5 -58.5t59.5 -142.5q0 -86 -59.5 -145.5t-141.5 -59.5zM338 590q92 0 152.5 -66t60.5 -166q0 -259 -365 -501l-102 135l94 74q95 77 131 143h-4q-69 0 -121.5 54t-52.5 126q0 86 60 143.5t147 57.5z
" />
    <glyph glyph-name="semicolon.case.ss03" horiz-adv-x="651" 
d="M346 864q-87 0 -148 59.5t-61 145.5q0 84 61 142.5t148 58.5q82 0 141.5 -58.5t59.5 -142.5q0 -86 -59.5 -145.5t-141.5 -59.5zM-12 -315l176 680h350l-238 -680h-288z" />
    <glyph glyph-name="semicolon.ss03" horiz-adv-x="624" 
d="M324 682q-87 0 -148 59.5t-61 145.5q0 84 61 142t148 58q82 0 141 -58t59 -142q0 -86 -59 -145.5t-141 -59.5zM-18 -375l176 680h350l-238 -680h-288z" />
    <glyph glyph-name="seven.dnom" horiz-adv-x="632" 
d="M25 600v209h577v-160l-293 -643h-246l279 594h-317z" />
    <glyph glyph-name="seven.lf" horiz-adv-x="1107" 
d="M45 1157v356h1012v-276l-502 -1237h-395l475 1157h-590z" />
    <glyph glyph-name="seven.num" horiz-adv-x="632" 
d="M25 1311v209h577v-160l-293 -643h-246l279 594h-317z" />
    <glyph glyph-name="seven.osf" horiz-adv-x="1077" 
d="M35 864v348h1012v-272l-506 -1145h-396l471 1069h-581z" />
    <glyph glyph-name="seven.tf" horiz-adv-x="1308" 
d="M145 1169v344h1053v-247l-598 -1266h-397l563 1169h-621z" />
    <glyph glyph-name="seven_fraction_nine" horiz-adv-x="1744" 
d="M358 717h-245l278 594h-317v209h577v-160zM68 0l1183 1513h281l-1182 -1513h-282zM1335 829q157 0 242.5 -108t85.5 -289q0 -192 -98 -317q-95 -127 -283 -127q-142 0 -242 71l84 162q71 -45 148 -45q79 0 130.5 47t65.5 129q-70 -61 -168 -61q-125 0 -198.5 71.5
t-73.5 186.5q0 124 86 202t221 78zM1335 463q41 0 69 26t28 64q0 41 -27.5 67.5t-69.5 26.5q-43 0 -71.5 -26.5t-28.5 -67.5q0 -38 28.5 -64t71.5 -26z" />
    <glyph glyph-name="six.dnom" horiz-adv-x="735" 
d="M410 526q122 0 198 -73t76 -189q0 -119 -86.5 -197.5t-216.5 -78.5q-157 0 -243.5 108t-86.5 285q0 191 96 319q99 129 285 129q144 0 242 -73l-84 -160q-68 45 -146 45q-77 0 -129.5 -46.5t-66.5 -125.5q57 57 162 57zM479 264q4 55 -48.5 78.5t-104 0t-45.5 -80.5
q0 -39 28 -65.5t70 -26.5q43 0 71.5 26.5t28.5 67.5z" />
    <glyph glyph-name="six.lf" horiz-adv-x="1304" 
d="M750 977q220 0 360 -137q143 -134 143 -346q0 -219 -157 -367q-157 -145 -410 -145q-147 1 -264.5 58t-192 156.5t-112.5 231t-35 283.5q0 330 164 571q81 120 216 189t300 69q237 0 444 -139l-168 -285q-124 80 -256 80q-141 0 -231 -92.5t-111 -249.5q108 123 310 123z
M686 303q82 0 136.5 53t54.5 131q0 75 -54.5 126t-134.5 51q-83 0 -137.5 -49t-54.5 -128t55 -131.5t135 -52.5z" />
    <glyph glyph-name="six.num" horiz-adv-x="735" 
d="M410 1237q122 0 198 -73t76 -189q0 -119 -86.5 -198t-216.5 -79q-157 0 -243.5 108.5t-86.5 285.5q0 191 96 319q99 129 285 129q142 0 242 -74l-84 -159q-68 45 -146 45q-77 0 -129.5 -46.5t-66.5 -125.5q57 57 162 57zM479 975q4 55 -48.5 78.5t-104 0t-45.5 -80.5
q0 -39 28 -65.5t70 -26.5q43 0 71.5 26.5t28.5 67.5z" />
    <glyph glyph-name="six.osf" horiz-adv-x="1282" 
d="M715 930q217 0 354 -131q141 -129 141 -330q0 -212 -155 -352t-400 -140q-291 0 -442 195q-152 199 -152 502q0 318 160 549q81 115 213 180t295 65q233 0 434 -133l-166 -276q-119 76 -249 76q-140 0 -227.5 -85.5t-106.5 -236.5q105 117 301 117zM655 293
q78 0 131.5 48t53.5 120t-52.5 118t-132.5 46q-79 0 -132.5 -46t-53.5 -118q0 -73 53 -120.5t133 -47.5z" />
    <glyph glyph-name="six.tf" horiz-adv-x="1308" 
d="M750 977q220 0 360 -137q143 -134 143 -346q0 -219 -157 -367q-157 -145 -410 -145q-147 1 -264.5 58t-192 156.5t-112.5 231t-35 283.5q0 330 164 571q81 120 216 189t300 69q237 0 444 -139l-168 -285q-124 80 -256 80q-141 0 -231 -92.5t-111 -249.5q108 123 310 123z
M686 303q82 0 136.5 53t54.5 131q0 75 -54.5 126t-134.5 51q-83 0 -137.5 -49t-54.5 -128t55 -131.5t135 -52.5z" />
    <glyph glyph-name="six_fraction_seven" horiz-adv-x="1804" 
d="M395 698q-157 0 -243 108.5t-86 285.5q0 191 96 319q99 129 284 129q142 0 242 -74l-84 -159q-68 45 -145 45t-130 -46.5t-67 -125.5q57 57 162 57q122 0 198 -73t76 -189q0 -119 -86.5 -198t-216.5 -79zM160 0l1183 1513h281l-1182 -1513h-282zM295 973q0 -39 28 -65.5
t70 -26.5q43 0 72 26.5t29 67.5q4 55 -48.5 78.5t-104.5 0t-46 -80.5zM1143 600v209h577v-160l-293 -643h-245l278 594h-317z" />
    <glyph glyph-name="slash.case" horiz-adv-x="1304" 
d="M444 0h-407l821 1513h414z" />
    <glyph glyph-name="sterling.osf" horiz-adv-x="1048" 
d="M930 481h-367q-16 -92 -86 -174h559v-307h-940v252q120 129 135 229h-149v236h96q-20 59 -20 123q0 176 137 286q137 113 334 113q135 0 252.5 -56.5t179.5 -150.5l-215 -205q-64 99 -178 99q-72 0 -118 -46t-46 -108q0 -25 10 -55h416v-236z" />
    <glyph glyph-name="three.dnom" horiz-adv-x="686" 
d="M10 70l90 176q115 -53 191 -53q102 0 102 63q0 26 -29 43.5t-73 17.5h-113v191h96q103 0 103 59q0 54 -86 54q-70 0 -152 -52l-108 162q122 98 288 98q123 0 205 -61q84 -63 84 -152q0 -65 -40.5 -113t-108.5 -69v-4q83 -18 127.5 -70.5t44.5 -123.5q4 -81 -53 -142.5
t-145.5 -88t-203.5 -11.5t-219 76z" />
    <glyph glyph-name="three.lf" horiz-adv-x="1175" 
d="M528 -25q-265 0 -514 150l154 303q182 -102 334 -102q93 0 145.5 37.5t52.5 99.5q0 56 -47.5 91.5t-124.5 35.5h-196v340h149q86 0 135.5 35t49.5 92t-45.5 91t-118.5 34q-117 0 -275 -107l-178 275q214 190 506 190q207 0 350 -113q144 -114 144 -280q0 -115 -70 -203.5
t-180 -128.5v-8q140 -32 218.5 -134t78.5 -241q0 -202 -158 -330q-157 -127 -410 -127z" />
    <glyph glyph-name="three.num" horiz-adv-x="686" 
d="M10 780l90 176q115 -53 191 -53q102 0 102 64q0 29 -28.5 45t-73.5 16h-113v191h96q103 0 103 59q0 53 -86 53q-72 0 -152 -51l-108 162q122 98 288 98q123 0 205 -61q84 -63 84 -152q0 -65 -40.5 -113t-108.5 -69v-4q83 -18 127.5 -71t44.5 -124q4 -81 -53 -142.5
t-145.5 -88t-203.5 -11.5t-219 76z" />
    <glyph glyph-name="three.osf" horiz-adv-x="1146" 
d="M516 -238q-261 0 -516 144l156 297q177 -97 348 -97q92 0 145 33t53 88q0 50 -46.5 79.5t-125.5 29.5h-213v336h168q84 0 133.5 31t49.5 79q0 50 -46 80.5t-116 30.5q-127 0 -293 -96l-178 268q213 180 506 180q209 0 350 -106q143 -107 143 -267q0 -109 -70 -192
t-180 -121v-6q140 -30 218.5 -127t78.5 -229q0 -193 -157 -314t-408 -121z" />
    <glyph glyph-name="three.tf" horiz-adv-x="1308" 
d="M586 -25q-265 0 -514 150l153 303q181 -102 334 -102q93 0 146 37.5t53 99.5q0 56 -47.5 91.5t-124.5 35.5h-197v340h150q86 0 135 35t49 92t-45.5 91t-118.5 34q-116 0 -274 -107l-179 275q214 190 506 190q208 0 351 -113t143 -280q0 -115 -70 -203.5t-180 -128.5v-8
q140 -32 218.5 -134t78.5 -241q0 -202 -158 -330q-157 -127 -409 -127z" />
    <glyph glyph-name="three_fraction_seven" horiz-adv-x="1822" 
d="M324 903q102 0 102 64q0 29 -28.5 45t-73.5 16h-113v191h96q103 0 103 59q0 53 -86 53q-72 0 -152 -51l-109 162q122 98 289 98q123 0 205 -61q84 -63 84 -152q0 -65 -40.5 -113t-108.5 -69v-4q83 -18 127.5 -71t44.5 -124q4 -81 -53 -142.5t-145.5 -88t-203.5 -11.5
t-219 76l90 176q115 -53 191 -53zM176 0l1184 1513h278l-1179 -1513h-283zM1163 600v209h578v-160l-293 -643h-246l279 594h-318z" />
    <glyph glyph-name="tilde.case" horiz-adv-x="1191" 
d="M319 1642l-237 119q74 145 154 211t194 66q74 0 160 -47q83 -45 119 -45q65 0 127 108l239 -115q-120 -278 -319 -278q-66 0 -162 47q-91 49 -133 49q-83 0 -142 -115z" />
    <glyph glyph-name="two.dnom" horiz-adv-x="712" 
d="M526 334l-135 -135h254v-199h-575v180l264 264q78 81 78 125q0 25 -20.5 42.5t-51.5 17.5q-76 0 -201 -119l-104 166q141 153 319 153q125 0 207 -72.5t82 -187.5q0 -118 -117 -235z" />
    <glyph glyph-name="two.lf" horiz-adv-x="1236" 
d="M776 492l-139 -144h489v-350h-1020v317l459 473l29 29q25 25 59 64q18 22 47 71q21 41 21 82q0 62 -45.5 103t-112.5 41q-139 0 -321 -164l-205 274q258 252 567 252q223 0 367 -135q147 -132 147 -334q0 -132 -82 -265.5t-260 -313.5z" />
    <glyph glyph-name="two.num" horiz-adv-x="712" 
d="M526 1044l-135 -135h254v-198h-575v180l264 264q78 81 78 125q0 25 -20.5 42t-51.5 17q-77 0 -201 -118l-104 165q142 154 319 154q125 0 207 -72.5t82 -187.5q0 -119 -117 -236z" />
    <glyph glyph-name="two.osf" horiz-adv-x="1144" 
d="M676 350l-45 -37h420v-315h-955v289l379 313q87 70 105 88q84 72 84 135q0 43 -31.5 71t-85.5 28q-111 0 -328 -172l-182 256q255 237 536 237q210 0 338 -113q131 -113 131 -272q0 -124 -85.5 -237.5t-280.5 -270.5z" />
    <glyph glyph-name="two.tf" horiz-adv-x="1308" 
d="M811 492l-139 -144h489v-350h-1020v317l459 473l29 29q25 25 59 64q18 22 47 71q21 41 21 82q0 62 -45.5 103t-112.5 41q-140 0 -322 -164l-204 274q258 252 567 252q223 0 367 -135q147 -132 147 -334q0 -132 -82 -265.5t-260 -313.5z" />
    <glyph glyph-name="two_fraction_nine" horiz-adv-x="1945" 
d="M92 711v180l264 264q78 81 78 125q0 25 -20.5 42t-51.5 17q-76 0 -200 -118l-105 165q142 154 320 154q125 0 207 -72.5t82 -187.5q0 -119 -117 -236l-135 -135h254v-198h-576zM279 0l1183 1513h281l-1182 -1513h-282zM1536 829q157 0 242.5 -108t85.5 -289
q0 -191 -99 -317q-95 -127 -282 -127q-142 0 -242 71l84 162q71 -45 148 -45q79 0 130.5 47t65.5 129q-70 -61 -168 -61q-125 0 -198.5 71.5t-73.5 186.5q0 124 86 202t221 78zM1536 463q41 0 68.5 26t27.5 64q0 41 -27.5 67.5t-68.5 26.5q-43 0 -71.5 -26.5t-28.5 -67.5
q0 -38 28.5 -64t71.5 -26z" />
    <glyph glyph-name="two_fraction_seven" horiz-adv-x="1908" 
d="M100 711v180l265 264q77 80 77 125q0 25 -20 42t-51 17q-77 0 -201 -118l-104 165q142 154 319 154q125 0 207 -72.5t82 -187.5q0 -119 -117 -236l-135 -135h254v-198h-576zM266 0l1184 1513h281l-1182 -1513h-283zM1249 600v209h578v-160l-293 -643h-246l279 594h-318z
" />
    <glyph glyph-name="uni0414.ss01" horiz-adv-x="1660" 
d="M1419 1513v-1159h166v-661h-381v307h-758v-307h-383v661h140q157 303 227 946l25 213h964zM598 354h438v801h-252l-14 -98q-68 -444 -172 -703z" />
    <glyph glyph-name="uni0416.ss01" horiz-adv-x="2004" 
d="M1468 770l562 -770h-435l-407 575v-575h-369v578l-409 -578h-435l562 770l-527 743h428l381 -581v581h369v-575l379 575h428z" />
    <glyph glyph-name="uni041B.ss01" horiz-adv-x="1576" 
d="M172 -25q-33 0 -84 7l-82 317h33q140 0 217 127q62 108 94 313q24 162 29 205l29 275l28 294h991v-1513h-387v1145h-260l-14 -123q-3 -36 -14 -135l-15 -121q-13 -100 -20 -131l-25 -113q-18 -88 -28 -119q-35 -111 -82 -192q-134 -236 -410 -236z" />
    <glyph glyph-name="uni0424.ss01" horiz-adv-x="2027" 
d="M1206 88v-252h-385v252q-350 21 -555 193q-205 175 -205 479q0 299 203 475q208 177 557 195v247h385v-247q348 -18 555 -195t207 -475t-207 -475q-206 -176 -555 -197zM821 418v680q-181 -10 -279 -99.5t-98 -240.5t99.5 -242t277.5 -98zM1206 1098v-680q178 7 277.5 98
t99.5 242q0 149 -98 238.5t-279 101.5z" />
    <glyph glyph-name="uni042A.ss01" horiz-adv-x="1570" 
d="M719 1022h262q122 0 219.5 -32t158 -83.5t101 -120.5t56.5 -137t16 -139q0 -223 -141 -367q-137 -143 -377 -143h-670v1190h-315v323h690v-491zM719 330h229q91 0 141 51.5t50 132.5q0 76 -51 126t-134 50h-235v-360z" />
    <glyph glyph-name="uni042C.ss01" horiz-adv-x="1376" 
d="M524 1022h262q122 0 219.5 -32t158 -83.5t101 -120.5t56.5 -137t16 -139q0 -223 -141 -367q-137 -143 -377 -143h-669v1513h374v-491zM524 330h230q91 0 140.5 51.5t49.5 132.5q0 76 -50.5 126t-133.5 50h-236v-360z" />
    <glyph glyph-name="uni0431.ss01" horiz-adv-x="1413" 
d="M782 1114q229 0 398 -153q170 -150 170 -408q0 -248 -168 -416q-165 -168 -441 -168q-99 0 -185.5 24t-153.5 67t-122 103t-92.5 130t-63.5 149.5t-38 160.5t-12 165q0 204 55 350q54 144 134 228.5t214 150.5q131 65 240 92q39 9 264 70q169 49 246 82v-334
q-83 -39 -193 -68q-26 -7 -67.5 -18.5t-72.5 -20t-56 -14.5q-75 -20 -133 -42.5t-118.5 -59t-106 -91t-72.5 -126.5q141 147 374 147zM999 551q0 105 -73 178q-71 74 -178 74q-106 0 -181 -72q-71 -71 -71 -180q0 -105 71 -182q70 -76 178 -76q107 0 181 74q73 76 73 184z
" />
    <glyph glyph-name="uni0432.ss01" horiz-adv-x="1216" 
d="M930 625q108 -24 166.5 -101.5t58.5 -185.5q0 -153 -113 -245.5t-303 -92.5h-624v1130h622q173 0 260 -81q93 -84 93 -195q0 -173 -160 -229zM688 862h-237v-166h229q96 0 96 86q0 32 -24 56t-64 24zM451 276h256q46 0 74 27t28 66q0 43 -25.5 68.5t-72.5 25.5h-260v-187
z" />
    <glyph glyph-name="uni0433.ss01" horiz-adv-x="952" 
d="M115 1130h807v-323h-449v-807h-358v1130z" />
    <glyph glyph-name="uni0434.ss01" horiz-adv-x="1388" 
d="M1196 1133v-828h125v-549h-340v244h-590v-244h-340v549h121q128 241 201 729l14 99h809zM686 856l-16 -74q-46 -267 -131 -477h303v551h-156z" />
    <glyph glyph-name="uni0436.ss01" horiz-adv-x="1714" 
d="M1303 575l434 -575h-402l-309 422v-422h-340v420l-307 -420h-402l437 578l-396 552h394l274 -428v428h340v-432l274 432h394z" />
    <glyph glyph-name="uni0437.ss01" horiz-adv-x="1116" 
d="M518 -25q-257 0 -489 119l112 254q197 -84 387 -84q85 0 131 25t46 67q0 78 -148 78h-248v264h185q165 0 165 82q0 41 -40.5 63.5t-112.5 22.5q-150 0 -305 -82l-148 232q92 66 226.5 104.5t271.5 38.5q205 0 330 -90q125 -88 125 -209q0 -70 -51 -130.5t-144 -96.5
l-2 -6q116 -30 181 -106t65 -175q0 -147 -140 -260q-138 -111 -397 -111z" />
    <glyph glyph-name="uni0438.ss01" horiz-adv-x="1349" 
d="M346 0h-231v1130h352v-577l530 577h238v-1130h-352v567z" />
    <glyph glyph-name="uni0439.ss01" horiz-adv-x="1349" 
d="M260 1427l170 175q72 -93 131.5 -127.5t132.5 -34.5q75 0 135 34.5t132 127.5l169 -175q-184 -227 -438 -227t-432 227zM346 0h-231v1130h352v-577l530 577h238v-1130h-352v567z" />
    <glyph glyph-name="uni043A.ss01" horiz-adv-x="1222" 
d="M1249 0h-413l-301 414l-72 -74v-340h-348v1130h348v-372l356 372h416l-469 -481z" />
    <glyph glyph-name="uni043B.ss01" horiz-adv-x="1308" 
d="M158 -23q-8 0 -30 2t-36 3l-90 278h23q117 0 182 105q25 40 41 88q4 10 16 55q3 15 9 38t10 44t8 49q15 92 22 166q7 45 11 96l12 111q2 19 5.5 45t5.5 43t3 30h846v-1130h-362v803h-172q-44 -344 -80 -465q-38 -115 -78 -176q-117 -185 -346 -185z" />
    <glyph glyph-name="uni043F.ss01" horiz-adv-x="1296" 
d="M115 1130h1069v-1130h-361v803h-350v-803h-358v1130z" />
    <glyph glyph-name="uni0442.ss01" horiz-adv-x="1056" 
d="M31 1130h995v-313h-319v-817h-359v817h-317v313z" />
    <glyph glyph-name="uni0444.ss01" horiz-adv-x="1798" 
d="M1735 567q0 -268 -175 -421.5t-487 -170.5v-305h-348v305q-296 15 -481 168q-181 150 -181 424q0 267 177 424q177 155 485 170v303h348v-303q304 -15 481 -170q181 -153 181 -424zM1073 848v-565q146 1 224.5 76.5t78.5 205.5t-76.5 203.5t-226.5 79.5zM725 283v565
q-150 -7 -226.5 -80.5t-76.5 -202.5t78.5 -203.5t224.5 -78.5z" />
    <glyph glyph-name="uni0446.ss01" horiz-adv-x="1427" 
d="M1384 -369h-346v369h-923v1130h360v-794h361v794h360v-794h188v-705z" />
    <glyph glyph-name="uni0448.ss01" horiz-adv-x="1964" 
d="M1849 0h-1734v1130h360v-794h326v794h360v-794h328v794h360v-1130z" />
    <glyph glyph-name="uni0449.ss01" horiz-adv-x="2080" 
d="M1849 1130v-794h187v-705h-346v369h-1575v1130h360v-794h326v794h360v-794h328v794h360z" />
    <glyph glyph-name="uni044A.ss01" horiz-adv-x="1296" 
d="M610 809h193q236 0 346 -119q113 -119 113 -280q0 -180 -121 -295t-328 -115h-545v807h-225v323h567v-321zM608 289h172q64 0 97.5 32.5t33.5 84.5q0 49 -35.5 81.5t-93.5 32.5h-174v-231z" />
    <glyph glyph-name="uni044C.ss01" horiz-adv-x="1144" 
d="M455 809h196q236 0 346 -119q113 -119 113 -280q0 -180 -121 -295t-327 -115h-547v1130h342zM453 289h176q64 0 97.5 32.5t33.5 84.5q0 49 -35.5 81.5t-93.5 32.5h-176z" />
    <glyph glyph-name="uni044E.ss01" horiz-adv-x="1863" 
d="M1186 1163q276 0 444 -174q172 -172 172 -424t-172 -424q-169 -172 -444 -172q-229 0 -391 125q-161 128 -207 324h-119v-418h-354v1130h354v-423h119q47 202 205 327q163 129 393 129zM1442 567q0 109 -74 183q-73 73 -182 73q-107 0 -180 -73q-74 -74 -74 -183
q0 -108 72 -186q74 -74 182 -74t182 74q74 77 74 186z" />
    <glyph glyph-name="yen.osf" horiz-adv-x="1105" 
d="M782 1225h369l-270 -486h120v-225h-245l-29 -49v-10h274v-228h-274v-227h-346v227h-277v228h277v10l-27 49h-250v225h125l-268 486h369l223 -465z" />
    <glyph glyph-name="zero.dnom" horiz-adv-x="815" 
d="M408 -10q-176 0 -269 112q-94 113 -94 308q0 194 94 307q94 114 269 114q170 0 265 -113.5t95 -307.5q0 -193 -95 -306.5t-265 -113.5zM283 410q0 -211 125 -211q124 0 124 211t-124 211q-125 0 -125 -211z" />
    <glyph glyph-name="zero.lf" horiz-adv-x="1423" 
d="M711 -25q-295 0 -463 213q-166 214 -166 570t166 567q167 215 463 215q298 0 465 -215q165 -210 165 -567t-165 -570q-168 -213 -465 -213zM965 758q0 193 -66 308.5t-186 115.5q-121 0 -187.5 -115.5t-66.5 -308.5q0 -196 66 -310t188 -114t187 114.5t65 309.5z" />
    <glyph glyph-name="zero.num" horiz-adv-x="815" 
d="M408 698q-175 0 -269 113t-94 307t94 307q95 115 269 115q170 0 265 -114t95 -308q0 -193 -95 -306.5t-265 -113.5zM283 1118q0 -211 125 -211q124 0 124 211t-124 211q-125 0 -125 -211z" />
    <glyph glyph-name="zero.osf" horiz-adv-x="1314" 
d="M82 610q0 284 151 461q149 174 424 174t424 -174q152 -178 152 -461q0 -285 -152 -463q-150 -172 -424 -172q-276 0 -426 172q-149 174 -149 463zM657 289q108 0 166 85t58 236q0 150 -58.5 235t-163.5 85q-109 0 -167 -84.5t-58 -235.5q0 -154 57 -237.5t166 -83.5z" />
    <glyph glyph-name="zero.slash" horiz-adv-x="1423" 
d="M711 1540q298 0 465 -215q165 -210 165 -567t-165 -570q-168 -213 -465 -213q-295 0 -463 213q-166 214 -166 570t166 567q167 215 463 215zM713 1225q-137 0 -207 -131q-72 -132 -72 -336q0 -150 33 -250l397 655q-62 62 -151 62zM713 291q133 0 204.5 126t71.5 341
q0 124 -28 233l-394 -649q60 -51 146 -51z" />
    <glyph glyph-name="zero.tf" horiz-adv-x="1308" 
d="M653 -25q-285 0 -444 215q-160 216 -160 568q0 351 160 567q159 215 444 215q288 0 447 -215q162 -213 162 -567q0 -355 -162 -568q-159 -215 -447 -215zM655 334q113 0 173.5 114t60.5 310q0 193 -61.5 308.5t-172.5 115.5q-113 0 -174 -115t-61 -309
q0 -197 60.5 -310.5t174.5 -113.5z" />
    </font>
</defs>
</svg>
