<?xml version="1.0" standalone="no"?>
<!DOCTYPE svg PUBLIC "-//W3C//DTD SVG 1.1//EN" "http://www.w3.org/Graphics/SVG/1.1/DTD/svg11.dtd" >
<svg xmlns="http://www.w3.org/2000/svg" xmlns:xlink="http://www.w3.org/1999/xlink" version="1.1">
<metadata>
Created by FontForge 20170731 at Tue Jun  8 08:01:13 2021
 By Aleksey,,,
Copyright (c) 2017 by Kastelov. All rights reserved.
</metadata>
<defs>
<font id="Axiforma-Bold" horiz-adv-x="1425" >
  <font-face 
    font-family="Axiforma"
    font-weight="700"
    font-stretch="normal"
    units-per-em="2048"
    panose-1="0 0 8 0 0 0 0 0 0 0"
    ascent="1581"
    descent="-467"
    x-height="1114"
    cap-height="1513"
    bbox="-938 -717 2642 2140"
    underline-thickness="102"
    underline-position="-307"
    unicode-range="U+000D-25CA"
  />
<missing-glyph horiz-adv-x="266" 
 />
    <glyph glyph-name="f_b" unicode="fb" horiz-adv-x="2273" 
d="M229 1116v25q0 225 109.5 344t304.5 119q153 0 295 -74l-70 -225q-91 45 -168 45q-86 0 -134 -50.5t-48 -142.5v-41h348v-242h-348v-874h-289v874h-172v242h172zM1645 1145q238 0 397 -170q160 -171 160 -418t-160 -418q-159 -166 -397 -166q-211 0 -349 166v-139h-280
v1556h289v-569q140 158 340 158zM1292 559q0 -134 86 -229q86 -92 221 -92q136 0 222 92q86 95 86 229q0 135 -86 227q-87 93 -222 93t-221 -95q-86 -92 -86 -225z" />
    <glyph glyph-name="f_f" unicode="ff" horiz-adv-x="1718" 
d="M1554 1350q-98 0 -151 -50.5t-53 -144.5v-39h348v-242h-348v-874h-287v874h-545v-874h-287v874h-174v242h174v43q0 215 131 331t353 114q182 -3 338 -84l-92 -226q-124 56 -209 56q-107 0 -170.5 -51t-63.5 -142v-41h545v43q0 212 122.5 328.5t327.5 116.5q158 0 310 -82
l-94 -219q-106 47 -175 47z" />
    <glyph glyph-name="f_f_i" unicode="ffi" horiz-adv-x="2295" 
d="M1534 1350q-86 0 -134 -50.5t-48 -142.5v-41h389v-242h-389v-874h-289v874h-545v-874h-289v874h-172v242h172v43q0 212 131 328.5t351 116.5q164 0 346 -84l-92 -228q-131 58 -220 58q-104 0 -165.5 -52t-61.5 -143v-39h545v25q0 224 113 343.5t311 119.5q153 0 295 -74
l-80 -225q-91 45 -168 45zM2148 1294q-51 -51 -126.5 -51t-129.5 51q-51 51 -51 126.5t51 125.5q54 51 129.5 51t126.5 -51q51 -49 51 -125t-51 -127zM2165 0h-289v1116h289v-1116z" />
    <glyph glyph-name="f_f_j" unicode="ffj" horiz-adv-x="2293" 
d="M1720 1116v-242h-370v-874h-287v874h-545v-874h-289v874h-172v242h172v43q0 215 133 330t347 115q174 0 340 -84l-84 -228q-125 58 -217 58q-104 0 -167 -52t-63 -143v-39h545v25q0 224 113 343.5t311 119.5q153 0 295 -74l-80 -225q-91 45 -170 45q-86 0 -134 -50.5
t-48 -142.5v-41h370zM2021 1243q-77 0 -128.5 51.5t-51.5 126.5t52.5 125.5t127.5 50.5q74 0 125.5 -50.5t51.5 -125.5t-51.5 -126.5t-125.5 -51.5zM1874 -2v1118h289v-1132q0 -222 -115 -340.5t-311 -118.5q-170 0 -256 57l55 230q85 -33 152 -33q186 0 186 219z" />
    <glyph glyph-name="f_h" unicode="fh" horiz-adv-x="2201" 
d="M229 1116v25q0 226 109 344.5t307 118.5q153 0 295 -74l-72 -225q-91 45 -168 45q-86 0 -134 -50.5t-48 -142.5v-41h348v-242h-348v-874h-289v874h-172v242h172zM1649 1147q180 0 307 -121t127 -344v-682h-289v604q0 132 -63 204.5t-170 72.5q-115 0 -185.5 -79
t-70.5 -204v-598h-289v1556h280v-585q46 77 141.5 126.5t211.5 49.5z" />
    <glyph glyph-name="f_i" unicode="fi" horiz-adv-x="1462" 
d="M229 1116v25q0 224 113 343.5t311 119.5q153 0 295 -74l-80 -225q-91 45 -168 45q-86 0 -134 -50.5t-48 -142.5v-41h348v-242h-348v-874h-289v874h-172v242h172zM1315 1292q-51 -50 -126.5 -50t-129.5 50q-51 51 -51 127t51 127q54 51 129.5 51t126.5 -51t51 -127
t-51 -127zM1331 0h-289v1116h289v-1116z" />
    <glyph glyph-name="f_j" unicode="fj" horiz-adv-x="1462" 
d="M883 1116v-242h-365v-874h-289v874h-172v242h172v25q0 224 113 343.5t311 119.5q153 0 295 -74l-80 -225q-91 45 -168 45q-86 0 -134 -50.5t-48 -142.5v-41h365zM1315 1292q-51 -50 -126.5 -50t-129.5 50q-51 51 -51 127t51 127q54 51 129.5 51t126.5 -51t51 -127
t-51 -127zM1042 -2v1118h289v-1132q0 -222 -115.5 -340.5t-312.5 -118.5q-170 0 -256 57l55 230q85 -33 152 -33q188 0 188 219z" />
    <glyph glyph-name="f_k" unicode="fk" horiz-adv-x="2080" 
d="M229 1116v25q0 226 108.5 344.5t303.5 118.5q152 0 297 -74l-70 -225q-91 45 -168 45q-86 0 -134 -50.5t-48 -142.5v-41h348v-242h-348v-874h-289v874h-172v242h172zM2103 0h-354l-369 477l-75 -67v-410h-289v1556h289v-821l405 381h365l-498 -457z" />
    <glyph glyph-name="f_l" unicode="fl" horiz-adv-x="1435" 
d="M229 1116v25q0 229 107.5 346t308.5 117q156 0 289 -74l-66 -225q-91 45 -168 45q-86 0 -134 -50.5t-48 -142.5v-41h348v-242h-348v-874h-289v874h-172v242h172zM1016 0v1556h289v-1556h-289z" />
    <glyph glyph-name=".notdef" horiz-adv-x="266" 
 />
    <glyph glyph-name=".null" horiz-adv-x="0" 
 />
    <glyph glyph-name="nonmarkingreturn" horiz-adv-x="682" 
 />
    <glyph glyph-name="CR.001" horiz-adv-x="266" 
 />
    <glyph glyph-name="CR.001" horiz-adv-x="266" 
 />
    <glyph glyph-name="CR" unicode="&#xd;" horiz-adv-x="681" 
 />
    <glyph glyph-name="space" unicode=" " horiz-adv-x="505" 
 />
    <glyph glyph-name="exclam" unicode="!" horiz-adv-x="643" 
d="M459 420h-269l-16 1122h305zM328 -25q-73 0 -121.5 47.5t-48.5 120.5q0 69 49 116.5t121 47.5q69 0 117.5 -47.5t48.5 -116.5q0 -73 -48 -120.5t-118 -47.5z" />
    <glyph glyph-name="quotedbl" unicode="&#x22;" horiz-adv-x="1132" 
d="M350 877h-276l180 632h334zM868 877h-276l180 632h334z" />
    <glyph glyph-name="numbersign" unicode="#" horiz-adv-x="1525" 
d="M1462 1159l-47 -239h-207l-59 -312h207l-45 -241h-209l-70 -367h-284l71 367h-264l-72 -367h-284l75 367h-206l47 241h209l63 312h-215l47 239h217l72 354h274l-69 -354h264l70 354h274l-68 -354h209zM604 608h264l62 312h-264z" />
    <glyph glyph-name="dollar" unicode="$" horiz-adv-x="1210" 
d="M1130 436q0 -170 -103 -289.5t-275 -156.5v-219h-258v211q-289 47 -435 301l203 194q55 -99 147 -157t191 -58q89 0 143 43.5t54 112.5q0 52 -32 89t-99 71q-20 12 -91 43q-171 82 -227 120q-211 144 -211 365q0 162 98.5 274t266.5 148v198h260v-198q189 -38 338 -193
l-168 -217q-151 142 -303 142q-79 0 -127.5 -40.5t-48.5 -103.5q0 -55 49 -98q25 -19 102 -68q27 -15 141 -71q129 -63 179 -95q206 -129 206 -348z" />
    <glyph glyph-name="percent" unicode="%" horiz-adv-x="1849" 
d="M63 1161q0 157 115 269q113 110 277 110q161 0 274 -110q115 -112 115 -269q0 -152 -115 -264q-115 -109 -274 -109q-162 0 -277 109q-115 112 -115 264zM508 0h-281l1102 1513h283zM455 989q70 0 122 51t52 123t-52 123t-122 51q-74 0 -125 -50.5t-51 -123.5
t51.5 -123.5t124.5 -50.5zM1006 348q0 157 112 266q114 111 277 111q162 0 276 -111q115 -112 115 -266q0 -152 -115 -264q-115 -109 -276 -109q-162 0 -277 109q-112 109 -112 264zM1571 350q0 73 -51 123.5t-125 50.5q-72 0 -123 -50.5t-51 -123.5q0 -74 50.5 -124
t123.5 -50t124.5 50t51.5 124z" />
    <glyph glyph-name="ampersand" unicode="&#x26;" horiz-adv-x="1439" 
d="M1214 334l218 -193l-160 -174l-217 197q-205 -184 -467 -184q-229 0 -373 126q-143 128 -143 318q0 264 268 434q-88 131 -88 287q0 155 119 274t311 119q160 0 270 -98q113 -94 113 -238q0 -155 -119 -254q-67 -54 -110 -80q-25 -13 -138 -73l78 -70l264 -236
q86 99 158 209l178 -149q-79 -118 -162 -215zM668 1321q-74 0 -122 -51.5t-48 -130.5q0 -89 51 -172l133 65q50 29 86.5 71t36.5 87q0 56 -38.5 93.5t-98.5 37.5zM608 223q140 0 269 105l-297 268q-11 9 -43 40.5t-45 41.5q-134 -100 -134 -232q0 -98 69 -160.5t181 -62.5z
" />
    <glyph glyph-name="quotesingle" unicode="'" horiz-adv-x="610" 
d="M348 877h-276l180 632h334z" />
    <glyph glyph-name="parenleft" unicode="(" horiz-adv-x="856" 
d="M846 -227l-133 -224q-311 161 -476 433.5t-165 619.5q0 350 166.5 620.5t484.5 434.5l123 -230q-459 -296 -459 -825q0 -514 459 -829z" />
    <glyph glyph-name="parenright" unicode=")" horiz-adv-x="856" 
d="M141 -451l-131 224q459 315 459 829q0 529 -459 825l123 230q318 -164 484.5 -434.5t166.5 -620.5q0 -347 -165.5 -619.5t-477.5 -433.5z" />
    <glyph glyph-name="asterisk" unicode="*" horiz-adv-x="1009" 
d="M506 987l-195 -235l-159 139l188 213l-270 117l86 192l250 -121l-11 291h219l-8 -291l250 121l84 -190l-268 -119l186 -213l-160 -139z" />
    <glyph glyph-name="plus" unicode="+" horiz-adv-x="1177" 
d="M727 848h385v-273h-385v-385l-270 -4v389h-389v273h389v387h270v-387z" />
    <glyph glyph-name="comma" unicode="," horiz-adv-x="536" 
d="M264 297q78 0 130 -56t52 -141q0 -222 -315 -430l-86 115q161 121 199 192h-6q-60 0 -104 45t-44 107q0 71 50.5 119.5t123.5 48.5z" />
    <glyph glyph-name="hyphen" unicode="-" horiz-adv-x="1085" 
d="M965 432h-842v270h842v-270z" />
    <glyph glyph-name="period" unicode="." horiz-adv-x="507" 
d="M256 -33q-72 0 -121 48t-49 120q0 69 49 116.5t121 47.5q68 0 116 -47.5t48 -116.5q0 -71 -48 -119.5t-116 -48.5z" />
    <glyph glyph-name="slash" unicode="/" horiz-adv-x="1374" 
d="M352 -252h-315l983 1942h315z" />
    <glyph glyph-name="zero" unicode="0" horiz-adv-x="1409" 
d="M705 -25q-204 0 -345 111q-268 210 -268 672q0 218 64 389q65 178 209 285.5t340 107.5q153 0 272.5 -63t192.5 -172t110 -248t37 -299t-37 -299t-110 -248.5t-192.5 -172.5t-272.5 -63zM1016 758q0 217 -78 358q-77 139 -233 139q-155 0 -232 -139q-78 -141 -78 -358
q0 -228 79.5 -363t230.5 -135t231 135t80 363z" />
    <glyph glyph-name="one" unicode="1" horiz-adv-x="856" 
d="M-6 1141l469 372h225v-1513h-297v1112l-241 -186z" />
    <glyph glyph-name="two" unicode="2" horiz-adv-x="1187" 
d="M793 563l-267 -284h564v-279h-988v252l471 493q90 94 97 103q25 32 61 96q35 62 35 117q0 86 -59 140t-150 54q-160 0 -340 -168l-166 218q235 235 531 235q217 0 354 -131q139 -130 139 -332q0 -219 -282 -514z" />
    <glyph glyph-name="three" unicode="3" horiz-adv-x="1157" 
d="M520 -25q-256 0 -493 150l127 242q186 -113 350 -113q115 0 180.5 51.5t65.5 138.5q0 85 -65 137t-169 52h-192v270h165q104 0 167 49t63 129t-58.5 127t-152.5 47q-139 0 -301 -116l-146 217q91 85 220 134.5t264 49.5q203 0 342 -115q137 -113 137 -280
q0 -119 -70.5 -210t-185.5 -130v-8q139 -30 218 -132t79 -241q0 -196 -152 -324q-149 -125 -393 -125z" />
    <glyph glyph-name="four" unicode="4" horiz-adv-x="1261" 
d="M1018 604h164v-252h-164v-352h-283v352h-665l-60 195l791 966h217v-909zM735 1075l-381 -471h381v471z" />
    <glyph glyph-name="five" unicode="5" horiz-adv-x="1204" 
d="M621 975q215 0 362 -135t147 -353q0 -223 -155 -366q-158 -146 -410 -146q-276 0 -508 168l121 242q192 -131 373 -131q125 0 199.5 66t74.5 167q0 98 -73 163t-183 65q-143 0 -250 -101l-176 142l82 757h801v-278h-575l-33 -297q93 37 203 37z" />
    <glyph glyph-name="six" unicode="6" horiz-adv-x="1296" 
d="M725 977q215 0 352 -137q142 -139 142 -348q0 -220 -154 -365q-151 -145 -391 -145q-283 0 -432 204q-150 206 -150 525q0 128 24.5 247.5t77.5 225.5t129 185t186 125t241 46q234 0 417 -133l-131 -227q-134 90 -270 90q-172 0 -274 -135t-111 -324q111 166 344 166z
M674 242q103 0 174 71q72 72 72 174q0 103 -70 170q-71 68 -174 68q-105 0 -175.5 -68t-70.5 -172t70 -174q69 -69 174 -69z" />
    <glyph glyph-name="seven" unicode="7" horiz-adv-x="1073" 
d="M43 1235v278h987v-208l-541 -1305h-317l520 1235h-649z" />
    <glyph glyph-name="eight" unicode="8" horiz-adv-x="1302" 
d="M86 416q0 129 77.5 234.5t207.5 152.5v4q-104 48 -162.5 134.5t-58.5 195.5q0 175 137 288q139 115 364 115q224 0 363 -115t139 -288q0 -109 -59.5 -195.5t-163.5 -134.5v-6q130 -44 208.5 -150t78.5 -235q0 -190 -158 -318q-156 -123 -408 -123q-253 0 -409 123
q-156 126 -156 318zM426 1104q0 -81 61 -135t162 -54t162 53t61 136q0 82 -61 135t-160 53t-162 -53t-63 -135zM911 453q0 92 -71 149t-189 57t-190 -56.5t-72 -147.5q0 -94 72.5 -153.5t189.5 -59.5q116 0 188 59t72 152z" />
    <glyph glyph-name="nine" unicode="9" horiz-adv-x="1284" 
d="M621 1540q276 0 423 -203q148 -204 148 -528q0 -134 -24 -255t-75.5 -227.5t-126 -184t-182 -122.5t-237.5 -45q-243 0 -418 134l111 225q133 -92 288 -92q163 0 258.5 118t116.5 322q-56 -66 -147 -102.5t-193 -36.5q-209 0 -346 137t-137 348q0 224 149 367
q151 145 392 145zM614 795q103 0 173.5 69.5t70.5 171.5q0 104 -69.5 175t-172.5 71q-105 0 -174 -70t-69 -178q0 -104 68.5 -171.5t172.5 -67.5z" />
    <glyph glyph-name="colon" unicode=":" horiz-adv-x="569" 
d="M287 702q-72 0 -121 48t-49 120q0 69 49 116.5t121 47.5q68 0 116 -47.5t48 -116.5q0 -71 -48 -119.5t-116 -48.5zM287 -33q-72 0 -121 48t-49 120q0 69 49 116.5t121 47.5q68 0 116 -47.5t48 -116.5q0 -71 -48 -119.5t-116 -48.5z" />
    <glyph glyph-name="semicolon" unicode=";" horiz-adv-x="612" 
d="M315 700q-74 0 -124 49.5t-50 122.5q0 69 51 118.5t123 49.5q69 0 118.5 -49.5t49.5 -118.5q0 -73 -49 -122.5t-119 -49.5zM303 297q78 0 130 -56t52 -141q0 -222 -315 -430l-86 115q161 121 199 192h-7q-60 0 -103.5 45t-43.5 107q0 71 50.5 119.5t123.5 48.5z" />
    <glyph glyph-name="less" unicode="&#x3c;" horiz-adv-x="1140" 
d="M1008 387v-293l-945 449v248l945 446v-287l-635 -280z" />
    <glyph glyph-name="equal" unicode="=" horiz-adv-x="1208" 
d="M1077 750h-946v239h946v-239zM1077 352h-946v240h946v-240z" />
    <glyph glyph-name="greater" unicode="&#x3e;" horiz-adv-x="1112" 
d="M1053 543l-932 -463v293l602 282l-602 279v289l932 -463v-217z" />
    <glyph glyph-name="question" unicode="?" horiz-adv-x="1126" 
d="M641 399h-279v136q0 83 37 156.5t95 127.5q19 18 64 56.5t69 61.5t53.5 57.5t43 69t13.5 71.5q0 81 -58 132.5t-147 51.5q-152 0 -305 -178l-178 200q203 250 506 250q215 0 352 -125t137 -313q0 -92 -39 -171.5t-104 -139.5q-23 -21 -68.5 -60t-72.5 -65t-58 -60.5
t-46 -69t-15 -69.5v-119zM336 141q0 69 49 117.5t121 48.5q69 0 117.5 -48.5t48.5 -117.5q0 -71 -48 -118.5t-118 -47.5t-120 47.5t-50 118.5z" />
    <glyph glyph-name="at" unicode="@" horiz-adv-x="1978" 
d="M1202 913v88h219v-528q0 -61 26 -95t66 -34q71 0 129 94t58 236q0 274 -203 459q-197 185 -487 182q-298 -3 -504 -215q-207 -213 -207 -512q0 -306 217 -520q219 -213 526 -213q303 0 547 186l101 -168q-112 -95 -285 -156q-180 -65 -373 -65q-401 0 -674 276
q-274 274 -274 660q0 385 270 655q270 273 660 273q383 0 641 -246q258 -243 258 -586q0 -234 -127 -391q-127 -154 -309 -154q-180 0 -242 152q-109 -152 -309 -152q-176 0 -297 127q-119 125 -119 318q0 191 119 319q120 129 301 129q171 0 272 -119zM969 346q96 0 164 68
q67 70 67 170q0 104 -67 174q-65 71 -162 71q-99 0 -166.5 -69.5t-67.5 -173.5q0 -102 66.5 -171t165.5 -69z" />
    <glyph glyph-name="A" unicode="A" 
d="M1409 0h-319l-113 328h-528l-117 -328h-318l578 1513h248zM891 598l-176 504l-180 -504h356z" />
    <glyph glyph-name="B" unicode="B" horiz-adv-x="1417" 
d="M1051 829q136 -34 211 -140t75 -249q0 -188 -131 -313q-130 -127 -348 -127h-690v1513h659q204 0 316 -112q114 -114 114 -264q0 -101 -57.5 -188.5t-148.5 -119.5zM776 1249h-309v-329h297q90 0 141 49.5t51 120.5q0 68 -49 113.5t-131 45.5zM467 266h332
q104 0 164.5 57.5t60.5 141.5q0 86 -59.5 143.5t-165.5 57.5h-332v-400z" />
    <glyph glyph-name="C" unicode="C" horiz-adv-x="1566" 
d="M860 -23q-328 0 -555 216q-223 216 -223 559q0 345 227 565q229 223 555 223q202 0 376.5 -85t275.5 -228l-203 -199q-180 219 -432 219q-206 0 -344 -141q-140 -140 -140 -354q0 -208 138 -346t344 -138q264 0 440 221l209 -190q-107 -146 -284.5 -234t-383.5 -88z" />
    <glyph glyph-name="D" unicode="D" horiz-adv-x="1576" 
d="M748 0h-580v1513h592q342 0 534 -204q195 -204 195 -555q0 -349 -199 -551q-197 -203 -542 -203zM471 1223v-932h291q194 0 303 133t109 336q0 197 -109 330t-303 133h-291z" />
    <glyph glyph-name="E" unicode="E" horiz-adv-x="1304" 
d="M1194 0h-1026v1513h1026v-282h-721v-326h668v-282h-668v-340h721v-283z" />
    <glyph glyph-name="F" unicode="F" horiz-adv-x="1234" 
d="M471 0h-303v1513h1010v-286h-707v-340h621v-285h-621v-602z" />
    <glyph glyph-name="G" unicode="G" horiz-adv-x="1658" 
d="M870 -23q-339 0 -567 220q-221 221 -221 559q0 344 229 563q232 221 572 221q180 0 342.5 -67t267.5 -179l-199 -217q-170 170 -411 170q-212 0 -351 -139t-139 -350q0 -207 135 -348q139 -142 351 -142q115 0 223.5 44.5t181.5 117.5v207h-418v264h695v-622
q-290 -302 -691 -302z" />
    <glyph glyph-name="H" unicode="H" horiz-adv-x="1576" 
d="M471 0h-303v1513h303v-604h635v604h303v-1513h-303v616h-635v-616z" />
    <glyph glyph-name="I" unicode="I" horiz-adv-x="641" 
d="M168 0v1513h305v-1513h-305z" />
    <glyph glyph-name="J" unicode="J" horiz-adv-x="1196" 
d="M477 -25q-282 0 -469 187l148 237q133 -133 299 -133q131 0 208.5 83.5t77.5 228.5v935h303v-946q0 -294 -159 -444q-160 -148 -408 -148z" />
    <glyph glyph-name="K" unicode="K" 
d="M1450 0h-373l-420 600l-186 -223v-377h-303v1513h303v-714l573 714h367l-555 -688z" />
    <glyph glyph-name="L" unicode="L" horiz-adv-x="1269" 
d="M1241 0h-1073v1513h305v-1222h768v-291z" />
    <glyph glyph-name="M" unicode="M" horiz-adv-x="1923" 
d="M467 0h-299v1513h201l594 -858l587 858h205v-1513h-303v858l-440 -633h-105l-440 633v-858z" />
    <glyph glyph-name="N" unicode="N" horiz-adv-x="1626" 
d="M1159 578v935h299v-1513h-207l-784 928v-928h-299v1513h192z" />
    <glyph glyph-name="O" unicode="O" horiz-adv-x="1736" 
d="M866 -25q-337 0 -561 224q-225 225 -225 553q0 329 227 559q229 229 561 229q333 0 559 -229q230 -230 230 -555q0 -326 -230 -553q-228 -228 -561 -228zM1341 756q0 209 -137 346q-139 139 -336 139t-336 -139q-137 -137 -137 -346q0 -206 135 -344q138 -138 338 -138
t338 138t135 344z" />
    <glyph glyph-name="P" unicode="P" horiz-adv-x="1308" 
d="M168 1513h559q266 0 399 -145q136 -145 136 -354t-140 -352q-140 -140 -417 -140h-234v-522h-303v1513zM471 797h244q113 0 175 62.5t62 158.5q0 93 -60 154t-161 61h-260v-436z" />
    <glyph glyph-name="Q" unicode="Q" horiz-adv-x="1736" 
d="M1645 -20l41 -248q-134 -49 -273 -49q-350 0 -575 292q-322 15 -541 242q-217 224 -217 541q0 327 229 553q229 229 561 229q331 0 557 -229q230 -227 230 -553q0 -243 -133 -441q-133 -194 -348 -282q106 -92 256 -92q106 0 213 37zM391 754q0 -207 139 -346
q138 -138 340 -138q200 0 338 138q140 140 140 346q0 210 -140 350q-138 141 -338 141q-202 0 -340 -141q-139 -139 -139 -350z" />
    <glyph glyph-name="R" unicode="R" horiz-adv-x="1382" 
d="M1325 0h-354l-320 551h-180v-551h-303v1513h580q252 0 385 -139t133 -340q0 -152 -79 -271t-229 -173zM745 1233h-274v-410h248q114 0 174.5 57.5t60.5 149.5q0 88 -56.5 145.5t-152.5 57.5z" />
    <glyph glyph-name="S" unicode="S" horiz-adv-x="1241" 
d="M612 -25q-178 0 -329 74t-244 209l174 211q73 -102 178 -156.5t223 -54.5q94 0 155.5 45t61.5 117q0 94 -137 158q-11 6 -149 59q-109 43 -178 82q-240 138 -240 377q0 190 143 315q145 127 373 127q296 0 498 -205l-162 -221q-61 66 -153 103.5t-179 37.5
q-90 0 -142 -39.5t-52 -105.5q0 -89 122 -150l150 -65q110 -46 184 -80q258 -126 258 -377q0 -203 -153 -332t-402 -129z" />
    <glyph glyph-name="T" unicode="T" horiz-adv-x="1228" 
d="M461 0v1221h-432v292h1171v-292h-432v-1221h-307z" />
    <glyph glyph-name="U" unicode="U" horiz-adv-x="1484" 
d="M152 553v960h305v-940q0 -150 75 -227.5t211 -77.5q131 0 207 79.5t76 225.5v940h307v-960q0 -286 -168 -432q-168 -148 -422 -148q-253 0 -424 148q-167 145 -167 432z" />
    <glyph glyph-name="V" unicode="V" horiz-adv-x="1511" 
d="M758 467l397 1046h344l-620 -1513h-242l-629 1513h350z" />
    <glyph glyph-name="W" unicode="W" horiz-adv-x="2181" 
d="M770 0h-256l-502 1513h332l305 -1017l344 1017h193l350 -1017l301 1017h332l-500 -1513h-256l-321 991z" />
    <glyph glyph-name="X" unicode="X" horiz-adv-x="1370" 
d="M365 0h-357l486 766l-453 747h350l295 -518l309 518h357l-478 -747l476 -766h-351l-315 530z" />
    <glyph glyph-name="Y" unicode="Y" horiz-adv-x="1390" 
d="M1020 1513h350l-524 -989v-524h-303v524l-518 989h350l319 -663z" />
    <glyph glyph-name="Z" unicode="Z" horiz-adv-x="1333" 
d="M1257 0h-1185v217l749 1016h-721v280h1135v-225l-735 -1007h757v-281z" />
    <glyph glyph-name="bracketleft" unicode="[" horiz-adv-x="833" 
d="M793 -465h-637v2126h637v-256h-342v-1614h342v-256z" />
    <glyph glyph-name="backslash" unicode="\" horiz-adv-x="1353" 
d="M354 1690l965 -1942h-313l-967 1942h315z" />
    <glyph glyph-name="bracketright" unicode="]" horiz-adv-x="833" 
d="M678 -465h-637v256h342v1614h-342v256h637v-2126z" />
    <glyph glyph-name="asciicircum" unicode="^" horiz-adv-x="1110" 
d="M354 883h-284l389 680h194l387 -680h-282l-201 385z" />
    <glyph glyph-name="underscore" unicode="_" horiz-adv-x="1210" 
d="M1210 -391h-1210v266h1210v-266z" />
    <glyph glyph-name="grave" unicode="`" horiz-adv-x="798" 
d="M403 1630l127 -360h-256l-192 360h321z" />
    <glyph glyph-name="a" unicode="a" horiz-adv-x="1384" 
d="M981 983v133h274v-1116h-274v129q-144 -156 -356 -156q-243 0 -398 168t-155 422q0 251 157 416q156 166 396 166q210 0 356 -162zM985 559q0 131 -90 227q-89 95 -223 95q-137 0 -226 -95q-86 -95 -86 -227q0 -134 89 -229q88 -94 223 -94t223 94q90 96 90 229z" />
    <glyph glyph-name="b" unicode="b" horiz-adv-x="1388" 
d="M760 1145q238 0 397 -170q160 -171 160 -418t-160 -418q-159 -166 -397 -166q-210 0 -348 166v-139h-281v1556h289v-569q140 158 340 158zM408 559q0 -134 86 -229q86 -92 221 -92t221 92q86 95 86 229q0 135 -86 227q-87 93 -221 93q-135 0 -221 -95q-86 -92 -86 -225z
" />
    <glyph glyph-name="c" unicode="c" horiz-adv-x="1234" 
d="M664 -25q-259 0 -426 164q-166 163 -166 420q0 258 168 420q169 166 432 166q173 0 312.5 -82t207.5 -229l-231 -127q-102 170 -285 170q-137 0 -227 -93q-91 -91 -91 -225q0 -138 88 -229q90 -90 224 -90q88 0 167.5 47t116.5 121l234 -138q-72 -136 -212.5 -215.5
t-311.5 -79.5z" />
    <glyph glyph-name="d" unicode="d" horiz-adv-x="1384" 
d="M965 987v569h288v-1556h-282v137q-135 -164 -346 -164q-240 0 -396 166q-157 171 -157 420q0 247 157 418q158 168 396 168q200 0 340 -158zM979 559q0 135 -86 227q-86 95 -223 95t-226 -95q-86 -92 -86 -227q0 -136 86 -231q89 -92 226 -92t223 92q86 95 86 231z" />
    <glyph glyph-name="e" unicode="e" horiz-adv-x="1282" 
d="M1214 584q0 -52 -10 -127h-837q62 -238 325 -238q90 0 189 31.5t172 81.5l114 -203q-213 -154 -487 -154q-295 0 -451 170q-155 168 -155 414q0 255 162 420q163 166 419 166q244 0 402 -152q157 -151 157 -409zM655 905q-109 0 -185.5 -62t-102.5 -171h567
q-20 109 -94.5 171t-184.5 62z" />
    <glyph glyph-name="f" unicode="f" horiz-adv-x="884" 
d="M725 1350q-100 0 -153.5 -50.5t-53.5 -144.5v-39h346v-242h-346v-874h-289v874h-172v242h172v45q0 217 125 330q127 115 328 115q165 0 317 -82l-94 -221q-106 47 -180 47z" />
    <glyph glyph-name="g" unicode="g" horiz-adv-x="1382" 
d="M985 993v123h266v-1005q0 -270 -172 -426q-175 -158 -446 -158q-289 0 -512 162l112 217q192 -131 392 -131q163 0 255.5 85.5t92.5 223.5v57q-128 -143 -344 -143q-247 0 -402 162t-155 409q0 248 164 412t405 164q204 0 344 -152zM362 567q0 -138 89 -227
q90 -90 221 -90t221 90q88 91 88 227t-88 224q-90 90 -221 90t-221 -90q-89 -89 -89 -224z" />
    <glyph glyph-name="h" unicode="h" horiz-adv-x="1314" 
d="M420 0h-289v1556h281v-585q46 77 141 126.5t211 49.5q180 0 307 -121t127 -344v-682h-289v604q0 132 -63 204.5t-170 72.5q-115 0 -185.5 -79t-70.5 -204v-598z" />
    <glyph glyph-name="i" unicode="i" horiz-adv-x="550" 
d="M408 1292q-51 -51 -127 -51t-127 51t-51 126.5t51 125.5q51 51 127 51t127 -51q51 -50 51 -125.5t-51 -126.5zM424 1116v-1116h-289v1116h289z" />
    <glyph glyph-name="j" unicode="j" horiz-adv-x="600" 
d="M451 1292q-51 -51 -127 -51t-127 51t-51 126.5t51 125.5q51 51 127 51t127 -51q51 -50 51 -125.5t-51 -126.5zM41 -475q-168 0 -254 57l53 230q90 -33 154 -33q186 0 186 219v1118h289v-1132q0 -222 -115.5 -340.5t-312.5 -118.5z" />
    <glyph glyph-name="k" unicode="k" horiz-adv-x="1193" 
d="M1219 0h-355l-368 477l-76 -67v-410h-289v1556h289v-821l405 381h365l-498 -457z" />
    <glyph glyph-name="l" unicode="l" horiz-adv-x="548" 
d="M420 1556v-1556h-289v1556h289z" />
    <glyph glyph-name="m" unicode="m" horiz-adv-x="2052" 
d="M1481 1147q200 0 325 -125q129 -126 129 -348v-674h-288v621q0 125 -61 192.5t-163 67.5q-110 0 -177.5 -73.5t-67.5 -195.5v-612h-289v618q0 123 -60.5 193t-164.5 70q-107 0 -175.5 -74t-68.5 -197v-610h-289v1116h283v-160q48 88 140 140t200 51q107 0 195.5 -51.5
t131.5 -145.5q61 92 168 144.5t232 52.5z" />
    <glyph glyph-name="n" unicode="n" horiz-adv-x="1316" 
d="M420 0h-289v1116h283v-155q45 83 139.5 134.5t210.5 51.5q182 0 309 -121t127 -344v-682h-289v604q0 131 -63.5 204t-171.5 73q-115 0 -185.5 -79t-70.5 -204v-598z" />
    <glyph glyph-name="o" unicode="o" horiz-adv-x="1339" 
d="M72 559q0 248 168 416q169 172 430 172t430 -172q168 -168 168 -416q0 -250 -168 -418q-170 -170 -430 -170t-430 170q-168 168 -168 418zM449 332q89 -92 221 -92q130 0 219 92q90 96 90 227q0 132 -90 225t-219 93q-131 0 -221 -93q-89 -92 -89 -225q0 -132 89 -227z
" />
    <glyph glyph-name="p" unicode="p" horiz-adv-x="1394" 
d="M772 1145q237 0 393 -170t156 -416q0 -244 -158 -416q-156 -170 -393 -170q-206 0 -350 156v-588h-289v1575h287v-137q144 166 354 166zM721 238q137 0 223 92t86 227t-86 227q-87 93 -223 93q-134 0 -221 -93q-86 -92 -86 -227t86 -227t221 -92z" />
    <glyph glyph-name="q" unicode="q" horiz-adv-x="1394" 
d="M977 979v137h287v-1575h-289v592q-142 -160 -352 -160q-240 0 -396 170q-155 168 -155 416t155 416q156 170 396 170q210 0 354 -166zM674 238q135 0 221 92t86 227t-86 227q-87 93 -221 93q-136 0 -223 -93q-86 -92 -86 -227t86 -227t223 -92z" />
    <glyph glyph-name="r" unicode="r" horiz-adv-x="862" 
d="M420 0h-289v1116h277v-149q101 180 307 180q65 0 135 -25l-25 -276q-74 22 -133 22q-127 0 -199.5 -85t-72.5 -253v-530z" />
    <glyph glyph-name="s" unicode="s" horiz-adv-x="1015" 
d="M504 -29q-291 0 -461 215l154 183q60 -72 142.5 -114t166.5 -42q66 0 109.5 31t43.5 78q0 59 -79 96q-11 5 -134 51q-92 34 -143 59q-192 91 -192 289q0 147 114 242q113 94 303 94q238 0 392 -160l-144 -186q-117 111 -256 111q-56 0 -91.5 -28t-35.5 -67q0 -67 99 -102
q207 -77 268 -109q188 -99 188 -282q0 -156 -123 -258q-119 -101 -321 -101z" />
    <glyph glyph-name="t" unicode="t" horiz-adv-x="944" 
d="M852 293l86 -227q-140 -93 -330 -93q-192 0 -290.5 112t-98.5 329v460h-182v242h184v395h287v-395h369v-242h-369v-442q0 -196 158 -196q87 0 186 57z" />
    <glyph glyph-name="u" unicode="u" horiz-adv-x="1257" 
d="M629 -27q-239 0 -375.5 132t-136.5 366v645h289v-645q0 -107 59.5 -170t163.5 -63t163.5 63t59.5 170v645h289v-645q0 -234 -136 -366t-376 -132z" />
    <glyph glyph-name="v" unicode="v" horiz-adv-x="1220" 
d="M614 393l275 723h317l-485 -1114h-221l-484 1114h318z" />
    <glyph glyph-name="w" unicode="w" horiz-adv-x="1796" 
d="M649 2h-252l-381 1114h303l224 -731l252 731h202l260 -731l218 731h303l-377 -1114h-252l-252 698z" />
    <glyph glyph-name="x" unicode="x" horiz-adv-x="1132" 
d="M752 561l358 -561h-332l-213 367l-223 -367h-334l371 569l-330 547h330l190 -342l205 342h326z" />
    <glyph glyph-name="y" unicode="y" horiz-adv-x="1226" 
d="M639 389l254 727h315l-448 -1171q-83 -216 -196 -318t-277 -102q-127 0 -215 55l49 242q75 -37 143 -37q134 0 217 176l23 51l-488 1104h334z" />
    <glyph glyph-name="z" unicode="z" horiz-adv-x="1101" 
d="M1012 920l-549 -680h569v-240h-966v197l559 677h-531v240h918v-194z" />
    <glyph glyph-name="braceleft" unicode="{" horiz-adv-x="833" 
d="M369 596v-6q87 -26 145.5 -94t58.5 -162q0 -52 -12 -184q-10 -147 -10 -187q0 -162 164 -162h57v-274h-139q-375 0 -375 383q0 75 8 190q10 143 10 181q0 101 -56 143t-179 55v230q104 14 164 47q71 39 71 151q0 36 -10 183q-8 117 -8 198q0 373 389 373h125v-275h-57
q-164 0 -164 -159q0 -41 10 -191q12 -135 12 -184q0 -94 -58.5 -162t-145.5 -94z" />
    <glyph glyph-name="bar" unicode="|" horiz-adv-x="598" 
d="M442 -367h-286v2102h286v-2102z" />
    <glyph glyph-name="braceright" unicode="}" horiz-adv-x="833" 
d="M465 590v6q-87 26 -146 94t-59 162q0 34 10 184q13 146 13 191q0 159 -164 159h-58v275h125q389 0 389 -373q0 -81 -8 -198t-8 -183q0 -101 55.5 -142.5t180.5 -55.5v-230q-124 -13 -180 -55t-56 -143q0 -66 8 -181t8 -190q0 -383 -372 -383h-142v274h58q164 0 164 162
q0 44 -13 187q-10 147 -10 184q0 94 59 162t146 94z" />
    <glyph glyph-name="asciitilde" unicode="~" horiz-adv-x="1431" 
d="M936 473q-78 0 -170.5 33.5t-168.5 66.5t-114 33q-53 0 -95 -28t-105 -103l-185 146q65 119 167.5 180t228.5 61q114 0 256 -65q147 -66 200 -66q55 0 96.5 29.5t102.5 109.5l190 -151q-147 -246 -403 -246z" />
    <glyph glyph-name="exclamdown" unicode="&#xa1;" horiz-adv-x="569" 
d="M315 1077q70 0 118 -47.5t48 -120.5q0 -69 -48.5 -116.5t-117.5 -47.5q-72 0 -121 47.5t-49 116.5q0 73 48.5 120.5t121.5 47.5zM162 -489l16 1122h268l21 -1122h-305z" />
    <glyph glyph-name="cent" unicode="&#xa2;" horiz-adv-x="1269" 
d="M754 868v-618q147 38 209 158l233 -138q-62 -119 -178 -195t-264 -95v-158h-162v158q-229 27 -371 184q-141 159 -141 395q0 234 139 391q144 162 373 189v157h162v-155q151 -18 268.5 -97t177.5 -210l-231 -127q-79 131 -215 161zM367 559q0 -112 62.5 -196.5
t162.5 -110.5v612q-101 -30 -163 -113t-62 -192z" />
    <glyph glyph-name="sterling" unicode="&#xa3;" horiz-adv-x="1204" 
d="M578 590q-3 -174 -134 -311h672v-279h-1005v236q81 77 126.5 175t45.5 191q0 31 -2 41h-181v229h117q-39 127 -39 218q0 193 144 319q143 128 344 131q146 1 268.5 -64.5t189.5 -175.5l-196 -180q-38 62 -101.5 98.5t-130.5 36.5q-94 0 -154.5 -60.5t-60.5 -152.5
q0 -63 37 -170h465v-229h-408q3 -15 3 -53z" />
    <glyph glyph-name="currency" unicode="&#xa4;" horiz-adv-x="1318" 
d="M1137 752q0 -140 -76 -250l156 -152l-136 -135l-155 154q-121 -80 -273 -80q-149 0 -262 76l-153 -150l-136 135l150 148q-76 119 -76 254q0 149 88 274l-162 158l136 135l168 -166q115 68 247 68q143 0 256 -70l172 168l136 -135l-166 -164q86 -121 86 -268zM653 1010
q-105 0 -176 -74q-69 -72 -69 -180t69 -183q70 -73 176 -73t176 73q74 77 74 183t-72.5 180t-177.5 74z" />
    <glyph glyph-name="yen" unicode="&#xa5;" horiz-adv-x="1417" 
d="M1024 1513h338l-358 -686h198v-219h-315l-29 -57v-37h344v-219h-344v-295h-303v295h-344v219h344v41l-27 53h-317v219h203l-355 686h338l312 -657z" />
    <glyph glyph-name="brokenbar" unicode="&#xa6;" horiz-adv-x="598" 
d="M442 889h-286v846h286v-846zM156 479h286v-846h-286v846z" />
    <glyph glyph-name="section" unicode="&#xa7;" horiz-adv-x="1263" 
d="M1190 438q0 -177 -148 -280q62 -95 62 -205q0 -182 -139 -303q-138 -123 -363 -123q-330 0 -524 256l192 199q63 -79 151.5 -128t174.5 -49q83 0 133.5 42.5t50.5 105.5q0 91 -153 174q-17 9 -142 72q-84 38 -141 71q-82 54 -119 84q-127 103 -127 260q0 177 148 283
q-64 94 -64 207q0 193 140 315q142 121 360 121q276 0 459 -213l-207 -190q-108 123 -242 123q-86 0 -140 -44t-54 -108q0 -65 77 -129q16 -9 39.5 -24t44.5 -27l48 -25q13 -5 56.5 -25.5t49.5 -23.5q89 -42 143 -74t111 -80q123 -99 123 -262zM610 449l230 -117
q39 33 39 82q0 35 -31 71q-20 24 -46.5 43.5t-49 31.5t-80.5 42q-138 70 -236 123q-39 -39 -39 -86q0 -40 33 -76q7 -8 13.5 -14.5t15.5 -13t14.5 -11t17 -11.5t17 -10.5t21.5 -12t22.5 -12t28 -14t30.5 -15.5z" />
    <glyph glyph-name="dieresis" unicode="&#xa8;" horiz-adv-x="1042" 
d="M92 1448q0 69 50 118.5t122 49.5t122 -49.5t50 -118.5q0 -75 -49 -124.5t-123 -49.5t-123 49.5t-49 124.5zM711 1274q-74 0 -124 49.5t-50 124.5q0 72 50 120t124 48q71 0 120.5 -49t49.5 -119q0 -75 -49 -124.5t-121 -49.5z" />
    <glyph glyph-name="copyright" unicode="&#xa9;" horiz-adv-x="1738" 
d="M82 756q0 322 231 553t557 231t557 -231q232 -232 232 -553q0 -319 -232 -551q-230 -230 -557 -230t-557 230q-231 231 -231 551zM870 145q255 3 433 181q180 180 180 430q0 252 -180 432q-177 180 -433 180q-254 0 -434 -180t-180 -432q0 -250 180 -430
q181 -178 434 -181zM877 334q-183 0 -304 121q-120 120 -120 301q0 183 118 301q121 121 306 121q111 0 202.5 -50.5t145.5 -142.5l-146 -92q-86 102 -200 102q-100 0 -166 -67.5t-66 -171.5t66 -172t166 -68q128 0 200 100l144 -106q-56 -83 -146.5 -129.5t-199.5 -46.5z
" />
    <glyph glyph-name="ordfeminine" unicode="&#xaa;" horiz-adv-x="835" 
d="M399 1507q145 0 232.5 -83t87.5 -242v-381h-166v69q-76 -88 -219 -88q-116 0 -184 64.5t-68 163.5q0 103 80 158t219 55q6 0 88 -4q41 -2 78 -2q-12 129 -166 129q-116 0 -207 -52l-57 138q124 75 282 75zM365 934q78 0 127 44t55 118q-108 7 -152 4q-139 0 -139 -84
q0 -37 29.5 -59.5t79.5 -22.5z" />
    <glyph glyph-name="guillemotleft" unicode="&#xab;" horiz-adv-x="1200" 
d="M647 180h-301l-278 416l278 416h301l-287 -416zM1106 180h-303l-275 416l277 416h301l-285 -416z" />
    <glyph glyph-name="logicalnot" unicode="&#xac;" horiz-adv-x="1234" 
d="M838 514h-709v266h967v-493h-258v227z" />
    <glyph glyph-name="uni00AD" unicode="&#xad;" horiz-adv-x="1026" 
d="M903 539h-782v266h782v-266z" />
    <glyph glyph-name="registered" unicode="&#xae;" horiz-adv-x="1214" 
d="M238 1440q153 153 370 153q218 0 371 -153q154 -151 154 -369q0 -217 -154 -371q-154 -151 -371 -151q-216 0 -370 151q-154 154 -154 371q0 218 154 369zM330 793q114 -117 278 -117q163 0 277 117t114 278q0 162 -114 279q-113 116 -277 116q-165 0 -278 -116
t-113 -279q0 -162 113 -278zM815 1157q0 -100 -92 -147l102 -181h-133l-88 164h-65v-164h-121v494h225q74 0 123 -46.5t49 -119.5zM612 1223h-73v-133h73q78 0 78 69q0 64 -78 64z" />
    <glyph glyph-name="overscore" unicode="&#xaf;" horiz-adv-x="929" 
d="M752 1307l-670 -4v253h670v-249z" />
    <glyph glyph-name="degree" unicode="&#xb0;" horiz-adv-x="749" 
d="M375 1087q-129 0 -221 89q-91 91 -91 215q0 126 91 217q93 90 221 90q131 0 221 -90t90 -217q0 -125 -90 -215q-89 -89 -221 -89zM375 1253q57 0 97 40.5t40 97.5t-40 97t-97 40q-56 0 -95.5 -40t-39.5 -97t39.5 -97.5t95.5 -40.5z" />
    <glyph glyph-name="plusminus" unicode="&#xb1;" horiz-adv-x="1269" 
d="M1155 1010v-269h-385v-376h385v-261h-1040v261h389v376h-389v269h389v387h266v-387h385z" />
    <glyph glyph-name="uni00B2" unicode="&#xb2;" horiz-adv-x="708" 
d="M514 1380l-166 -172h285v-170h-557v154l264 266q94 94 94 154q0 37 -27.5 60.5t-68.5 23.5q-84 0 -197 -107l-92 140q130 139 301 139q122 0 200.5 -71t78.5 -183q0 -116 -115 -234z" />
    <glyph glyph-name="uni00B3" unicode="&#xb3;" horiz-adv-x="681" 
d="M20 1106l78 149q111 -57 195 -57q79 -5 110.5 41.5t-2 92.5t-108.5 40h-109v162h97q51 0 85.5 21.5t34.5 60.5q0 37 -30.5 57.5t-75.5 20.5q-74 0 -162 -58l-92 136q116 96 276 96q120 0 199 -64q80 -62 80 -151q0 -65 -40 -113.5t-107 -69.5v-4q79 -19 123 -71t44 -125
q4 -79 -50 -139.5t-139 -86.5t-195.5 -12t-211.5 74z" />
    <glyph glyph-name="acute" unicode="&#xb4;" horiz-adv-x="829" 
d="M338 1270h-256l127 360h321z" />
    <glyph glyph-name="paragraph" unicode="&#xb6;" horiz-adv-x="1558" 
d="M541 1503h921v-284h-157v-1635h-291v1635h-148v-1635h-293v989h-59q-198 0 -328 127q-129 129 -129 336q0 206 133 336q134 131 351 131z" />
    <glyph glyph-name="middot" unicode="&#xb7;" horiz-adv-x="542" 
d="M274 -33q-72 0 -121 48t-49 120q0 69 49 116.5t121 47.5q68 0 116 -47.5t48 -116.5q0 -71 -48 -119.5t-116 -48.5z" />
    <glyph glyph-name="cedilla" unicode="&#xb8;" horiz-adv-x="706" 
d="M469 37l-55 -135q95 -5 158 -60t63 -145q0 -103 -81.5 -174.5t-217.5 -71.5q-123 0 -254 64l63 166q85 -43 166 -43q52 0 79.5 21.5t27.5 55.5q0 70 -115 70h-110l-17 55l80 201z" />
    <glyph glyph-name="uni00B9" unicode="&#xb9;" horiz-adv-x="565" 
d="M20 1622l295 223h144v-807h-193v541l-145 -109z" />
    <glyph glyph-name="ordmasculine" unicode="&#xba;" horiz-adv-x="878" 
d="M438 780q-153 0 -262 103q-104 104 -104 258q0 157 104 258q104 104 262 104t262 -104q107 -101 107 -258q0 -154 -107 -258q-106 -103 -262 -103zM438 952q81 0 135 54.5t54 134.5q0 82 -54.5 136t-136.5 54q-80 0 -133 -54t-53 -136q0 -81 54 -135t134 -54z" />
    <glyph glyph-name="guillemotright" unicode="&#xbb;" horiz-adv-x="1200" 
d="M672 596l-275 -416h-303l285 416l-285 416h301zM1133 596l-279 -416h-301l287 416l-287 416h301z" />
    <glyph glyph-name="onequarter" unicode="&#xbc;" horiz-adv-x="1810" 
d="M500 709h-193v542l-145 -108l-101 151l295 224h144v-809zM217 0l1184 1513h231l-1181 -1513h-234zM1634 336h86v-154h-86v-182h-174v182h-364l-39 115l430 514h147v-475zM1460 569l-194 -233h194v233z" />
    <glyph glyph-name="onehalf" unicode="&#xbd;" horiz-adv-x="1771" 
d="M502 709h-193v542l-145 -108l-101 151l295 224h144v-809zM172 0l1184 1513h231l-1179 -1513h-236zM1567 342l-166 -172h285v-170h-558v154l265 266q94 94 94 153q0 37 -27.5 60.5t-68.5 23.5q-85 0 -197 -106l-92 139q130 139 301 139q122 0 200 -71t78 -183
q0 -116 -114 -233z" />
    <glyph glyph-name="threequarters" unicode="&#xbe;" horiz-adv-x="1738" 
d="M313 870q79 -5 110.5 41.5t-2 92.5t-108.5 40h-108v162h96q51 0 86 21.5t35 60.5q0 37 -31 57.5t-76 20.5q-75 0 -161 -57l-93 135q116 96 277 96q121 0 199 -63q79 -61 79 -152q0 -65 -40 -113t-107 -69v-4q79 -19 123.5 -71.5t44.5 -125.5q4 -79 -50 -139.5t-139 -86.5
t-195.5 -12t-211.5 74l78 150q113 -58 194 -58zM229 0l1184 1513h232l-1180 -1513h-236zM1391 811h147v-475h86v-154h-86v-182h-174v182h-365l-38 115zM1364 569l-195 -233h195v233z" />
    <glyph glyph-name="questiondown" unicode="&#xbf;" horiz-adv-x="1112" 
d="M780 913q0 -69 -49 -117t-121 -48q-69 0 -117.5 48t-48.5 117q0 71 48 118.5t118 47.5t120 -47.5t50 -118.5zM475 655h279v-135q0 -83 -37 -157.5t-96 -129.5q-16 -14 -53.5 -46t-57.5 -49.5t-49 -48t-44 -53.5t-26.5 -54t-11.5 -62q0 -81 58 -132.5t147 -51.5
q152 0 305 178l178 -201q-203 -250 -506 -250q-215 0 -352 125t-137 314q0 92 39.5 171.5t103.5 137.5q21 20 69.5 61t73.5 65.5t56.5 60.5t46 70t14.5 69v118z" />
    <glyph glyph-name="Agrave" unicode="&#xc0;" 
d="M721 2003l133 -375h-272l-199 375h338zM1409 0h-319l-113 328h-528l-117 -328h-318l578 1513h248zM891 598l-176 504l-180 -504h356z" />
    <glyph glyph-name="Aacute" unicode="&#xc1;" 
d="M727 2001h334l-201 -375h-266zM1409 0h-319l-113 328h-528l-117 -328h-318l578 1513h248zM891 598l-176 504l-180 -504h356z" />
    <glyph glyph-name="Acircumflex" unicode="&#xc2;" 
d="M850 1626l-137 182l-140 -182h-284l315 375h223l318 -375h-295zM1409 0h-319l-113 328h-528l-117 -328h-318l578 1513h248zM891 598l-176 504l-180 -504h356z" />
    <glyph glyph-name="Atilde" unicode="&#xc3;" 
d="M578 1724q-82 0 -134 -106l-188 92q102 242 301 242q74 0 160 -45t121 -45q73 0 125 98l186 -88q-43 -115 -117 -178.5t-166 -63.5q-65 0 -157 47t-131 47zM1409 0h-319l-113 328h-528l-117 -328h-318l578 1513h248zM891 598l-176 504l-180 -504h356z" />
    <glyph glyph-name="Adieresis" unicode="&#xc4;" 
d="M317 1802q0 69 49 117.5t121 48.5t121 -48.5t49 -117.5q0 -73 -49 -122.5t-121 -49.5t-121 49.5t-49 122.5zM926 1630q-73 0 -121.5 49t-48.5 123q0 69 49 117.5t121 48.5q69 0 118.5 -48.5t49.5 -117.5q0 -73 -49 -122.5t-119 -49.5zM1409 0h-319l-113 328h-528
l-117 -328h-318l578 1513h248zM891 598l-176 504l-180 -504h356z" />
    <glyph glyph-name="Aring" unicode="&#xc5;" 
d="M436 1866q0 115 82 194q83 80 201 80q119 0 199 -80q81 -78 81 -194q0 -118 -81 -193q-81 -78 -199 -78q-117 0 -201 78q-82 79 -82 193zM719 1978q-47 0 -80 -32t-33 -76q0 -47 33 -80t80 -33q44 0 76 33t32 80q0 44 -32 76t-76 32zM1409 0h-319l-113 328h-528
l-117 -328h-318l578 1513h248zM891 598l-176 504l-180 -504h356z" />
    <glyph glyph-name="AE" unicode="&#xc6;" horiz-adv-x="2150" 
d="M2040 1513v-282h-731v-326h673v-282h-673v-340h729v-283h-1037v356h-499l-205 -356h-334l916 1513h1161zM1001 1225l-344 -598h344v598z" />
    <glyph glyph-name="Ccedilla" unicode="&#xc7;" horiz-adv-x="1566" 
d="M1319 489l209 -190q-94 -130 -245 -214.5t-331 -102.5l-32 -80q95 -5 158 -60t63 -145q0 -103 -81.5 -174.5t-217.5 -71.5q-123 0 -254 64l63 166q85 -43 166 -43q52 0 79.5 21.5t27.5 55.5q0 70 -115 70h-111l-16 55l57 146q-288 41 -473 247q-184 208 -184 519
q0 345 227 565q229 223 555 223q202 0 376.5 -85t275.5 -228l-203 -199q-180 219 -432 219q-206 0 -344 -141q-140 -140 -140 -354q0 -208 138 -346t344 -138q264 0 440 221z" />
    <glyph glyph-name="Egrave" unicode="&#xc8;" horiz-adv-x="1304" 
d="M707 2003l133 -375h-273l-198 375h338zM1194 0h-1026v1513h1026v-282h-721v-326h668v-282h-668v-340h721v-283z" />
    <glyph glyph-name="Eacute" unicode="&#xc9;" horiz-adv-x="1304" 
d="M799 1626h-267l134 375h333zM1194 0h-1026v1513h1026v-282h-721v-326h668v-282h-668v-340h721v-283z" />
    <glyph glyph-name="Ecircumflex" unicode="&#xca;" horiz-adv-x="1304" 
d="M539 1626h-285l315 375h224l317 -375h-295l-137 182zM1194 0h-1026v1513h1026v-282h-721v-326h668v-282h-668v-340h721v-283z" />
    <glyph glyph-name="Edieresis" unicode="&#xcb;" horiz-adv-x="1304" 
d="M293 1802q0 69 49 117.5t121 48.5t121 -48.5t49 -117.5q0 -73 -49 -122.5t-121 -49.5t-121 49.5t-49 122.5zM901 1630q-73 0 -121.5 49t-48.5 123q0 69 49 117.5t121 48.5q69 0 118.5 -48.5t49.5 -117.5q0 -73 -49 -122.5t-119 -49.5zM1194 0h-1026v1513h1026v-282h-721
v-326h668v-282h-668v-340h721v-283z" />
    <glyph glyph-name="Igrave" unicode="&#xcc;" horiz-adv-x="641" 
d="M334 2003l133 -375h-272l-199 375h338zM172 0v1513h305v-1513h-305z" />
    <glyph glyph-name="Iacute" unicode="&#xcd;" horiz-adv-x="636" 
d="M444 1628h-266l133 375h334zM168 0v1513h305v-1513h-305z" />
    <glyph glyph-name="Icircumflex" unicode="&#xce;" horiz-adv-x="641" 
d="M182 1630h-284l315 375h223l318 -375h-295l-137 182zM172 0v1513h305v-1513h-305z" />
    <glyph glyph-name="Idieresis" unicode="&#xcf;" horiz-adv-x="641" 
d="M-76 1806q0 69 51 119.5t123 50.5t123 -50.5t51 -119.5q0 -75 -50 -125.5t-124 -50.5t-124 50.5t-50 125.5zM549 1630q-75 0 -125.5 50.5t-50.5 125.5q0 72 50.5 121t125.5 49q71 0 121.5 -50t50.5 -120q0 -75 -50 -125.5t-122 -50.5zM172 0v1513h305v-1513h-305z" />
    <glyph glyph-name="Eth" unicode="&#xd0;" horiz-adv-x="1609" 
d="M201 1513h592q342 0 534 -204q195 -204 195 -555q0 -349 -199 -551q-197 -203 -543 -203h-579v635h-168v246h168v632zM504 291h291q194 0 303 133q108 132 108 336q0 198 -108 330q-109 133 -303 133h-291v-342h391v-246h-391v-344z" />
    <glyph glyph-name="Ntilde" unicode="&#xd1;" horiz-adv-x="1626" 
d="M557 1624l-188 92q102 242 301 242q73 0 159 -45t121 -45q73 0 125 98l187 -88q-43 -115 -117 -178.5t-166 -63.5q-66 0 -158 47q-94 48 -131 48q-81 0 -133 -107zM1159 578v935h299v-1513h-207l-784 928v-928h-299v1513h192z" />
    <glyph glyph-name="Ograve" unicode="&#xd2;" horiz-adv-x="1736" 
d="M895 2003l133 -375h-272l-199 375h338zM866 -25q-337 0 -561 224q-225 225 -225 553q0 329 227 559q229 229 561 229q333 0 559 -229q230 -230 230 -555q0 -326 -230 -553q-228 -228 -561 -228zM1341 756q0 209 -137 346q-139 139 -336 139t-336 -139
q-137 -137 -137 -346q0 -206 135 -344q138 -138 338 -138t338 138t135 344z" />
    <glyph glyph-name="Oacute" unicode="&#xd3;" horiz-adv-x="1736" 
d="M999 1626h-266l133 375h334zM866 -25q-337 0 -561 224q-225 225 -225 553q0 329 227 559q229 229 561 229q333 0 559 -229q230 -230 230 -555q0 -326 -230 -553q-228 -228 -561 -228zM1341 756q0 209 -137 346q-139 139 -336 139t-336 -139q-137 -137 -137 -346
q0 -206 135 -344q138 -138 338 -138t338 138t135 344z" />
    <glyph glyph-name="Ocircumflex" unicode="&#xd4;" horiz-adv-x="1736" 
d="M727 1626h-285l316 375h223l317 -375h-294l-138 182zM866 -25q-337 0 -561 224q-225 225 -225 553q0 329 227 559q229 229 561 229q333 0 559 -229q230 -230 230 -555q0 -326 -230 -553q-228 -228 -561 -228zM1341 756q0 209 -137 346q-139 139 -336 139t-336 -139
q-137 -137 -137 -346q0 -206 135 -344q138 -138 338 -138t338 138t135 344z" />
    <glyph glyph-name="Otilde" unicode="&#xd5;" horiz-adv-x="1736" 
d="M616 1618l-188 92q102 242 301 242q74 0 160 -45t121 -45q73 0 125 98l186 -88q-43 -115 -117 -178.5t-166 -63.5q-65 0 -157 47t-131 47q-82 0 -134 -106zM866 -25q-337 0 -561 224q-225 225 -225 553q0 329 227 559q229 229 561 229q333 0 559 -229q230 -230 230 -555
q0 -326 -230 -553q-228 -228 -561 -228zM1341 756q0 209 -137 346q-139 139 -336 139t-336 -139q-137 -137 -137 -346q0 -206 135 -344q138 -138 338 -138t338 138t135 344z" />
    <glyph glyph-name="Odieresis" unicode="&#xd6;" horiz-adv-x="1736" 
d="M485 1802q0 69 49 117.5t121 48.5t121 -48.5t49 -117.5q0 -73 -49 -122.5t-121 -49.5t-121 49.5t-49 122.5zM1094 1630q-73 0 -121.5 49t-48.5 123q0 69 49 117.5t121 48.5q69 0 118.5 -48.5t49.5 -117.5q0 -73 -49 -122.5t-119 -49.5zM866 -25q-337 0 -561 224
q-225 225 -225 553q0 329 227 559q229 229 561 229q333 0 559 -229q230 -230 230 -555q0 -326 -230 -553q-228 -228 -561 -228zM1341 756q0 209 -137 346q-139 139 -336 139t-336 -139q-137 -137 -137 -346q0 -206 135 -344q138 -138 338 -138t338 138t135 344z" />
    <glyph glyph-name="multiply" unicode="&#xd7;" horiz-adv-x="1138" 
d="M868 1174l181 -175l-306 -307l304 -301l-173 -182l-307 307l-305 -307l-174 182l303 303l-301 301l172 179l303 -304z" />
    <glyph glyph-name="Oslash" unicode="&#xd8;" horiz-adv-x="1736" 
d="M1548 1509l-131 -186q240 -234 240 -567q0 -326 -230 -553q-228 -228 -561 -228q-181 0 -346 74l-121 -172l-176 121l119 168q-125 106 -193.5 259.5t-68.5 326.5q0 329 227 559q229 229 561 229q208 0 377 -94l129 184zM395 756q0 -201 127 -334l547 776q-98 43 -201 43
q-197 0 -336 -139q-137 -137 -137 -346zM868 274q200 0 338 138t135 344q0 180 -104 311l-537 -764q85 -29 168 -29z" />
    <glyph glyph-name="Ugrave" unicode="&#xd9;" horiz-adv-x="1484" 
d="M764 2003l133 -375h-272l-199 375h338zM152 553v960h305v-940q0 -150 75 -227.5t211 -77.5q131 0 207 79.5t76 225.5v940h307v-960q0 -286 -168 -432q-168 -148 -422 -148q-253 0 -424 148q-167 145 -167 432z" />
    <glyph glyph-name="Uacute" unicode="&#xda;" horiz-adv-x="1484" 
d="M864 1626h-266l133 375h334zM152 553v960h305v-940q0 -150 75 -227.5t211 -77.5q131 0 207 79.5t76 225.5v940h307v-960q0 -286 -168 -432q-168 -148 -422 -148q-253 0 -424 148q-167 145 -167 432z" />
    <glyph glyph-name="Ucircumflex" unicode="&#xdb;" horiz-adv-x="1484" 
d="M600 1626h-285l316 375h223l317 -375h-294l-138 182zM152 553v960h305v-940q0 -150 75 -227.5t211 -77.5q131 0 207 79.5t76 225.5v940h307v-960q0 -286 -168 -432q-168 -148 -422 -148q-253 0 -424 148q-167 145 -167 432z" />
    <glyph glyph-name="Udieresis" unicode="&#xdc;" horiz-adv-x="1484" 
d="M352 1802q0 69 49 117.5t121 48.5t121 -48.5t49 -117.5q0 -73 -49 -122.5t-121 -49.5t-121 49.5t-49 122.5zM961 1630q-72 0 -121 49.5t-49 122.5q0 69 49 117.5t121 48.5q69 0 118 -48.5t49 -117.5q0 -73 -48.5 -122.5t-118.5 -49.5zM152 553v960h305v-940
q0 -150 75 -227.5t211 -77.5q131 0 207 79.5t76 225.5v940h307v-960q0 -286 -168 -432q-168 -148 -422 -148q-253 0 -424 148q-167 145 -167 432z" />
    <glyph glyph-name="Yacute" unicode="&#xdd;" horiz-adv-x="1390" 
d="M815 1626h-266l133 375h334zM1020 1513h350l-524 -989v-524h-303v524l-518 989h350l319 -663z" />
    <glyph glyph-name="Thorn" unicode="&#xde;" horiz-adv-x="1335" 
d="M471 1268h266q257 0 391 -146t134 -348q0 -205 -140 -348q-138 -141 -409 -141h-242v-285h-303v1513h303v-245zM471 563h250q110 0 169.5 61t59.5 154q0 90 -56.5 148.5t-156.5 58.5h-266v-422z" />
    <glyph glyph-name="germandbls" unicode="&#xdf;" horiz-adv-x="1366" 
d="M1024 811q122 -38 196 -146t74 -245q0 -198 -147 -330q-144 -129 -371 -129q-137 0 -258 47l60 246q73 -31 167 -31q114 0 185 62.5t71 156.5q0 105 -93 164.5t-249 59.5v229q117 0 191 64.5t74 162.5q0 88 -62.5 145.5t-161.5 57.5q-130 0 -204 -99.5t-74 -277.5v-1310
h-291v1351q0 160 52 283.5t141 193.5q173 133 389 133q218 0 362 -126t144 -318q0 -109 -50.5 -199t-144.5 -145z" />
    <glyph glyph-name="agrave" unicode="&#xe0;" horiz-adv-x="1388" 
d="M696 1645l127 -361h-256l-192 361h321zM981 983v133h274v-1116h-274v129q-144 -156 -356 -156q-243 0 -398 168t-155 422q0 251 157 416q156 166 396 166q210 0 356 -162zM985 559q0 131 -90 227q-89 95 -223 95q-137 0 -226 -95q-86 -95 -86 -227q0 -134 89 -229
q88 -94 223 -94t223 94q90 96 90 229z" />
    <glyph glyph-name="aacute" unicode="&#xe1;" horiz-adv-x="1388" 
d="M686 1642h322l-193 -360h-256zM981 983v133h274v-1116h-274v129q-144 -156 -356 -156q-243 0 -398 168t-155 422q0 251 157 416q156 166 396 166q210 0 356 -162zM985 559q0 131 -90 227q-89 95 -223 95q-137 0 -226 -95q-86 -95 -86 -227q0 -134 89 -229q88 -94 223 -94
t223 94q90 96 90 229z" />
    <glyph glyph-name="acircumflex" unicode="&#xe2;" horiz-adv-x="1388" 
d="M821 1282l-133 176l-133 -176h-274l303 360h215l305 -360h-283zM981 983v133h274v-1116h-274v129q-144 -156 -356 -156q-243 0 -398 168t-155 422q0 251 157 416q156 166 396 166q210 0 356 -162zM985 559q0 131 -90 227q-89 95 -223 95q-137 0 -226 -95
q-86 -95 -86 -227q0 -134 89 -229q88 -94 223 -94t223 94q90 96 90 229z" />
    <glyph glyph-name="atilde" unicode="&#xe3;" horiz-adv-x="1388" 
d="M575 1378q-79 0 -131 -104l-184 90q101 235 295 235q71 0 154 -45q87 -43 120 -43q67 0 121 97l183 -86q-41 -112 -113.5 -174t-163.5 -62q-68 0 -154 45q-89 47 -127 47zM981 983v133h274v-1116h-274v129q-144 -156 -356 -156q-243 0 -398 168t-155 422q0 251 157 416
q156 166 396 166q210 0 356 -162zM985 559q0 131 -90 227q-89 95 -223 95q-137 0 -226 -95q-86 -95 -86 -227q0 -134 89 -229q88 -94 223 -94t223 94q90 96 90 229z" />
    <glyph glyph-name="adieresis" unicode="&#xe4;" horiz-adv-x="1388" 
d="M305 1438q0 69 50 118.5t122 49.5t122 -49.5t50 -118.5q0 -75 -49 -124.5t-123 -49.5t-123 49.5t-49 124.5zM924 1264q-74 0 -124 49.5t-50 124.5q0 72 50 120t124 48q72 0 121 -49t49 -119q0 -75 -49 -124.5t-121 -49.5zM981 983v133h274v-1116h-274v129
q-144 -156 -356 -156q-243 0 -398 168t-155 422q0 251 157 416q156 166 396 166q210 0 356 -162zM985 559q0 131 -90 227q-89 95 -223 95q-137 0 -226 -95q-86 -95 -86 -227q0 -134 89 -229q88 -94 223 -94t223 94q90 96 90 229z" />
    <glyph glyph-name="aring" unicode="&#xe5;" horiz-adv-x="1388" 
d="M694 1243q-115 0 -194 76q-78 78 -78 184q0 109 78 187q80 77 194 77t191 -77q80 -77 80 -187q0 -107 -80 -184q-76 -76 -191 -76zM694 1612q-45 0 -76.5 -30.5t-31.5 -74.5t32 -76t76 -32q43 0 74 32t31 76t-31 74.5t-74 30.5zM981 983v133h274v-1116h-274v129
q-144 -156 -356 -156q-243 0 -398 168t-155 422q0 251 157 416q156 166 396 166q210 0 356 -162zM985 559q0 131 -90 227q-89 95 -223 95q-137 0 -226 -95q-86 -95 -86 -227q0 -134 89 -229q88 -94 223 -94t223 94q90 96 90 229z" />
    <glyph glyph-name="ae" unicode="&#xe6;" horiz-adv-x="2009" 
d="M1939 602q0 -66 -8 -129l-821 2q24 -119 105.5 -189.5t207.5 -70.5q185 0 342 115l123 -199q-203 -156 -481 -156q-312 0 -469 222q-152 -224 -455 -224q-198 0 -313 103q-113 101 -113 260q0 96 45 167t125 107q147 68 342 68h254q-46 227 -286 227q-188 0 -334 -98
l-99 205q90 59 213 96q124 37 242 37q278 0 410 -193q163 193 436 193q231 0 381 -141q153 -141 153 -402zM1114 678h565q-17 108 -90.5 168.5t-183.5 60.5q-109 0 -185.5 -60t-105.5 -169zM514 215q113 0 200 70t111 190h-250q-245 0 -245 -129q0 -60 51 -95.5t133 -35.5z
" />
    <glyph glyph-name="ccedilla" unicode="&#xe7;" horiz-adv-x="1234" 
d="M670 240q88 0 167.5 47t116.5 121l234 -138q-63 -119 -180 -195t-265 -95l-32 -78q95 -5 158 -60t63 -145q0 -103 -81.5 -174.5t-217.5 -71.5q-123 0 -254 64l63 166q85 -43 166 -43q52 0 79.5 21.5t27.5 55.5q0 70 -115 70h-111l-16 55l59 148q-209 41 -335 194
q-125 155 -125 377q0 258 168 420q169 166 432 166q173 0 312.5 -82t207.5 -229l-231 -127q-102 170 -285 170q-137 0 -227 -93q-91 -91 -91 -225q0 -138 88 -229q90 -90 224 -90z" />
    <glyph glyph-name="egrave" unicode="&#xe8;" horiz-adv-x="1282" 
d="M670 1640l127 -360h-256l-193 360h322zM1214 584q0 -52 -10 -127h-837q62 -238 325 -238q90 0 189 31.5t172 81.5l114 -203q-213 -154 -487 -154q-295 0 -451 170q-155 168 -155 414q0 255 162 420q163 166 419 166q244 0 402 -152q157 -151 157 -409zM655 905
q-109 0 -185.5 -62t-102.5 -171h567q-20 109 -94.5 171t-184.5 62z" />
    <glyph glyph-name="eacute" unicode="&#xe9;" horiz-adv-x="1282" 
d="M641 1642h322l-193 -360h-256zM1214 584q0 -52 -10 -127h-837q62 -238 325 -238q90 0 189 31.5t172 81.5l114 -203q-213 -154 -487 -154q-295 0 -451 170q-155 168 -155 414q0 255 162 420q163 166 419 166q244 0 402 -152q157 -151 157 -409zM655 905q-109 0 -185.5 -62
t-102.5 -171h567q-20 109 -94.5 171t-184.5 62z" />
    <glyph glyph-name="ecircumflex" unicode="&#xea;" horiz-adv-x="1282" 
d="M788 1288l-133 176l-133 -176h-274l303 361h215l305 -361h-283zM1214 584q0 -52 -10 -127h-837q62 -238 325 -238q90 0 189 31.5t172 81.5l114 -203q-213 -154 -487 -154q-295 0 -451 170q-155 168 -155 414q0 255 162 420q163 166 419 166q244 0 402 -152
q157 -151 157 -409zM655 905q-109 0 -185.5 -62t-102.5 -171h567q-20 109 -94.5 171t-184.5 62z" />
    <glyph glyph-name="edieresis" unicode="&#xeb;" horiz-adv-x="1282" 
d="M283 1425q0 69 50 118.5t122 49.5t122 -49.5t50 -118.5q0 -75 -49 -124.5t-123 -49.5t-123 49.5t-49 124.5zM901 1251q-74 0 -124 49.5t-50 124.5q0 72 50 120t124 48q71 0 120.5 -49.5t49.5 -118.5q0 -75 -49 -124.5t-121 -49.5zM1214 584q0 -52 -10 -127h-837
q62 -238 325 -238q90 0 189 31.5t172 81.5l114 -203q-213 -154 -487 -154q-295 0 -451 170q-155 168 -155 414q0 255 162 420q163 166 419 166q244 0 402 -152q157 -151 157 -409zM655 905q-109 0 -185.5 -62t-102.5 -171h567q-20 109 -94.5 171t-184.5 62z" />
    <glyph glyph-name="igrave" unicode="&#xec;" horiz-adv-x="555" 
d="M289 1640l127 -360h-256l-193 360h322zM424 1116v-1116h-289v1116h289z" />
    <glyph glyph-name="iacute" unicode="&#xed;" horiz-adv-x="546" 
d="M399 1282h-256l127 360h322zM420 1116v-1116h-289v1116h289z" />
    <glyph glyph-name="icircumflex" unicode="&#xee;" horiz-adv-x="550" 
d="M143 1282h-274l303 360h215l305 -360h-282l-134 176zM424 1116v-1116h-289v1116h289z" />
    <glyph glyph-name="idieresis" unicode="&#xef;" horiz-adv-x="550" 
d="M-115 1434q0 69 50 118.5t122 49.5t122 -49.5t50 -118.5q0 -75 -49 -124.5t-123 -49.5t-123 49.5t-49 124.5zM504 1260q-74 0 -124 49.5t-50 124.5q0 72 50 120t124 48q72 0 121 -49t49 -119q0 -75 -49 -124.5t-121 -49.5zM424 1116v-1116h-289v1116h289z" />
    <glyph glyph-name="eth" unicode="&#xf0;" horiz-adv-x="1341" 
d="M1157 1534l-162 -115q265 -345 265 -710q0 -316 -181 -527q-179 -209 -454 -209q-244 0 -400 156q-153 156 -153 385q0 228 155 377t365 149q244 0 373 -206q-46 226 -199 421l-172 -122l-109 137l164 116q-105 105 -200 177l202 194q125 -96 230 -207l172 123zM928 524
q0 120 -84 201q-82 82 -199 82q-119 0 -203 -84q-82 -82 -82 -205q0 -122 80 -205q79 -82 201 -82q119 0 203 84t84 209z" />
    <glyph glyph-name="ntilde" unicode="&#xf1;" horiz-adv-x="1316" 
d="M418 1272l-185 90q101 235 295 235q71 0 154 -45q87 -43 121 -43q67 0 121 97l182 -86q-41 -112 -113.5 -174t-163.5 -62q-67 0 -153 45q-89 47 -127 47q-79 0 -131 -104zM420 0h-289v1116h283v-155q45 83 139.5 134.5t210.5 51.5q182 0 309 -121t127 -344v-682h-289v604
q0 131 -63.5 204t-171.5 73q-115 0 -185.5 -79t-70.5 -204v-598z" />
    <glyph glyph-name="ograve" unicode="&#xf2;" horiz-adv-x="1339" 
d="M682 1640l127 -360h-256l-193 360h322zM72 559q0 248 168 416q169 172 430 172t430 -172q168 -168 168 -416q0 -250 -168 -418q-170 -170 -430 -170t-430 170q-168 168 -168 418zM449 332q89 -92 221 -92q130 0 219 92q90 96 90 227q0 132 -90 225t-219 93
q-131 0 -221 -93q-89 -92 -89 -225q0 -132 89 -227z" />
    <glyph glyph-name="oacute" unicode="&#xf3;" horiz-adv-x="1339" 
d="M780 1282h-256l127 360h322zM72 559q0 248 168 416q169 172 430 172t430 -172q168 -168 168 -416q0 -250 -168 -418q-170 -170 -430 -170t-430 170q-168 168 -168 418zM449 332q89 -92 221 -92q130 0 219 92q90 96 90 227q0 132 -90 225t-219 93q-131 0 -221 -93
q-89 -92 -89 -225q0 -132 89 -227z" />
    <glyph glyph-name="ocircumflex" unicode="&#xf4;" horiz-adv-x="1339" 
d="M532 1286h-274l303 361h215l305 -361h-282l-133 176zM72 559q0 248 168 416q169 172 430 172t430 -172q168 -168 168 -416q0 -250 -168 -418q-170 -170 -430 -170t-430 170q-168 168 -168 418zM449 332q89 -92 221 -92q130 0 219 92q90 96 90 227q0 132 -90 225t-219 93
q-131 0 -221 -93q-89 -92 -89 -225q0 -132 89 -227z" />
    <glyph glyph-name="otilde" unicode="&#xf5;" horiz-adv-x="1339" 
d="M422 1274l-184 90q101 235 294 235q71 0 154 -45q87 -43 121 -43q67 0 121 97l182 -86q-41 -113 -113 -174.5t-163 -61.5q-68 0 -154 45q-89 47 -127 47q-79 0 -131 -104zM72 559q0 248 168 416q169 172 430 172t430 -172q168 -168 168 -416q0 -250 -168 -418
q-170 -170 -430 -170t-430 170q-168 168 -168 418zM449 332q89 -92 221 -92q130 0 219 92q90 96 90 227q0 132 -90 225t-219 93q-131 0 -221 -93q-89 -92 -89 -225q0 -132 89 -227z" />
    <glyph glyph-name="odieresis" unicode="&#xf6;" horiz-adv-x="1339" 
d="M276 1436q0 69 50.5 118.5t122.5 49.5t122 -49.5t50 -118.5q0 -75 -49 -124.5t-123 -49.5t-123.5 49.5t-49.5 124.5zM895 1262q-74 0 -124 49.5t-50 124.5q0 72 50 120t124 48q71 0 120.5 -49t49.5 -119q0 -75 -49 -124.5t-121 -49.5zM72 559q0 248 168 416
q169 172 430 172t430 -172q168 -168 168 -416q0 -250 -168 -418q-170 -170 -430 -170t-430 170q-168 168 -168 418zM449 332q89 -92 221 -92q130 0 219 92q90 96 90 227q0 132 -90 225t-219 93q-131 0 -221 -93q-89 -92 -89 -225q0 -132 89 -227z" />
    <glyph glyph-name="divide" unicode="&#xf7;" horiz-adv-x="1132" 
d="M567 926q-68 0 -114.5 46t-46.5 113q0 66 46.5 111t114.5 45q66 0 111 -45t45 -111q0 -67 -45 -113t-111 -46zM1044 580h-958v243h958v-243zM567 166q-68 0 -114.5 46.5t-46.5 113.5q0 66 46.5 110.5t114.5 44.5q66 0 111 -44.5t45 -110.5q0 -68 -45 -114t-111 -46z" />
    <glyph glyph-name="oslash" unicode="&#xf8;" horiz-adv-x="1339" 
d="M1176 1151l-103 -150q195 -174 195 -442q0 -250 -168 -418q-170 -170 -430 -170q-146 0 -271 58l-112 -162l-131 90l110 160q-194 170 -194 442q0 248 168 416q169 172 430 172q149 0 266 -57l102 149zM360 559q0 -117 70 -205l346 504q-52 19 -106 19q-131 0 -221 -93
q-89 -92 -89 -225zM670 240q130 0 219 92q90 96 90 227q0 115 -72 205l-348 -504q56 -20 111 -20z" />
    <glyph glyph-name="ugrave" unicode="&#xf9;" horiz-adv-x="1257" 
d="M645 1642l127 -360h-256l-192 360h321zM629 -27q-239 0 -375.5 132t-136.5 366v645h289v-645q0 -107 59.5 -170t163.5 -63t163.5 63t59.5 170v645h289v-645q0 -234 -136 -366t-376 -132z" />
    <glyph glyph-name="uacute" unicode="&#xfa;" horiz-adv-x="1257" 
d="M748 1282h-256l126 360h322zM629 -27q-239 0 -375.5 132t-136.5 366v645h289v-645q0 -107 59.5 -170t163.5 -63t163.5 63t59.5 170v645h289v-645q0 -234 -136 -366t-376 -132z" />
    <glyph glyph-name="ucircumflex" unicode="&#xfb;" horiz-adv-x="1257" 
d="M494 1286h-275l303 361h215l305 -361h-282l-133 176zM629 -27q-239 0 -375.5 132t-136.5 366v645h289v-645q0 -107 59.5 -170t163.5 -63t163.5 63t59.5 170v645h289v-645q0 -234 -136 -366t-376 -132z" />
    <glyph glyph-name="udieresis" unicode="&#xfc;" horiz-adv-x="1257" 
d="M236 1434q0 69 50 118.5t122 49.5t122 -49.5t50 -118.5q0 -75 -49 -124.5t-123 -49.5t-123 49.5t-49 124.5zM854 1260q-74 0 -124 49.5t-50 124.5q0 72 50 120t124 48q72 0 121 -49t49 -119q0 -75 -49 -124.5t-121 -49.5zM629 -27q-239 0 -375.5 132t-136.5 366v645h289
v-645q0 -107 59.5 -170t163.5 -63t163.5 63t59.5 170v645h289v-645q0 -234 -136 -366t-376 -132z" />
    <glyph glyph-name="yacute" unicode="&#xfd;" horiz-adv-x="1226" 
d="M604 1640h322l-193 -360h-256zM639 389l254 727h315l-448 -1171q-83 -216 -196 -318t-277 -102q-127 0 -215 55l49 242q75 -37 143 -37q134 0 217 176l23 51l-488 1104h334z" />
    <glyph glyph-name="thorn" unicode="&#xfe;" horiz-adv-x="1394" 
d="M764 1145q240 0 399 -170q162 -168 162 -416q0 -245 -162 -416q-159 -170 -397 -170q-201 0 -346 160v-592h-289v2015h285v-575q144 164 348 164zM719 238q135 0 221 92q88 91 88 227t-88 227q-87 93 -221 93q-136 0 -223 -93q-86 -92 -86 -227t86 -227t223 -92z" />
    <glyph glyph-name="ydieresis" unicode="&#xff;" horiz-adv-x="1226" 
d="M233 1436q0 69 50.5 118.5t122.5 49.5t122 -49.5t50 -118.5q0 -75 -49 -124.5t-123 -49.5t-123.5 49.5t-49.5 124.5zM852 1262q-74 0 -124 49.5t-50 124.5q0 72 50 120t124 48q72 0 121 -49t49 -119q0 -75 -49 -124.5t-121 -49.5zM639 389l254 727h315l-448 -1171
q-83 -216 -196 -318t-277 -102q-127 0 -215 55l49 242q75 -37 143 -37q134 0 217 176l23 51l-488 1104h334z" />
    <glyph glyph-name="Amacron" unicode="&#x100;" 
d="M340 1909h754v-250l-754 -4v254zM1409 0h-319l-113 328h-528l-117 -328h-318l578 1513h248zM891 598l-176 504l-180 -504h356z" />
    <glyph glyph-name="amacron" unicode="&#x101;" horiz-adv-x="1388" 
d="M358 1554h670v-249l-670 -5v254zM981 983v133h274v-1116h-274v129q-144 -156 -356 -156q-243 0 -398 168t-155 422q0 251 157 416q156 166 396 166q210 0 356 -162zM985 559q0 131 -90 227q-89 95 -223 95q-137 0 -226 -95q-86 -95 -86 -227q0 -134 89 -229
q88 -94 223 -94t223 94q90 96 90 229z" />
    <glyph glyph-name="Abreve" unicode="&#x102;" 
d="M315 1993h238q5 -84 47.5 -133.5t116.5 -49.5q72 0 114.5 50t47.5 133h241q-10 -180 -118 -282.5t-285 -102.5t-283.5 102.5t-118.5 282.5zM1409 0h-319l-113 328h-528l-117 -328h-318l578 1513h248zM891 598l-176 504l-180 -504h356z" />
    <glyph glyph-name="abreve" unicode="&#x103;" horiz-adv-x="1388" 
d="M690 1272q-167 0 -271 99t-114 271h227q5 -80 45.5 -128t112.5 -48t112.5 48t45.5 128h231q-11 -172 -115 -271t-274 -99zM981 983v133h274v-1116h-274v129q-144 -156 -356 -156q-243 0 -398 168t-155 422q0 251 157 416q156 166 396 166q210 0 356 -162zM985 559
q0 131 -90 227q-89 95 -223 95q-137 0 -226 -95q-86 -95 -86 -227q0 -134 89 -229q88 -94 223 -94t223 94q90 96 90 229z" />
    <glyph glyph-name="Aogonek" unicode="&#x104;" horiz-adv-x="1419" 
d="M1374 -295l64 -184q-103 -62 -217 -62q-116 0 -184 65.5t-68 170.5q0 176 200 305h-79l-113 328h-528l-117 -328h-318l578 1513h248l569 -1513h-2q-85 -38 -143 -105t-58 -128t48 -78t120 16zM891 598l-176 504l-180 -504h356z" />
    <glyph glyph-name="aogonek" unicode="&#x105;" horiz-adv-x="1376" 
d="M1221 -295l63 -184q-103 -62 -217 -62q-116 0 -184 65.5t-68 170.5q0 175 201 305h-35v129q-144 -156 -356 -156q-243 0 -398 168t-155 422q0 251 157 416q156 166 396 166q210 0 356 -162v133h274v-1116h-2q-85 -38 -142.5 -105t-57.5 -128t48 -78t120 16zM985 559
q0 131 -90 227q-89 95 -223 95q-137 0 -226 -95q-86 -95 -86 -227q0 -134 89 -229q88 -94 223 -94t223 94q90 96 90 229z" />
    <glyph glyph-name="Cacute" unicode="&#x106;" horiz-adv-x="1566" 
d="M1006 1626h-267l133 375h334zM860 -23q-328 0 -555 216q-223 216 -223 559q0 345 227 565q229 223 555 223q202 0 376.5 -85t275.5 -228l-203 -199q-180 219 -432 219q-206 0 -344 -141q-140 -140 -140 -354q0 -208 138 -346t344 -138q264 0 440 221l209 -190
q-107 -146 -284.5 -234t-383.5 -88z" />
    <glyph glyph-name="cacute" unicode="&#x107;" horiz-adv-x="1234" 
d="M786 1282h-256l127 360h322zM664 -25q-259 0 -426 164q-166 163 -166 420q0 258 168 420q169 166 432 166q173 0 312.5 -82t207.5 -229l-231 -127q-102 170 -285 170q-137 0 -227 -93q-91 -91 -91 -225q0 -138 88 -229q90 -90 224 -90q88 0 167.5 47t116.5 121l234 -138
q-72 -136 -212.5 -215.5t-311.5 -79.5z" />
    <glyph glyph-name="Ccircumflex" unicode="&#x108;" horiz-adv-x="1566" 
d="M713 1626h-285l315 375h224l317 -375h-295l-137 182zM860 -23q-328 0 -555 216q-223 216 -223 559q0 345 227 565q229 223 555 223q202 0 376.5 -85t275.5 -228l-203 -199q-180 219 -432 219q-206 0 -344 -141q-140 -140 -140 -354q0 -208 138 -346t344 -138
q264 0 440 221l209 -190q-107 -146 -284.5 -234t-383.5 -88z" />
    <glyph glyph-name="ccircumflex" unicode="&#x109;" horiz-adv-x="1234" 
d="M526 1284h-274l303 361h215l305 -361h-282l-134 176zM664 -25q-259 0 -426 164q-166 163 -166 420q0 258 168 420q169 166 432 166q173 0 312.5 -82t207.5 -229l-231 -127q-102 170 -285 170q-137 0 -227 -93q-91 -91 -91 -225q0 -138 88 -229q90 -90 224 -90
q88 0 167.5 47t116.5 121l234 -138q-72 -136 -212.5 -215.5t-311.5 -79.5z" />
    <glyph glyph-name="Cdotaccent" unicode="&#x10a;" horiz-adv-x="1566" 
d="M985 1679q-51 -51 -127 -51t-127 51t-51 127t51 125q51 51 127 51t127 -51q51 -49 51 -125t-51 -127zM860 -23q-328 0 -555 216q-223 216 -223 559q0 345 227 565q229 223 555 223q202 0 376.5 -85t275.5 -228l-203 -199q-180 219 -432 219q-206 0 -344 -141
q-140 -140 -140 -354q0 -208 138 -346t344 -138q264 0 440 221l209 -190q-107 -146 -284.5 -234t-383.5 -88z" />
    <glyph glyph-name="cdotaccent" unicode="&#x10b;" horiz-adv-x="1234" 
d="M791 1296q-51 -51 -127 -51t-127 51t-51 126.5t51 125.5q51 51 127 51t127 -51q51 -49 51 -125t-51 -127zM664 -25q-259 0 -426 164q-166 163 -166 420q0 258 168 420q169 166 432 166q173 0 312.5 -82t207.5 -229l-231 -127q-102 170 -285 170q-137 0 -227 -93
q-91 -91 -91 -225q0 -138 88 -229q90 -90 224 -90q88 0 167.5 47t116.5 121l234 -138q-72 -136 -212.5 -215.5t-311.5 -79.5z" />
    <glyph glyph-name="Ccaron" unicode="&#x10c;" horiz-adv-x="1566" 
d="M758 1626l-303 361h274l133 -177l133 177h283l-305 -361h-215zM860 -23q-328 0 -555 216q-223 216 -223 559q0 345 227 565q229 223 555 223q202 0 376.5 -85t275.5 -228l-203 -199q-180 219 -432 219q-206 0 -344 -141q-140 -140 -140 -354q0 -208 138 -346t344 -138
q264 0 440 221l209 -190q-107 -146 -284.5 -234t-383.5 -88z" />
    <glyph glyph-name="ccaron" unicode="&#x10d;" horiz-adv-x="1234" 
d="M559 1282l-303 360h274l134 -176l133 176h282l-305 -360h-215zM664 -25q-259 0 -426 164q-166 163 -166 420q0 258 168 420q169 166 432 166q173 0 312.5 -82t207.5 -229l-231 -127q-102 170 -285 170q-137 0 -227 -93q-91 -91 -91 -225q0 -138 88 -229q90 -90 224 -90
q88 0 167.5 47t116.5 121l234 -138q-72 -136 -212.5 -215.5t-311.5 -79.5z" />
    <glyph glyph-name="Dcaron" unicode="&#x10e;" horiz-adv-x="1576" 
d="M612 1626l-303 361h275l133 -177l133 177h283l-306 -361h-215zM748 0h-580v1513h592q342 0 534 -204q195 -204 195 -555q0 -349 -199 -551q-197 -203 -542 -203zM471 1223v-932h291q194 0 303 133t109 336q0 197 -109 330t-303 133h-291z" />
    <glyph glyph-name="dcaron" unicode="&#x10f;" horiz-adv-x="1445" 
d="M1327 1280l131 367h301l-188 -367h-244zM965 987v569h288v-1556h-282v137q-135 -164 -346 -164q-240 0 -396 166q-157 171 -157 420q0 247 157 418q158 168 396 168q200 0 340 -158zM979 559q0 135 -86 227q-86 95 -223 95t-226 -95q-86 -92 -86 -227q0 -136 86 -231
q89 -92 226 -92t223 92q86 95 86 231z" />
    <glyph glyph-name="Dcroat" unicode="&#x110;" horiz-adv-x="1609" 
d="M201 1513h592q342 0 534 -204q195 -204 195 -555q0 -349 -199 -551q-197 -203 -543 -203h-579v635h-168v246h168v632zM504 291h291q194 0 303 133q108 132 108 336q0 198 -108 330q-109 133 -303 133h-291v-342h391v-246h-391v-344z" />
    <glyph glyph-name="dslash" unicode="&#x111;" horiz-adv-x="1384" 
d="M1253 1395h156v-181h-156v-1214h-282v137q-135 -164 -346 -164q-240 0 -396 166q-157 171 -157 420q0 247 157 418q158 168 396 168q200 0 340 -158v227h-287v181h287v161h288v-161zM979 559q0 135 -86 227q-86 95 -223 95t-226 -95q-86 -92 -86 -227q0 -136 86 -231
q89 -92 226 -92t223 92q86 95 86 231z" />
    <glyph glyph-name="Emacron" unicode="&#x112;" horiz-adv-x="1304" 
d="M1065 1655l-754 -4v254h754v-250zM1194 0h-1026v1513h1026v-282h-721v-326h668v-282h-668v-340h721v-283z" />
    <glyph glyph-name="emacron" unicode="&#x113;" horiz-adv-x="1282" 
d="M315 1556h670v-249l-670 -4v253zM1214 584q0 -52 -10 -127h-837q62 -238 325 -238q90 0 189 31.5t172 81.5l114 -203q-213 -154 -487 -154q-295 0 -451 170q-155 168 -155 414q0 255 162 420q163 166 419 166q244 0 402 -152q157 -151 157 -409zM655 905
q-109 0 -185.5 -62t-102.5 -171h567q-20 109 -94.5 171t-184.5 62z" />
    <glyph glyph-name="Ebreve" unicode="&#x114;" horiz-adv-x="1304" 
d="M295 1993h237q5 -84 47.5 -133.5t116.5 -49.5q72 0 114.5 50t47.5 133h242q-10 -180 -118.5 -282.5t-285.5 -102.5t-283 102.5t-118 282.5zM1194 0h-1026v1513h1026v-282h-721v-326h668v-282h-668v-340h721v-283z" />
    <glyph glyph-name="ebreve" unicode="&#x115;" horiz-adv-x="1282" 
d="M664 1268q-167 0 -271 99t-114 271h227q5 -80 45.5 -128t112.5 -48t112 47.5t45 128.5h232q-11 -172 -115 -271t-274 -99zM1214 584q0 -52 -10 -127h-837q62 -238 325 -238q90 0 189 31.5t172 81.5l114 -203q-213 -154 -487 -154q-295 0 -451 170q-155 168 -155 414
q0 255 162 420q163 166 419 166q244 0 402 -152q157 -151 157 -409zM655 905q-109 0 -185.5 -62t-102.5 -171h567q-20 109 -94.5 171t-184.5 62z" />
    <glyph glyph-name="Edotaccent" unicode="&#x116;" horiz-adv-x="1304" 
d="M813 1679q-51 -51 -127 -51t-127 51t-51 127t51 125q51 51 127 51t127 -51q51 -49 51 -125t-51 -127zM1194 0h-1026v1513h1026v-282h-721v-326h668v-282h-668v-340h721v-283z" />
    <glyph glyph-name="edotaccent" unicode="&#x117;" horiz-adv-x="1282" 
d="M795 1300q-51 -51 -127 -51t-127 51t-51 126.5t51 125.5q51 51 127 51t127 -51q51 -50 51 -125.5t-51 -126.5zM1214 584q0 -52 -10 -127h-837q62 -238 325 -238q90 0 189 31.5t172 81.5l114 -203q-213 -154 -487 -154q-295 0 -451 170q-155 168 -155 414q0 255 162 420
q163 166 419 166q244 0 402 -152q157 -151 157 -409zM655 905q-109 0 -185.5 -62t-102.5 -171h567q-20 109 -94.5 171t-184.5 62z" />
    <glyph glyph-name="Eogonek" unicode="&#x118;" horiz-adv-x="1294" 
d="M1159 -295l64 -184q-103 -62 -217 -62q-116 0 -184 65.5t-68 170.5q0 176 200 305h-786v1513h1026v-282h-721v-326h668v-282h-668v-340h721v-283h-2q-85 -38 -143 -105t-58 -128t48 -78t120 16z" />
    <glyph glyph-name="eogonek" unicode="&#x119;" horiz-adv-x="1282" 
d="M1214 584q0 -52 -10 -127h-837q62 -238 325 -238q90 0 189 31.5t172 81.5l114 -203q-119 -83 -249 -121q-85 -38 -142 -104t-57 -127t48 -78t120 16l63 -184q-101 -61 -217 -61q-117 0 -184.5 65t-67.5 170q0 151 154 272q-183 9 -316 95q-245 165 -245 487
q0 255 162 420q163 166 419 166q244 0 402 -152q157 -151 157 -409zM655 905q-109 0 -185.5 -62t-102.5 -171h567q-20 109 -94.5 171t-184.5 62z" />
    <glyph glyph-name="Ecaron" unicode="&#x11a;" horiz-adv-x="1304" 
d="M586 1626l-303 361h274l133 -177l133 177h283l-305 -361h-215zM1194 0h-1026v1513h1026v-282h-721v-326h668v-282h-668v-340h721v-283z" />
    <glyph glyph-name="ecaron" unicode="&#x11b;" horiz-adv-x="1282" 
d="M1073 1640l-305 -360h-215l-303 360h274l133 -176l134 176h282zM1214 584q0 -52 -10 -127h-837q62 -238 325 -238q90 0 189 31.5t172 81.5l114 -203q-213 -154 -487 -154q-295 0 -451 170q-155 168 -155 414q0 255 162 420q163 166 419 166q244 0 402 -152
q157 -151 157 -409zM655 905q-109 0 -185.5 -62t-102.5 -171h567q-20 109 -94.5 171t-184.5 62z" />
    <glyph glyph-name="Gcircumflex" unicode="&#x11c;" horiz-adv-x="1658" 
d="M743 1632h-284l315 375h223l318 -375h-295l-137 183zM870 -23q-339 0 -567 220q-221 221 -221 559q0 344 229 563q232 221 572 221q180 0 342.5 -67t267.5 -179l-199 -217q-170 170 -411 170q-212 0 -351 -139t-139 -350q0 -207 135 -348q139 -142 351 -142
q115 0 223.5 44.5t181.5 117.5v207h-418v264h695v-622q-290 -302 -691 -302z" />
    <glyph glyph-name="gcircumflex" unicode="&#x11d;" horiz-adv-x="1382" 
d="M797 1282l-133 176l-134 -176h-274l303 360h215l305 -360h-282zM985 993v123h266v-1005q0 -270 -172 -426q-175 -158 -446 -158q-289 0 -512 162l112 217q192 -131 392 -131q163 0 255.5 85.5t92.5 223.5v57q-128 -143 -344 -143q-247 0 -402 162t-155 409q0 248 164 412
t405 164q204 0 344 -152zM362 567q0 -138 89 -227q90 -90 221 -90t221 90q88 91 88 227t-88 224q-90 90 -221 90t-221 -90q-89 -89 -89 -224z" />
    <glyph glyph-name="Gbreve" unicode="&#x11e;" horiz-adv-x="1658" 
d="M475 1999h238q5 -83 47.5 -132.5t116.5 -49.5q72 0 114 49.5t47 132.5h242q-10 -180 -118 -282.5t-285 -102.5t-283.5 102.5t-118.5 282.5zM870 -23q-339 0 -567 220q-221 221 -221 559q0 344 229 563q232 221 572 221q180 0 342.5 -67t267.5 -179l-199 -217
q-170 170 -411 170q-212 0 -351 -139t-139 -350q0 -207 135 -348q139 -142 351 -142q115 0 223.5 44.5t181.5 117.5v207h-418v264h695v-622q-290 -302 -691 -302z" />
    <glyph glyph-name="gbreve" unicode="&#x11f;" horiz-adv-x="1382" 
d="M659 1272q-167 0 -271 99t-114 271h228q5 -81 45 -128.5t112 -47.5t112.5 48t45.5 128h232q-10 -172 -115 -271t-275 -99zM985 993v123h266v-1005q0 -270 -172 -426q-175 -158 -446 -158q-289 0 -512 162l112 217q192 -131 392 -131q163 0 255.5 85.5t92.5 223.5v57
q-128 -143 -344 -143q-247 0 -402 162t-155 409q0 248 164 412t405 164q204 0 344 -152zM362 567q0 -138 89 -227q90 -90 221 -90t221 90q88 91 88 227t-88 224q-90 90 -221 90t-221 -90q-89 -89 -89 -224z" />
    <glyph glyph-name="Gdotaccent" unicode="&#x120;" horiz-adv-x="1658" 
d="M1008 1675q-51 -51 -127 -51t-127 51t-51 127t51 125q51 51 127 51t127 -51q51 -50 51 -125.5t-51 -126.5zM870 -23q-339 0 -567 220q-221 221 -221 559q0 344 229 563q232 221 572 221q180 0 342.5 -67t267.5 -179l-199 -217q-170 170 -411 170q-212 0 -351 -139
t-139 -350q0 -207 135 -348q139 -142 351 -142q115 0 223.5 44.5t181.5 117.5v207h-418v264h695v-622q-290 -302 -691 -302z" />
    <glyph glyph-name="gdotaccent" unicode="&#x121;" horiz-adv-x="1382" 
d="M793 1300q-51 -51 -127 -51t-127 51t-51 126.5t51 125.5q51 51 127 51t127 -51q51 -50 51 -125.5t-51 -126.5zM985 993v123h266v-1005q0 -270 -172 -426q-175 -158 -446 -158q-289 0 -512 162l112 217q192 -131 392 -131q163 0 255.5 85.5t92.5 223.5v57
q-128 -143 -344 -143q-247 0 -402 162t-155 409q0 248 164 412t405 164q204 0 344 -152zM362 567q0 -138 89 -227q90 -90 221 -90t221 90q88 91 88 227t-88 224q-90 90 -221 90t-221 -90q-89 -89 -89 -224z" />
    <glyph glyph-name="Gcommaaccent" unicode="&#x122;" horiz-adv-x="1658" 
d="M866 637v264h695v-622q-290 -302 -691 -302q-339 0 -567 220q-221 221 -221 559q0 344 229 563q232 221 572 221q180 0 342.5 -67t267.5 -179l-199 -217q-170 170 -411 170q-212 0 -351 -139t-139 -350q0 -207 135 -348q139 -142 351 -142q115 0 223.5 44.5t181.5 117.5
v207h-418zM874 -82q77 0 129 -51.5t52 -134.5q0 -97 -73 -190t-228 -201l-101 124q106 77 166 140q-50 12 -83.5 54.5t-33.5 96.5q0 68 49.5 115t122.5 47z" />
    <glyph glyph-name="gcommaaccent" unicode="&#x123;" horiz-adv-x="1382" 
d="M664 1231q-74 0 -125.5 51.5t-51.5 130.5q0 95 71 184.5t224 198.5l99 -123q-121 -93 -160 -135q47 -12 78.5 -54t31.5 -93q0 -67 -48 -113.5t-119 -46.5zM985 993v123h266v-1005q0 -270 -172 -426q-175 -158 -446 -158q-289 0 -512 162l112 217q192 -131 392 -131
q163 0 255.5 85.5t92.5 223.5v57q-128 -143 -344 -143q-247 0 -402 162t-155 409q0 248 164 412t405 164q204 0 344 -152zM362 567q0 -138 89 -227q90 -90 221 -90t221 90q88 91 88 227t-88 224q-90 90 -221 90t-221 -90q-89 -89 -89 -224z" />
    <glyph glyph-name="Hcircumflex" unicode="&#x124;" horiz-adv-x="1576" 
d="M649 1626h-284l315 375h223l318 -375h-295l-138 182zM471 0h-303v1513h303v-604h635v604h303v-1513h-303v616h-635v-616z" />
    <glyph glyph-name="hcircumflex" unicode="&#x125;" horiz-adv-x="1318" 
d="M133 1636h-285l316 375h223l318 -375h-295l-138 183zM422 0h-289v1556h281v-585q46 77 141 126.5t211 49.5q180 0 307 -121t127 -344v-682h-289v604q0 132 -63 204.5t-170 72.5q-115 0 -185.5 -79t-70.5 -204v-598z" />
    <glyph glyph-name="Hbar" unicode="&#x126;" horiz-adv-x="1642" 
d="M1432 1307h165v-209h-165v-1098h-304v616h-634v-616h-304v1098h-163v209h163v206h304v-206h634v206h304v-206zM494 909h634v189h-634v-189z" />
    <glyph glyph-name="hbar" unicode="&#x127;" horiz-adv-x="1318" 
d="M766 1147q180 0 307 -121t127 -344v-682h-289v604q0 132 -63 204.5t-170 72.5q-115 0 -185.5 -79t-70.5 -204v-598h-289v1217h-133v180h133v159h281v-159h317v-180h-317v-246q46 77 141 126.5t211 49.5z" />
    <glyph glyph-name="Itilde" unicode="&#x128;" horiz-adv-x="641" 
d="M61 1638l-188 93q101 241 301 241q74 0 160 -45t121 -45q73 0 125 98l186 -88q-43 -115 -117 -178t-166 -63q-65 0 -157 47t-131 47q-82 0 -134 -107zM172 0v1513h305v-1513h-305z" />
    <glyph glyph-name="itilde" unicode="&#x129;" horiz-adv-x="550" 
d="M29 1272l-185 90q101 235 295 235q71 0 154 -45q87 -43 121 -43q67 0 121 97l182 -86q-41 -112 -113.5 -174t-163.5 -62q-67 0 -153 45q-89 47 -127 47q-79 0 -131 -104zM424 1116v-1116h-289v1116h289z" />
    <glyph glyph-name="Imacron" unicode="&#x12a;" horiz-adv-x="641" 
d="M700 1677l-753 -4v254h753v-250zM172 0v1513h305v-1513h-305z" />
    <glyph glyph-name="imacron" unicode="&#x12b;" horiz-adv-x="550" 
d="M616 1309l-669 -4v254h669v-250zM424 1116v-1116h-289v1116h289z" />
    <glyph glyph-name="Ibreve" unicode="&#x12c;" horiz-adv-x="641" 
d="M-78 2001h238q5 -83 47.5 -132.5t116.5 -49.5q72 0 114 49.5t47 132.5h242q-10 -180 -118 -282.5t-285 -102.5t-283.5 102.5t-118.5 282.5zM172 0v1513h305v-1513h-305z" />
    <glyph glyph-name="ibreve" unicode="&#x12d;" horiz-adv-x="550" 
d="M279 1272q-167 0 -271 99t-114 271h227q5 -80 45.5 -128t112.5 -48t112 47.5t45 128.5h232q-11 -172 -115 -271t-274 -99zM424 1116v-1116h-289v1116h289z" />
    <glyph glyph-name="Iogonek" unicode="&#x12e;" horiz-adv-x="641" 
d="M440 -295l64 -184q-103 -62 -217 -62q-116 0 -184 65.5t-68 170.5q0 175 201 305h-66v1513h305v-1513h-2q-85 -38 -143 -105t-58 -128t48 -78t120 16z" />
    <glyph glyph-name="iogonek" unicode="&#x12f;" horiz-adv-x="550" 
d="M408 1292q-51 -51 -127 -51t-127 51t-51 126.5t51 125.5q51 51 127 51t127 -51q51 -50 51 -125.5t-51 -126.5zM391 -295l64 -184q-103 -62 -217 -62q-116 0 -184 65.5t-68 170.5q0 176 200 305h-51v1116h289v-1116q-85 -38 -143 -105t-58 -128t48 -78t120 16z" />
    <glyph glyph-name="Idot" unicode="&#x130;" horiz-adv-x="641" 
d="M446 1673q-51 -51 -126.5 -51t-126.5 51t-51 127t51 125q51 51 126.5 51t126.5 -51q51 -50 51 -125.5t-51 -126.5zM168 0v1513h305v-1513h-305z" />
    <glyph glyph-name="dotlessi" unicode="&#x131;" horiz-adv-x="550" 
d="M420 1116v-1116h-289v1116h289z" />
    <glyph glyph-name="IJ" unicode="&#x132;" horiz-adv-x="1826" 
d="M168 0v1513h305v-1513h-305zM1114 -25q-282 0 -469 187l148 237q133 -133 299 -133q131 0 208.5 83.5t77.5 228.5v935h303v-946q0 -294 -159 -444q-160 -148 -408 -148z" />
    <glyph glyph-name="ij" unicode="&#x133;" horiz-adv-x="1177" 
d="M408 1292q-51 -51 -127 -51t-127 51t-51 126.5t51 125.5q51 51 127 51t127 -51q51 -50 51 -125.5t-51 -126.5zM981 1292q-51 -51 -127 -51t-127 51t-51 126.5t51 125.5q51 51 127 51t127 -51q51 -49 51 -125t-51 -127zM424 1116v-1116h-289v1116h289zM571 -475
q-168 0 -254 57l54 230q90 -33 153 -33q187 0 187 219v1118h288v-1132q0 -222 -115.5 -340.5t-312.5 -118.5z" />
    <glyph glyph-name="Jcircumflex" unicode="&#x134;" horiz-adv-x="1189" 
d="M750 1626h-285l315 375h224l317 -375h-295l-137 182zM477 -25q-282 0 -469 187l148 237q133 -133 299 -133q131 0 208.5 83.5t77.5 228.5v935h303v-946q0 -294 -159 -444q-160 -148 -408 -148z" />
    <glyph glyph-name="jcircumflex" unicode="&#x135;" horiz-adv-x="600" 
d="M184 1282h-274l303 360h215l305 -360h-282l-134 176zM41 -475q-168 0 -254 57l53 230q90 -33 154 -33q186 0 186 219v1118h289v-1132q0 -222 -115.5 -340.5t-312.5 -118.5z" />
    <glyph glyph-name="Kcommaaccent" unicode="&#x136;" 
d="M1411 1513l-555 -688l594 -825h-373l-420 600l-186 -223v-377h-303v1513h303v-714l573 714h367zM758 -68q77 0 128.5 -51.5t51.5 -134.5q0 -97 -73 -190t-228 -201l-100 125q106 77 165 139q-50 12 -83 55t-33 97q0 68 49.5 114.5t122.5 46.5z" />
    <glyph glyph-name="kcommaaccent" unicode="&#x137;" horiz-adv-x="1193" 
d="M1190 1116l-498 -457l527 -659h-355l-368 477l-76 -67v-410h-289v1556h289v-821l405 381h365zM627 -33q74 0 125 -51.5t51 -130.5q0 -95 -71 -184.5t-224 -198.5l-98 123q118 91 159 135q-47 12 -78.5 54t-31.5 93q0 67 48.5 113.5t119.5 46.5z" />
    <glyph glyph-name="kgreenlandic" unicode="&#x138;" horiz-adv-x="1173" 
d="M1190 0h-342l-348 459l-88 -84v-375h-281v1116h281v-411l417 411h349l-488 -471z" />
    <glyph glyph-name="Lacute" unicode="&#x139;" horiz-adv-x="1269" 
d="M455 1626h-267l134 375h333zM1241 0h-1073v1513h305v-1222h768v-291z" />
    <glyph glyph-name="lacute" unicode="&#x13a;" horiz-adv-x="544" 
d="M406 1630h-267l133 375h334zM420 1556v-1556h-289v1556h289z" />
    <glyph glyph-name="Lcommaaccent" unicode="&#x13b;" horiz-adv-x="1269" 
d="M473 1513v-1222h768v-291h-1073v1513h305zM719 -70q77 0 128.5 -51.5t51.5 -134.5q0 -97 -73 -190t-228 -201l-100 125q109 79 166 139q-50 12 -83.5 55t-33.5 97q0 68 49.5 114.5t122.5 46.5z" />
    <glyph glyph-name="lcommaaccent" unicode="&#x13c;" horiz-adv-x="548" 
d="M135 1556h289v-1556h-289v1556zM270 -84q74 0 125 -51.5t51 -130.5q0 -95 -70.5 -185t-223.5 -198l-99 123q121 93 160 135q-47 12 -79 54t-32 93q0 67 48.5 113.5t119.5 46.5z" />
    <glyph glyph-name="Lcaron" unicode="&#x13d;" horiz-adv-x="1280" 
d="M1044 1278h-243l131 367h301zM1241 0h-1073v1513h305v-1222h768v-291z" />
    <glyph glyph-name="lcaron" unicode="&#x13e;" horiz-adv-x="606" 
d="M721 1280h-244l131 367h301zM420 1556v-1556h-289v1556h289z" />
    <glyph glyph-name="Ldot" unicode="&#x13f;" horiz-adv-x="1273" 
d="M1241 0h-1073v1513h305v-1222h768v-291zM958 672q-72 0 -121 48t-49 120q0 69 49 116.5t121 47.5q68 0 116 -47.5t48 -116.5q0 -71 -48 -119.5t-116 -48.5z" />
    <glyph glyph-name="ldot" unicode="&#x140;" horiz-adv-x="843" 
d="M420 1556v-1556h-289v1556h289zM700 582q-72 0 -121 48t-49 120q0 69 49 116t121 47q68 0 116 -47t48 -116q0 -71 -48 -119.5t-116 -48.5z" />
    <glyph glyph-name="Lslash" unicode="&#x141;" horiz-adv-x="1296" 
d="M500 719v-428h768v-291h-1073v526l-142 -88v273l142 90v712h305v-520l217 137v-274z" />
    <glyph glyph-name="lslash" unicode="&#x142;" horiz-adv-x="706" 
d="M498 1034l141 103v-279l-141 -102v-756h-289v545l-129 -94v278l129 94v733h289v-522z" />
    <glyph glyph-name="Nacute" unicode="&#x143;" horiz-adv-x="1626" 
d="M928 1626h-266l133 375h333zM1159 578v935h299v-1513h-207l-784 928v-928h-299v1513h192z" />
    <glyph glyph-name="nacute" unicode="&#x144;" horiz-adv-x="1316" 
d="M782 1282h-256l127 360h322zM420 0h-289v1116h283v-155q45 83 139.5 134.5t210.5 51.5q182 0 309 -121t127 -344v-682h-289v604q0 131 -63.5 204t-171.5 73q-115 0 -185.5 -79t-70.5 -204v-598z" />
    <glyph glyph-name="Ncommaaccent" unicode="&#x145;" horiz-adv-x="1626" 
d="M1159 578v935h299v-1513h-207l-784 928v-928h-299v1513h192zM836 -47q77 0 128.5 -51.5t51.5 -134.5q0 -97 -73 -191t-228 -201l-101 125q106 77 166 140q-50 12 -83 54.5t-33 96.5q0 68 49.5 115t122.5 47z" />
    <glyph glyph-name="ncommaaccent" unicode="&#x146;" horiz-adv-x="1316" 
d="M764 1147q182 0 309 -121t127 -344v-682h-289v604q0 131 -63.5 204t-171.5 73q-115 0 -185.5 -79t-70.5 -204v-598h-289v1116h283v-155q45 83 139.5 134.5t210.5 51.5zM674 -53q74 0 125 -52t51 -131q0 -94 -71 -183.5t-224 -198.5l-98 122q115 88 159 136
q-47 12 -78.5 54t-31.5 93q0 67 48.5 113.5t119.5 46.5z" />
    <glyph glyph-name="Ncaron" unicode="&#x147;" horiz-adv-x="1626" 
d="M719 1626l-303 361h274l133 -177l133 177h283l-305 -361h-215zM1159 578v935h299v-1513h-207l-784 928v-928h-299v1513h192z" />
    <glyph glyph-name="ncaron" unicode="&#x148;" horiz-adv-x="1316" 
d="M563 1278l-303 360h275l133 -176l133 176h282l-305 -360h-215zM420 0h-289v1116h283v-155q45 83 139.5 134.5t210.5 51.5q182 0 309 -121t127 -344v-682h-289v604q0 131 -63.5 204t-171.5 73q-115 0 -185.5 -79t-70.5 -204v-598z" />
    <glyph glyph-name="napostrophe" unicode="&#x149;" horiz-adv-x="1431" 
d="M164 1278h-244l131 367h301zM532 0h-288v1116h282v-155q45 83 139.5 134.5t211.5 51.5q182 0 309 -121t127 -344v-682h-289v604q0 131 -64 204t-172 73q-115 0 -185.5 -79t-70.5 -204v-598z" />
    <glyph glyph-name="Eng" unicode="&#x14a;" horiz-adv-x="1626" 
d="M1159 561v952h299v-1435q0 -291 -158 -443q-155 -149 -395 -149q-155 0 -305 72l80 268q89 -51 209 -51q122 0 197 75t75 211v33l-694 836v-930h-299v1513h192z" />
    <glyph glyph-name="eng" unicode="&#x14b;" horiz-adv-x="1316" 
d="M664 -467l4 256q124 -11 182.5 36.5t58.5 168.5v620q0 127 -62 197t-169 70q-115 0 -186.5 -79t-71.5 -204v-598h-289v1116h281v-147q49 78 143.5 128t208.5 50q180 0 307 -121t127 -346v-690q0 -268 -149 -375q-145 -109 -385 -82z" />
    <glyph glyph-name="Omacron" unicode="&#x14c;" horiz-adv-x="1736" 
d="M1245 1659l-753 -4v254h753v-250zM866 -25q-337 0 -561 224q-225 225 -225 553q0 329 227 559q229 229 561 229q333 0 559 -229q230 -230 230 -555q0 -326 -230 -553q-228 -228 -561 -228zM1341 756q0 209 -137 346q-139 139 -336 139t-336 -139q-137 -137 -137 -346
q0 -206 135 -344q138 -138 338 -138t338 138t135 344z" />
    <glyph glyph-name="omacron" unicode="&#x14d;" horiz-adv-x="1339" 
d="M1006 1305l-670 -5v254h670v-249zM72 559q0 248 168 416q169 172 430 172t430 -172q168 -168 168 -416q0 -250 -168 -418q-170 -170 -430 -170t-430 170q-168 168 -168 418zM449 332q89 -92 221 -92q130 0 219 92q90 96 90 227q0 132 -90 225t-219 93q-131 0 -221 -93
q-89 -92 -89 -225q0 -132 89 -227z" />
    <glyph glyph-name="Obreve" unicode="&#x14e;" horiz-adv-x="1736" 
d="M477 1993h238q5 -84 47.5 -133.5t116.5 -49.5q72 0 114 49.5t47 133.5h242q-10 -180 -118 -282.5t-285 -102.5t-283.5 102.5t-118.5 282.5zM866 -25q-337 0 -561 224q-225 225 -225 553q0 329 227 559q229 229 561 229q333 0 559 -229q230 -230 230 -555
q0 -326 -230 -553q-228 -228 -561 -228zM1341 756q0 209 -137 346q-139 139 -336 139t-336 -139q-137 -137 -137 -346q0 -206 135 -344q138 -138 338 -138t338 138t135 344z" />
    <glyph glyph-name="obreve" unicode="&#x14f;" horiz-adv-x="1339" 
d="M668 1272q-167 0 -271 99t-114 271h227q5 -80 45.5 -128t112.5 -48t112 47.5t45 128.5h232q-11 -172 -115 -271t-274 -99zM72 559q0 248 168 416q169 172 430 172t430 -172q168 -168 168 -416q0 -250 -168 -418q-170 -170 -430 -170t-430 170q-168 168 -168 418zM449 332
q89 -92 221 -92q130 0 219 92q90 96 90 227q0 132 -90 225t-219 93q-131 0 -221 -93q-89 -92 -89 -225q0 -132 89 -227z" />
    <glyph glyph-name="Ohungarumlaut" unicode="&#x150;" horiz-adv-x="1736" 
d="M782 1628h-247l92 375h319zM1210 1628h-252l121 375h332zM866 -25q-337 0 -561 224q-225 225 -225 553q0 329 227 559q229 229 561 229q333 0 559 -229q230 -230 230 -555q0 -326 -230 -553q-228 -228 -561 -228zM1341 756q0 209 -137 346q-139 139 -336 139t-336 -139
q-137 -137 -137 -346q0 -206 135 -344q138 -138 338 -138t338 138t135 344z" />
    <glyph glyph-name="ohungarumlaut" unicode="&#x151;" horiz-adv-x="1339" 
d="M590 1282h-240l88 360h310zM1001 1282h-243l116 360h320zM72 559q0 248 168 416q169 172 430 172t430 -172q168 -168 168 -416q0 -250 -168 -418q-170 -170 -430 -170t-430 170q-168 168 -168 418zM449 332q89 -92 221 -92q130 0 219 92q90 96 90 227q0 132 -90 225
t-219 93q-131 0 -221 -93q-89 -92 -89 -225q0 -132 89 -227z" />
    <glyph glyph-name="OE" unicode="&#x152;" horiz-adv-x="2103" 
d="M1993 1513v-282h-721v-326h667v-282h-667v-340h721v-283h-1014q-110 -4 -117 -4q-384 0 -579 207q-195 210 -195 551q0 344 191 553q193 211 571 211q12 0 29 -1t42.5 -2t45.5 -2h1026zM965 291v932q-53 6 -99 6q-239 0 -352 -137q-111 -135 -111 -334q0 -200 111 -338
q114 -135 352 -135q46 0 99 6z" />
    <glyph glyph-name="oe" unicode="&#x153;" horiz-adv-x="2183" 
d="M2116 584q0 -44 -11 -127h-837q62 -238 325 -238q90 0 189 31.5t172 81.5l114 -203q-213 -154 -487 -154q-305 0 -469 191q-169 -193 -448 -193q-259 0 -426 170q-166 169 -166 416q0 245 166 414q167 170 426 170q278 0 448 -191q166 193 444 193q244 0 402 -152
t158 -409zM1556 905q-109 0 -185.5 -62t-102.5 -171h567q-20 109 -94.5 171t-184.5 62zM973 561q0 130 -90 223t-219 93q-130 0 -220 -93q-88 -91 -88 -223q0 -133 88 -227q89 -92 220 -92q130 0 219 92q90 96 90 227z" />
    <glyph glyph-name="Racute" unicode="&#x154;" horiz-adv-x="1382" 
d="M614 2001h334l-200 -375h-267zM1325 0h-354l-320 551h-180v-551h-303v1513h580q252 0 385 -139t133 -340q0 -152 -79 -271t-229 -173zM745 1233h-274v-410h248q114 0 174.5 57.5t60.5 149.5q0 88 -56.5 145.5t-152.5 57.5z" />
    <glyph glyph-name="racute" unicode="&#x155;" horiz-adv-x="884" 
d="M602 1282h-256l127 360h322zM420 0h-289v1116h277v-149q101 180 307 180q65 0 135 -25l-25 -276q-74 22 -133 22q-127 0 -199.5 -85t-72.5 -253v-530z" />
    <glyph glyph-name="Rcommaaccent" unicode="&#x156;" horiz-adv-x="1382" 
d="M958 590l367 -590h-354l-320 551h-180v-551h-303v1513h580q252 0 385 -139t133 -340q0 -152 -79 -271t-229 -173zM745 1233h-274v-410h248q114 0 174.5 57.5t60.5 149.5q0 88 -56.5 145.5t-152.5 57.5zM709 -53q77 0 128.5 -52t51.5 -135q0 -97 -73 -190t-228 -201
l-101 125q109 79 166 139q-50 12 -83 55t-33 97q0 68 49.5 115t122.5 47z" />
    <glyph glyph-name="rcommaaccent" unicode="&#x157;" horiz-adv-x="886" 
d="M717 1147q65 0 135 -25l-25 -276q-74 22 -133 22q-127 0 -199.5 -85t-72.5 -253v-530h-289v1116h277v-149q101 180 307 180zM272 -72q74 0 125.5 -51.5t51.5 -130.5q0 -95 -71 -184.5t-224 -198.5l-99 123q121 93 160 135q-47 12 -79 54.5t-32 93.5q0 67 48.5 113
t119.5 46z" />
    <glyph glyph-name="Rcaron" unicode="&#x158;" horiz-adv-x="1382" 
d="M1071 1987l-305 -361h-215l-303 361h274l133 -177l133 177h283zM1325 0h-354l-320 551h-180v-551h-303v1513h580q252 0 385 -139t133 -340q0 -152 -79 -271t-229 -173zM745 1233h-274v-410h248q114 0 174.5 57.5t60.5 149.5q0 88 -56.5 145.5t-152.5 57.5z" />
    <glyph glyph-name="rcaron" unicode="&#x159;" horiz-adv-x="884" 
d="M389 1280l-303 360h274l134 -176l133 176h282l-305 -360h-215zM422 0h-289v1116h277v-149q101 180 307 180q65 0 135 -25l-25 -276q-74 22 -133 22q-127 0 -199.5 -85t-72.5 -253v-530z" />
    <glyph glyph-name="Sacute" unicode="&#x15a;" horiz-adv-x="1224" 
d="M741 1624h-266l133 375h334zM612 -25q-178 0 -329 74t-244 209l174 211q73 -102 178 -156.5t223 -54.5q94 0 155.5 45t61.5 117q0 94 -137 158q-11 6 -149 59q-109 43 -178 82q-240 138 -240 377q0 190 143 315q145 127 373 127q296 0 498 -205l-162 -221
q-61 66 -153 103.5t-179 37.5q-90 0 -142 -39.5t-52 -105.5q0 -89 122 -150l150 -65q110 -46 184 -80q258 -126 258 -377q0 -203 -153 -332t-402 -129z" />
    <glyph glyph-name="sacute" unicode="&#x15b;" horiz-adv-x="1003" 
d="M637 1282h-256l127 360h321zM504 -29q-291 0 -461 215l154 183q60 -72 142.5 -114t166.5 -42q66 0 109.5 31t43.5 78q0 59 -79 96q-11 5 -134 51q-92 34 -143 59q-192 91 -192 289q0 147 114 242q113 94 303 94q238 0 392 -160l-144 -186q-117 111 -256 111
q-56 0 -91.5 -28t-35.5 -67q0 -67 99 -102q207 -77 268 -109q188 -99 188 -282q0 -156 -123 -258q-119 -101 -321 -101z" />
    <glyph glyph-name="Scircumflex" unicode="&#x15c;" horiz-adv-x="1224" 
d="M506 1624h-285l316 375h223l317 -375h-295l-137 182zM612 -25q-178 0 -329 74t-244 209l174 211q73 -102 178 -156.5t223 -54.5q94 0 155.5 45t61.5 117q0 94 -137 158q-11 6 -149 59q-109 43 -178 82q-240 138 -240 377q0 190 143 315q145 127 373 127q296 0 498 -205
l-162 -221q-61 66 -153 103.5t-179 37.5q-90 0 -142 -39.5t-52 -105.5q0 -89 122 -150l150 -65q110 -46 184 -80q258 -126 258 -377q0 -203 -153 -332t-402 -129z" />
    <glyph glyph-name="scircumflex" unicode="&#x15d;" horiz-adv-x="999" 
d="M379 1284h-275l304 361h215l305 -361h-283l-133 176zM504 -29q-291 0 -461 215l154 183q60 -72 142.5 -114t166.5 -42q66 0 109.5 31t43.5 78q0 59 -79 96q-11 5 -134 51q-92 34 -143 59q-192 91 -192 289q0 147 114 242q113 94 303 94q238 0 392 -160l-144 -186
q-117 111 -256 111q-56 0 -91.5 -28t-35.5 -67q0 -67 99 -102q207 -77 268 -109q188 -99 188 -282q0 -156 -123 -258q-119 -101 -321 -101z" />
    <glyph glyph-name="Scedilla" unicode="&#x15e;" horiz-adv-x="1224" 
d="M1167 436q0 -180 -127 -307q-125 -125 -338 -149l-32 -78q95 -5 158 -60t63 -145q0 -103 -81.5 -174.5t-217.5 -71.5q-123 0 -254 64l63 166q85 -43 166 -43q52 0 79.5 21.5t27.5 55.5q0 70 -115 70h-110l-17 55l57 146q-293 44 -450 272l174 211q73 -102 178 -156.5
t223 -54.5q94 0 155.5 45t61.5 117q0 94 -137 158q-11 6 -149 59q-109 43 -178 82q-240 138 -240 377q0 190 143 315q145 127 373 127q296 0 498 -205l-162 -221q-61 66 -153 103.5t-179 37.5q-90 0 -142 -39.5t-52 -105.5q0 -89 122 -150l150 -65q110 -46 184 -80
q258 -126 258 -377z" />
    <glyph glyph-name="scedilla" unicode="&#x15f;" horiz-adv-x="1003" 
d="M948 330q0 -142 -105.5 -241t-277.5 -116l-28 -69q95 -5 158 -60t63 -145q0 -103 -81.5 -174.5t-217.5 -71.5q-123 0 -254 64l63 166q85 -43 166 -43q52 0 79.5 21.5t27.5 55.5q0 70 -115 70h-111l-16 55l57 146q-191 47 -313 198l154 183q60 -72 142.5 -114t166.5 -42
q66 0 109.5 31t43.5 78q0 59 -79 96q-11 5 -134 51q-92 34 -143 59q-192 91 -192 289q0 147 114 242q113 94 303 94q238 0 392 -160l-144 -186q-117 111 -256 111q-56 0 -91.5 -28t-35.5 -67q0 -67 99 -102q207 -77 268 -109q188 -99 188 -282z" />
    <glyph glyph-name="Scaron" unicode="&#x160;" horiz-adv-x="1224" 
d="M547 1624l-303 361h274l133 -177l133 177h283l-305 -361h-215zM612 -25q-178 0 -329 74t-244 209l174 211q73 -102 178 -156.5t223 -54.5q94 0 155.5 45t61.5 117q0 94 -137 158q-11 6 -149 59q-109 43 -178 82q-240 138 -240 377q0 190 143 315q145 127 373 127
q296 0 498 -205l-162 -221q-61 66 -153 103.5t-179 37.5q-90 0 -142 -39.5t-52 -105.5q0 -89 122 -150l150 -65q110 -46 184 -80q258 -126 258 -377q0 -203 -153 -332t-402 -129z" />
    <glyph glyph-name="scaron" unicode="&#x161;" horiz-adv-x="999" 
d="M410 1280l-304 360h275l133 -176l133 176h283l-305 -360h-215zM504 -29q-291 0 -461 215l154 183q60 -72 142.5 -114t166.5 -42q66 0 109.5 31t43.5 78q0 59 -79 96q-11 5 -134 51q-92 34 -143 59q-192 91 -192 289q0 147 114 242q113 94 303 94q238 0 392 -160
l-144 -186q-117 111 -256 111q-56 0 -91.5 -28t-35.5 -67q0 -67 99 -102q207 -77 268 -109q188 -99 188 -282q0 -156 -123 -258q-119 -101 -321 -101z" />
    <glyph glyph-name="Tcaron" unicode="&#x164;" horiz-adv-x="1228" 
d="M510 1626l-303 361h274l133 -177l134 177h282l-305 -361h-215zM461 0v1221h-432v292h1171v-292h-432v-1221h-307z" />
    <glyph glyph-name="tcaron" unicode="&#x165;" horiz-adv-x="935" 
d="M823 1645h301l-188 -367h-244zM666 236q87 0 186 57l86 -227q-140 -93 -330 -93q-192 0 -290.5 112t-98.5 329v460h-182v242h184v395h287v-395h369v-242h-369v-442q0 -196 158 -196z" />
    <glyph glyph-name="Tbar" unicode="&#x166;" horiz-adv-x="1267" 
d="M1221 1513v-292h-433v-326h279v-246h-279v-649h-307v649h-276v246h276v326h-432v292h1172z" />
    <glyph glyph-name="tbar" unicode="&#x167;" horiz-adv-x="956" 
d="M862 293l86 -227q-140 -93 -330 -93q-192 0 -290.5 112t-98.5 329v100h-180v197h180v163h-182v242h184v395h287v-395h369v-242h-369v-163h356v-197h-356v-82q0 -196 158 -196q87 0 186 57z" />
    <glyph glyph-name="Utilde" unicode="&#x168;" horiz-adv-x="1484" 
d="M489 1620l-188 92q102 242 301 242q74 0 160 -45t121 -45q73 0 125 98l186 -88q-43 -115 -117 -178.5t-166 -63.5q-65 0 -157 47t-131 47q-82 0 -134 -106zM152 553v960h305v-940q0 -150 75 -227.5t211 -77.5q131 0 207 79.5t76 225.5v940h307v-960q0 -286 -168 -432
q-168 -148 -422 -148q-253 0 -424 148q-167 145 -167 432z" />
    <glyph glyph-name="utilde" unicode="&#x169;" horiz-adv-x="1257" 
d="M375 1272l-185 90q101 235 295 235q71 0 154 -45q87 -43 121 -43q67 0 121 97l182 -86q-41 -112 -113.5 -174t-163.5 -62q-67 0 -153 45q-89 47 -127 47q-79 0 -131 -104zM629 -27q-239 0 -375.5 132t-136.5 366v645h289v-645q0 -107 59.5 -170t163.5 -63t163.5 63
t59.5 170v645h289v-645q0 -234 -136 -366t-376 -132z" />
    <glyph glyph-name="Umacron" unicode="&#x16a;" horiz-adv-x="1484" 
d="M1120 1663l-753 -4v254h753v-250zM152 553v960h305v-940q0 -150 75 -227.5t211 -77.5q131 0 207 79.5t76 225.5v940h307v-960q0 -286 -168 -432q-168 -148 -422 -148q-253 0 -424 148q-167 145 -167 432z" />
    <glyph glyph-name="umacron" unicode="&#x16b;" horiz-adv-x="1257" 
d="M963 1307l-670 -4v253h670v-249zM629 -27q-239 0 -375.5 132t-136.5 366v645h289v-645q0 -107 59.5 -170t163.5 -63t163.5 63t59.5 170v645h289v-645q0 -234 -136 -366t-376 -132z" />
    <glyph glyph-name="Ubreve" unicode="&#x16c;" horiz-adv-x="1484" 
d="M342 1993h238q5 -84 47.5 -133.5t115.5 -49.5q72 0 114.5 50t47.5 133h242q-10 -180 -118.5 -282.5t-285.5 -102.5t-283 102.5t-118 282.5zM152 553v960h305v-940q0 -150 75 -227.5t211 -77.5q131 0 207 79.5t76 225.5v940h307v-960q0 -286 -168 -432
q-168 -148 -422 -148q-253 0 -424 148q-167 145 -167 432z" />
    <glyph glyph-name="ubreve" unicode="&#x16d;" horiz-adv-x="1257" 
d="M629 1268q-167 0 -271 99t-114 271h227q5 -80 45.5 -128t112.5 -48t112 47.5t45 128.5h232q-11 -172 -115 -271t-274 -99zM629 -27q-239 0 -375.5 132t-136.5 366v645h289v-645q0 -107 59.5 -170t163.5 -63t163.5 63t59.5 170v645h289v-645q0 -234 -136 -366t-376 -132z
" />
    <glyph glyph-name="Uring" unicode="&#x16e;" horiz-adv-x="1484" 
d="M459 1866q0 115 82 194q83 80 200 80q119 0 199 -80q82 -79 82 -194q0 -117 -82 -193q-81 -78 -199 -78q-116 0 -200 78q-82 79 -82 193zM741 1757q45 0 77 33t32 80q0 44 -32.5 76t-76.5 32q-47 0 -79.5 -31.5t-32.5 -76.5q0 -47 32.5 -80t79.5 -33zM152 553v960h305
v-940q0 -150 75 -227.5t211 -77.5q131 0 207 79.5t76 225.5v940h307v-960q0 -286 -168 -432q-168 -148 -422 -148q-253 0 -424 148q-167 145 -167 432z" />
    <glyph glyph-name="uring" unicode="&#x16f;" horiz-adv-x="1257" 
d="M629 1225q-117 0 -195 75q-78 78 -78 185q0 108 78 186q81 78 195 78q112 0 190 -78q80 -77 80 -186q0 -108 -80 -185q-75 -75 -190 -75zM629 1380q43 0 73.5 32.5t30.5 76.5t-30.5 74t-73.5 30q-45 0 -77 -30t-32 -74t32.5 -76.5t76.5 -32.5zM629 -27q-239 0 -375.5 132
t-136.5 366v645h289v-645q0 -107 59.5 -170t163.5 -63t163.5 63t59.5 170v645h289v-645q0 -234 -136 -366t-376 -132z" />
    <glyph glyph-name="Uhungarumlaut" unicode="&#x170;" horiz-adv-x="1486" 
d="M647 1628h-248l93 375h319zM1075 1628h-252l121 375h332zM152 553v960h305v-940q0 -150 75 -227.5t211 -77.5q131 0 207 79.5t76 225.5v940h307v-960q0 -286 -168 -432q-168 -148 -422 -148q-253 0 -424 148q-167 145 -167 432z" />
    <glyph glyph-name="uhungarumlaut" unicode="&#x171;" horiz-adv-x="1249" 
d="M528 1282h-239l88 360h309zM940 1282h-244l117 360h320zM629 -27q-239 0 -375.5 132t-136.5 366v645h289v-645q0 -107 59.5 -170t163.5 -63t163.5 63t59.5 170v645h289v-645q0 -234 -136 -366t-376 -132z" />
    <glyph glyph-name="Uogonek" unicode="&#x172;" horiz-adv-x="1484" 
d="M1026 573v940h307v-960q0 -211 -98 -351t-270 -196q-82 -42 -135.5 -105t-53.5 -122q0 -61 48 -78t120 16l64 -184q-101 -61 -217 -61q-117 0 -184.5 65t-67.5 170q0 152 149 268q-234 15 -387 162q-149 146 -149 416v960h305v-940q0 -150 75 -227.5t211 -77.5
q131 0 207 79.5t76 225.5z" />
    <glyph glyph-name="uogonek" unicode="&#x173;" horiz-adv-x="1257" 
d="M852 471v645h289v-645q0 -182 -81.5 -301.5t-234.5 -167.5q-86 -42 -142 -107t-56 -126t48 -78t120 16l63 -184q-103 -62 -217 -62q-116 0 -184 65.5t-68 170.5q0 154 164 280q-204 20 -320 150t-116 344v645h289v-645q0 -107 59.5 -170t163.5 -63t163.5 63t59.5 170z
" />
    <glyph glyph-name="Wcircumflex" unicode="&#x174;" horiz-adv-x="2181" 
d="M950 1626h-284l315 375h223l318 -375h-295l-137 182zM770 0h-256l-502 1513h332l305 -1017l344 1017h193l350 -1017l301 1017h332l-500 -1513h-256l-321 991z" />
    <glyph glyph-name="wcircumflex" unicode="&#x175;" horiz-adv-x="1796" 
d="M764 1280h-275l304 360h215l305 -360h-283l-133 176zM649 2h-252l-381 1114h303l224 -731l252 731h202l260 -731l218 731h303l-377 -1114h-252l-252 698z" />
    <glyph glyph-name="Ycircumflex" unicode="&#x176;" horiz-adv-x="1390" 
d="M553 1626h-285l316 375h223l317 -375h-295l-137 182zM1020 1513h350l-524 -989v-524h-303v524l-518 989h350l319 -663z" />
    <glyph glyph-name="ycircumflex" unicode="&#x177;" horiz-adv-x="1226" 
d="M760 1280l-133 176l-133 -176h-275l303 360h215l305 -360h-282zM639 389l254 727h315l-448 -1171q-83 -216 -196 -318t-277 -102q-127 0 -215 55l49 242q75 -37 143 -37q134 0 217 176l23 51l-488 1104h334z" />
    <glyph glyph-name="Ydieresis" unicode="&#x178;" horiz-adv-x="1390" 
d="M305 1802q0 69 49 117.5t121 48.5t121 -48.5t49 -117.5q0 -73 -49 -122.5t-121 -49.5t-121 49.5t-49 122.5zM913 1630q-73 0 -121.5 49t-48.5 123q0 69 49 117.5t121 48.5q69 0 118.5 -48.5t49.5 -117.5q0 -73 -49 -122.5t-119 -49.5zM1020 1513h350l-524 -989v-524h-303
v524l-518 989h350l319 -663z" />
    <glyph glyph-name="Zacute" unicode="&#x179;" horiz-adv-x="1333" 
d="M799 1628h-267l134 375h333zM1257 0h-1185v217l749 1016h-721v280h1135v-225l-735 -1007h757v-281z" />
    <glyph glyph-name="zacute" unicode="&#x17a;" horiz-adv-x="1101" 
d="M664 1282h-256l127 360h321zM1012 920l-549 -680h569v-240h-966v197l559 677h-531v240h918v-194z" />
    <glyph glyph-name="Zdotaccent" unicode="&#x17b;" horiz-adv-x="1333" 
d="M805 1679q-51 -51 -127 -51t-127 51t-51 127t51 125q51 51 127 51t127 -51q51 -49 51 -125t-51 -127zM1257 0h-1185v217l749 1016h-721v280h1135v-225l-735 -1007h757v-281z" />
    <glyph glyph-name="zdotaccent" unicode="&#x17c;" horiz-adv-x="1101" 
d="M692 1296q-51 -51 -127 -51t-127 51t-51 126.5t51 125.5q51 51 127 51t127 -51q51 -49 51 -125t-51 -127zM1012 920l-549 -680h569v-240h-966v197l559 677h-531v240h918v-194z" />
    <glyph glyph-name="Zcaron" unicode="&#x17d;" horiz-adv-x="1333" 
d="M575 1628l-303 361h275l133 -177l133 177h283l-305 -361h-216zM1257 0h-1185v217l749 1016h-721v280h1135v-225l-735 -1007h757v-281z" />
    <glyph glyph-name="zcaron" unicode="&#x17e;" horiz-adv-x="1101" 
d="M442 1282l-303 360h275l133 -176l133 176h283l-306 -360h-215zM1012 920l-549 -680h569v-240h-966v197l559 677h-531v240h918v-194z" />
    <glyph glyph-name="Scommaaccent" unicode="&#x218;" horiz-adv-x="1224" 
d="M909 813q258 -126 258 -377q0 -203 -153 -332t-402 -129q-178 0 -329 74t-244 209l174 211q73 -102 178 -156.5t223 -54.5q94 0 155.5 45t61.5 117q0 94 -137 158q-11 6 -149 59q-109 43 -178 82q-240 138 -240 377q0 190 143 315q145 127 373 127q296 0 498 -205
l-162 -221q-61 66 -153 103.5t-179 37.5q-90 0 -142 -39.5t-52 -105.5q0 -89 122 -150l150 -65q110 -46 184 -80zM606 -88q77 0 128.5 -51.5t51.5 -134.5q0 -97 -73 -191t-228 -201l-100 125q106 77 166 140q-50 12 -83.5 54.5t-33.5 96.5q0 68 49.5 115t122.5 47z" />
    <glyph glyph-name="scommaaccent" unicode="&#x219;" horiz-adv-x="1003" 
d="M760 612q188 -99 188 -282q0 -156 -123 -258q-119 -101 -321 -101q-291 0 -461 215l154 183q60 -72 142.5 -114t166.5 -42q66 0 109.5 31t43.5 78q0 59 -79 96q-11 5 -134 51q-92 34 -143 59q-192 91 -192 289q0 147 114 242q113 94 303 94q238 0 392 -160l-144 -186
q-117 111 -256 111q-56 0 -91.5 -28t-35.5 -67q0 -67 99 -102q207 -77 268 -109zM502 -98q74 0 125 -52t51 -131q0 -95 -71 -184.5t-224 -198.5l-98 123q118 91 159 135q-47 12 -78.5 54.5t-31.5 93.5q0 67 48.5 113.5t119.5 46.5z" />
    <glyph glyph-name="uni021A" unicode="&#x21a;" horiz-adv-x="1228" 
d="M29 1221v292h1171v-292h-432v-1221h-307v1221h-432zM608 -59q77 0 128.5 -52t51.5 -135q0 -97 -73 -190t-228 -201l-100 125q109 79 166 139q-50 12 -83.5 55t-33.5 97q0 68 49.5 115t122.5 47z" />
    <glyph glyph-name="uni021B" unicode="&#x21b;" horiz-adv-x="944" 
d="M852 293l86 -227q-140 -93 -330 -93q-192 0 -290.5 112t-98.5 329v460h-182v242h184v395h287v-395h369v-242h-369v-442q0 -196 158 -196q87 0 186 57zM571 -100q74 0 125.5 -52t51.5 -131q0 -95 -71 -184.5t-224 -198.5l-99 123q121 93 160 135q-47 12 -79 54.5t-32 93.5
q0 67 48.5 113.5t119.5 46.5z" />
    <glyph glyph-name="uni0237" unicode="&#x237;" horiz-adv-x="600" 
d="M41 -475q-168 0 -254 57l53 230q90 -33 154 -33q186 0 186 219v1118h289v-1132q0 -222 -115.5 -340.5t-312.5 -118.5z" />
    <glyph glyph-name="circumflex" unicode="&#x2c6;" horiz-adv-x="1148" 
d="M354 1272h-274l303 360h215l305 -360h-282l-134 176z" />
    <glyph glyph-name="caron" unicode="&#x2c7;" horiz-adv-x="1122" 
d="M383 1276l-303 360h274l133 -176l134 176h282l-305 -360h-215z" />
    <glyph glyph-name="breve" unicode="&#x2d8;" horiz-adv-x="956" 
d="M467 1262q-167 0 -271 99t-114 271h227q5 -80 45.5 -128t112.5 -48t112.5 48t45.5 128h231q-11 -172 -115 -271t-274 -99z" />
    <glyph glyph-name="dotaccent" unicode="&#x2d9;" horiz-adv-x="614" 
d="M387 1280q-51 -51 -127 -51t-127 51t-51 126.5t51 125.5q51 51 127 51t127 -51q51 -50 51 -125.5t-51 -126.5z" />
    <glyph glyph-name="ring" unicode="&#x2da;" horiz-adv-x="782" 
d="M354 1219q-116 0 -194 75q-78 78 -78 185q0 108 78 186q81 78 194 78t191 -78q80 -77 80 -186q0 -108 -80 -185q-75 -75 -191 -75zM354 1374q43 0 74 32.5t31 76.5t-31 74t-74 30q-45 0 -76.5 -30t-31.5 -74t32 -76.5t76 -32.5z" />
    <glyph glyph-name="ogonek" unicode="&#x2db;" horiz-adv-x="737" 
d="M487 -295l64 -184q-103 -62 -217 -62q-116 0 -184 65.5t-68 170.5q0 204 264 342l174 -37q-85 -38 -143 -105t-58 -128t48 -78t120 16z" />
    <glyph glyph-name="tilde" unicode="&#x2dc;" horiz-adv-x="1132" 
d="M266 1288l-184 90q102 236 295 236q70 0 153 -45q87 -43 121 -43q68 0 121 96l182 -86q-41 -113 -113 -174.5t-163 -61.5q-66 0 -154 46q-89 47 -127 47q-79 0 -131 -105z" />
    <glyph glyph-name="hungarumlaut" unicode="&#x2dd;" horiz-adv-x="1114" 
d="M332 1270h-240l88 360h309zM743 1270h-243l116 360h320z" />
    <glyph glyph-name="uni0394" unicode="&#x394;" horiz-adv-x="1542" 
d="M1503 0h-1462v209l633 1304h196l633 -1304v-209zM770 1128l-381 -841h766z" />
    <glyph glyph-name="uni03A9" unicode="&#x3a9;" horiz-adv-x="1767" 
d="M793 0h-691v266h301q-127 80 -204.5 226.5t-77.5 322.5q0 305 221 514q220 211 543 211t540 -211q222 -210 222 -514q0 -176 -77.5 -322.5t-205.5 -226.5h301v-266h-690v272q162 60 258 195t96 305q0 202 -129 328q-126 129 -315 129q-191 0 -320 -129
q-129 -126 -129 -328q0 -170 97 -304.5t260 -195.5v-272z" />
    <glyph glyph-name="uni03BC" unicode="&#x3bc;" horiz-adv-x="1337" 
d="M918 561v535h288v-1096h-276v160q-89 -183 -289 -183q-153 0 -229 119v-542h-281v1542h289v-582q0 -132 61 -202t172 -70q120 0 192.5 84t72.5 235z" />
    <glyph glyph-name="pi" unicode="&#x3c0;" horiz-adv-x="1298" 
d="M506 0h-291v842h-154v254h1176v-254h-154v-842h-292v842h-285v-842z" />
    <glyph glyph-name="uni0401" unicode="&#x401;" horiz-adv-x="1304" 
d="M295 1802q0 69 49 117.5t121 48.5t121 -48.5t49 -117.5q0 -73 -49 -122.5t-121 -49.5t-121 49.5t-49 122.5zM903 1630q-72 0 -121 49.5t-49 122.5q0 69 49 117.5t121 48.5q69 0 118.5 -48.5t49.5 -117.5q0 -73 -49 -122.5t-119 -49.5zM1194 0h-1026v1513h1026v-282h-721
v-326h668v-282h-668v-340h721v-283z" />
    <glyph glyph-name="uni0410" unicode="&#x410;" 
d="M1409 0h-319l-113 328h-528l-117 -328h-318l578 1513h248zM891 598l-176 504l-180 -504h356z" />
    <glyph glyph-name="uni0411" unicode="&#x411;" horiz-adv-x="1363" 
d="M467 954h293q106 0 192.5 -22t143.5 -61t98.5 -86.5t63.5 -104t32 -108t10 -103.5q0 -200 -137 -334q-138 -135 -379 -135h-616v1513h987v-264h-688v-295zM467 266h266q123 0 188.5 58t65.5 153q0 93 -62 152t-180 59h-278v-422z" />
    <glyph glyph-name="uni0412" unicode="&#x412;" horiz-adv-x="1417" 
d="M1051 829q136 -34 211 -140t75 -249q0 -188 -131 -313q-130 -127 -348 -127h-690v1513h659q204 0 316 -112q114 -114 114 -264q0 -101 -57.5 -188.5t-148.5 -119.5zM776 1249h-309v-329h297q90 0 141 49.5t51 120.5q0 68 -49 113.5t-131 45.5zM467 266h332
q104 0 164.5 57.5t60.5 141.5q0 86 -59.5 143.5t-165.5 57.5h-332v-400z" />
    <glyph glyph-name="uni0413" unicode="&#x413;" horiz-adv-x="1136" 
d="M467 0h-299v1513h946v-272h-647v-1241z" />
    <glyph glyph-name="uni0414" unicode="&#x414;" horiz-adv-x="1634" 
d="M963 1513l438 -1239h172v-581h-293v307h-926v-307h-293v581h166l449 1239h287zM817 1126l-276 -852h549z" />
    <glyph glyph-name="uni0415" unicode="&#x415;" horiz-adv-x="1304" 
d="M1194 0h-1026v1513h1026v-282h-721v-326h668v-282h-668v-340h721v-283z" />
    <glyph glyph-name="uni0416" unicode="&#x416;" horiz-adv-x="2117" 
d="M2060 264l15 -256q-73 -31 -168 -31q-86 0 -170 35q-38 16 -121 99q-18 18 -51 69l-45 76q-1 2 -17 33.5t-30 54.5l-48 90q-40 74 -55 96q-23 34 -57 59t-68 25h-35v-616h-303v616h-35q-51 0 -88 -39.5t-90 -140.5l-47 -90l-47 -88l-45 -74q-31 -51 -51 -71
q-82 -82 -123 -99q-94 -35 -170 -35q-95 0 -168 31l16 256q50 -16 111 -16q72 0 125 65q44 54 215 349q62 86 76 100q-51 41 -103 129q-57 129 -67 149q-64 127 -107 177q-41 47 -114 47q-22 0 -86 -11l-23 244q65 39 158 39q149 0 229 -86q77 -80 182 -307q40 -82 52 -117
q3 -5 12.5 -23.5t17 -32.5t11.5 -18q25 -33 52 -45t81 -12h26v616h303v-616h27q49 0 78.5 9.5t48.5 35.5q26 43 33 57l18 39l47 107q104 226 180 307q83 86 232 86q93 0 158 -39l-23 -244q-61 11 -84 11q-74 0 -115 -47q-44 -51 -106 -177q-6 -10 -33.5 -68t-40.5 -81
q-14 -30 -41 -68.5t-53 -64.5q26 -26 72 -96q176 -304 213 -349q53 -65 127 -65q59 0 112 16z" />
    <glyph glyph-name="uni0417" unicode="&#x417;" horiz-adv-x="1259" 
d="M567 -25q-278 0 -530 152l115 246q216 -121 426 -121q130 0 205 53t75 141q0 85 -69.5 134t-188.5 49h-264v266h199q124 0 200 53.5t76 138.5q1 79 -63.5 127t-169.5 48q-171 0 -369 -121l-137 217q102 86 246 134t294 48q234 0 371 -119q141 -117 141 -280
q0 -106 -63 -191t-178 -127v-8q138 -36 214.5 -135.5t76.5 -237.5q0 -197 -162 -331q-160 -136 -445 -136z" />
    <glyph glyph-name="uni0418" unicode="&#x418;" horiz-adv-x="1605" 
d="M358 0h-190v1513h299v-997l780 997h191v-1513h-299v989z" />
    <glyph glyph-name="uni0419" unicode="&#x419;" horiz-adv-x="1605" 
d="M838 1583q-262 0 -449 236l154 159q77 -95 144.5 -133.5t150.5 -38.5t151 38.5t146 133.5l153 -159q-193 -236 -450 -236zM358 0h-190v1513h299v-997l780 997h191v-1513h-299v989z" />
    <glyph glyph-name="uni041A" unicode="&#x41a;" 
d="M1450 0h-373l-420 600l-186 -223v-377h-303v1513h303v-714l573 714h367l-555 -688z" />
    <glyph glyph-name="uni041B" unicode="&#x41b;" horiz-adv-x="1402" 
d="M348 0h-332l545 1513h289l534 -1513h-329l-350 1087z" />
    <glyph glyph-name="uni041C" unicode="&#x41c;" horiz-adv-x="1923" 
d="M467 0h-299v1513h201l594 -858l587 858h205v-1513h-303v858l-440 -633h-105l-440 633v-858z" />
    <glyph glyph-name="uni041D" unicode="&#x41d;" horiz-adv-x="1576" 
d="M471 0h-303v1513h303v-604h635v604h303v-1513h-303v616h-635v-616z" />
    <glyph glyph-name="uni041E" unicode="&#x41e;" horiz-adv-x="1736" 
d="M866 -25q-337 0 -561 224q-225 225 -225 553q0 329 227 559q229 229 561 229q333 0 559 -229q230 -230 230 -555q0 -326 -230 -553q-228 -228 -561 -228zM1341 756q0 209 -137 346q-139 139 -336 139t-336 -139q-137 -137 -137 -346q0 -206 135 -344q138 -138 338 -138
t338 138t135 344z" />
    <glyph glyph-name="uni041F" unicode="&#x41f;" horiz-adv-x="1576" 
d="M471 0h-303v1513h1241v-1513h-303v1221h-635v-1221z" />
    <glyph glyph-name="uni0420" unicode="&#x420;" horiz-adv-x="1308" 
d="M168 1513h559q266 0 399 -145q136 -145 136 -354t-140 -352q-140 -140 -417 -140h-234v-522h-303v1513zM471 797h244q113 0 175 62.5t62 158.5q0 93 -60 154t-161 61h-260v-436z" />
    <glyph glyph-name="uni0421" unicode="&#x421;" horiz-adv-x="1566" 
d="M860 -23q-328 0 -555 216q-223 216 -223 559q0 345 227 565q229 223 555 223q202 0 376.5 -85t275.5 -228l-203 -199q-180 219 -432 219q-206 0 -344 -141q-140 -140 -140 -354q0 -208 138 -346t344 -138q264 0 440 221l209 -190q-107 -146 -284.5 -234t-383.5 -88z" />
    <glyph glyph-name="uni0422" unicode="&#x422;" horiz-adv-x="1228" 
d="M461 0v1221h-432v292h1171v-292h-432v-1221h-307z" />
    <glyph glyph-name="uni0423" unicode="&#x423;" horiz-adv-x="1290" 
d="M287 -25q-114 0 -197 45l25 248q59 -26 127 -26q163 0 286 254l-481 1015h356l287 -684l264 684h349l-160 -360q-199 -460 -312 -694q-49 -99 -73 -144q-22 -44 -82 -127q-57 -76 -103 -112q-132 -99 -286 -99z" />
    <glyph glyph-name="uni0424" unicode="&#x424;" horiz-adv-x="1935" 
d="M1120 23v-187h-305v187q-334 27 -539 229q-202 205 -202 508q0 304 205 506t536 229v182h305v-182q332 -27 537 -229t205 -506q0 -303 -205 -508q-202 -202 -537 -229zM815 293v930q-198 -19 -317 -145.5t-119 -321.5q0 -196 117 -322q120 -126 319 -141zM1120 1223v-932
q198 17 316 143t118 322q0 195 -118 321t-316 146z" />
    <glyph glyph-name="uni0425" unicode="&#x425;" horiz-adv-x="1370" 
d="M365 0h-357l486 766l-453 747h350l295 -518l309 518h357l-478 -747l476 -766h-351l-315 530z" />
    <glyph glyph-name="uni0426" unicode="&#x426;" horiz-adv-x="1533" 
d="M1450 -307h-303v307h-979v1513h305v-1220h514v1220h305v-1220h158v-600z" />
    <glyph glyph-name="uni0427" unicode="&#x427;" horiz-adv-x="1429" 
d="M954 772v741h308v-1513h-308v483q-159 -57 -307 -57q-94 0 -173.5 16.5t-150.5 55.5t-120 99.5t-78 153.5t-29 212v550h305v-497q0 -157 64 -226t203 -69q146 0 286 51z" />
    <glyph glyph-name="uni0428" unicode="&#x428;" horiz-adv-x="2248" 
d="M2081 0h-1913v1513h305v-1220h498v1220h305v-1220h500v1220h305v-1513z" />
    <glyph glyph-name="uni0429" unicode="&#x429;" horiz-adv-x="2322" 
d="M2238 -307h-303v307h-1767v1513h305v-1220h498v1220h305v-1220h500v1220h305v-1220h157v-600z" />
    <glyph glyph-name="uni042A" unicode="&#x42a;" horiz-adv-x="1554" 
d="M946 1047q243 0 400 -142q155 -137 155 -389q0 -215 -139 -366q-138 -150 -410 -150h-583v1249h-338v264h637v-514q142 48 278 48zM668 274h229q145 0 218 65t73 185q0 122 -73 185t-206 63q-113 0 -241 -45v-453z" />
    <glyph glyph-name="uni042B" unicode="&#x42b;" horiz-adv-x="1961" 
d="M471 997h289q150 0 264 -47.5t172 -128.5q109 -152 109 -325q0 -212 -140 -355q-138 -141 -379 -141h-614v1513h299v-516zM1489 0v1513h305v-1513h-305zM471 268h264q121 0 188.5 65.5t67.5 168.5q0 101 -65 164t-183 63h-272v-461z" />
    <glyph glyph-name="uni042C" unicode="&#x42c;" horiz-adv-x="1353" 
d="M745 1047q243 0 400 -142q158 -140 158 -389q0 -214 -140 -366q-138 -150 -411 -150h-584v1513h299v-514q142 48 278 48zM467 274h229q145 0 218 65t73 185q0 248 -278 248q-115 0 -242 -47v-451z" />
    <glyph glyph-name="uni042D" unicode="&#x42d;" horiz-adv-x="1574" 
d="M711 1540q327 0 553 -223q229 -219 229 -565q0 -342 -225 -559q-227 -216 -553 -216q-206 0 -383.5 88t-284.5 234l209 190q176 -221 440 -221q170 0 295 94q128 94 170 254h-702v273h702q-43 161 -171.5 259.5t-295.5 98.5q-252 0 -432 -219l-203 199q101 143 275.5 228
t376.5 85z" />
    <glyph glyph-name="uni042E" unicode="&#x42e;" horiz-adv-x="2312" 
d="M1444 1540q330 0 559 -229t229 -555q0 -327 -229 -553q-228 -228 -561 -228q-297 0 -512 179q-213 179 -262 452h-195v-606h-305v1513h305v-614h195q53 279 268 459q218 182 508 182zM1917 756q0 209 -137 346q-139 139 -336 139t-336 -139q-137 -137 -137 -346
q0 -206 135 -344q138 -138 338 -138t338 138t135 344z" />
    <glyph glyph-name="uni042F" unicode="&#x42f;" horiz-adv-x="1386" 
d="M686 1513h533v-1513h-299v524q-88 -15 -218 -18l-299 -506h-348l348 553q-144 58 -215 177.5t-71 279.5q0 220 143 360q143 143 426 143zM711 772q95 0 209 19v444h-215q-277 0 -277 -229q0 -234 283 -234z" />
    <glyph glyph-name="uni0430" unicode="&#x430;" horiz-adv-x="1388" 
d="M981 983v133h274v-1116h-274v129q-144 -156 -356 -156q-243 0 -398 168t-155 422q0 251 157 416q156 166 396 166q210 0 356 -162zM985 559q0 131 -90 227q-89 95 -223 95q-137 0 -226 -95q-86 -95 -86 -227q0 -134 89 -229q88 -94 223 -94t223 94q90 96 90 229z" />
    <glyph glyph-name="uni0431" unicode="&#x431;" horiz-adv-x="1406" 
d="M780 1098q216 0 385 -152q168 -149 168 -401q0 -246 -164 -410t-438 -164q-167 0 -297 66t-205 184q-145 231 -145 555q0 312 132 502.5t370 247.5q33 8 139 26q14 2 133 27q52 14 128 52.5t149 94.5l110 -233q-82 -85 -178 -123q-89 -32 -322 -80q-98 -20 -152 -41.5
t-108 -66.5q-109 -85 -133 -328q61 115 176 179.5t252 64.5zM1040 541q0 127 -88 215q-90 90 -215 90t-217 -86q-90 -84 -90 -215q0 -128 86 -223q87 -93 217 -93q129 0 219 90q88 91 88 222z" />
    <glyph glyph-name="uni0432" unicode="&#x432;" horiz-adv-x="1320" 
d="M973 866q130 -37 203 -145t73 -264q0 -197 -151 -342q-151 -142 -408 -142q-229 0 -395 125q-88 69 -137 196.5t-49 301.5v373q0 308 157 465q159 159 416 159q223 0 358 -114q138 -114 138 -303q0 -101 -57 -188t-148 -122zM678 1329q-131 0 -205 -103t-74 -272v-14h254
q121 0 179.5 55.5t58.5 143.5q0 90 -57 140t-156 50zM692 238q120 0 192 66t72 167q0 103 -63.5 162t-194.5 59h-299v-94q0 -179 77 -269.5t216 -90.5z" />
    <glyph glyph-name="uni0433" unicode="&#x433;" horiz-adv-x="1042" 
d="M508 -27q-209 0 -325.5 84t-116.5 228q0 105 55.5 185.5t142.5 121.5q44 21 122.5 52t123.5 50.5t82 50t37 64.5q0 43 -38.5 68.5t-113.5 25.5q-145 0 -305 -63l-68 219q207 86 422 86q193 0 308.5 -79.5t115.5 -217.5q0 -76 -31 -135t-80 -95.5t-109 -65.5t-119.5 -51
t-108.5 -45t-80 -55t-31 -73q0 -109 178 -109q176 0 351 88l63 -227q-223 -107 -475 -107z" />
    <glyph glyph-name="uni0434" unicode="&#x434;" horiz-adv-x="1380" 
d="M985 993v123h266v-975q0 -300 -166 -458t-471 -158q-210 0 -454 84l61 235q189 -69 383 -69q183 0 276 79t93 230v57q-128 -143 -344 -143q-247 0 -402 162t-155 409q0 248 164 412t405 164q204 0 344 -152zM362 567q0 -138 89 -227q90 -90 221 -90t221 90q88 91 88 227
t-88 224q-90 90 -221 90t-221 -90q-89 -89 -89 -224z" />
    <glyph glyph-name="uni0435" unicode="&#x435;" horiz-adv-x="1282" 
d="M1214 584q0 -52 -10 -127h-837q62 -238 325 -238q90 0 189 31.5t172 81.5l114 -203q-213 -154 -487 -154q-295 0 -451 170q-155 168 -155 414q0 255 162 420q163 166 419 166q244 0 402 -152q157 -151 157 -409zM655 905q-109 0 -185.5 -62t-102.5 -171h567
q-20 109 -94.5 171t-184.5 62z" />
    <glyph glyph-name="uni0436" unicode="&#x436;" horiz-adv-x="1814" 
d="M1759 227l13 -221q-70 -24 -152 -24q-80 0 -152 26q-14 5 -30.5 15t-26.5 17.5t-28 22t-19 15.5q-37 37 -74 98l-30 55q-21 41 -31 54q-44 76 -76.5 106.5t-75.5 30.5h-30v-424h-281v424h-29q-43 0 -74.5 -30t-76.5 -107l-35 -62l-39 -63q-3 -4 -16 -21.5t-23 -32.5
q-10 -14 -19.5 -24.5t-21 -19.5t-18.5 -14.5t-23.5 -15.5t-25.5 -16q-59 -34 -170 -34q-81 0 -152 24l12 221q50 -12 88 -12q59 0 95 39q31 31 145 199l29 41q40 54 51 65q-33 20 -64 66q-5 9 -12 21t-10 18q-8 22 -31 63q-5 9 -15.5 29.5t-13 25.5t-9.5 18t-11 18.5
t-10.5 14t-14.5 17.5q-19 27 -43 37t-59 10q-38 0 -72 -6l-18 211q60 31 141 31q125 0 197 -56t131 -188l43 -94q36 -63 37 -64q41 -47 114 -47h23v432h281v-432h22q49 -8 102 33q19 11 43 67q10 15 23 50q17 39 27 55q59 132 130.5 188t198.5 56q82 0 142 -31l-19 -211
q-35 6 -71 6q-37 0 -60 -9.5t-45 -37.5t-33.5 -47t-38.5 -76q-9 -28 -22 -45q-7 -20 -21 -39q-37 -58 -62 -76q-5 -5 -11 -8q11 -11 51 -65q126 -193 162 -232q47 -47 106 -47q39 0 88 12z" />
    <glyph glyph-name="uni0437" unicode="&#x437;" horiz-adv-x="1140" 
d="M526 -471q-278 0 -514 166l103 223q193 -129 368 -129q134 0 211.5 61.5t77.5 165.5q0 98 -70 153.5t-192 55.5h-217v248h149q137 0 213 59.5t76 153.5q0 90 -66.5 143.5t-168.5 53.5q-152 0 -334 -129l-129 202q93 84 230.5 136.5t275.5 52.5q213 0 352 -121t139 -293
q0 -110 -62 -200t-171 -134v-8q128 -35 204 -141t76 -246q0 -201 -147 -336q-146 -137 -404 -137z" />
    <glyph glyph-name="uni0438" unicode="&#x438;" horiz-adv-x="1335" 
d="M915 1116h289v-1116h-278v158q-44 -80 -149.5 -132.5t-231.5 -52.5q-182 0 -305 117q-121 118 -121 359v667h289v-624q0 -123 58 -188.5t167 -65.5q130 0 206 80.5t76 220.5v577z" />
    <glyph glyph-name="uni0439" unicode="&#x439;" horiz-adv-x="1335" 
d="M670 1190q-235 0 -404 211l140 145q67 -86 128 -120.5t136 -34.5t136 34.5t132 120.5l137 -145q-172 -211 -405 -211zM915 1116h289v-1116h-278v158q-44 -80 -149.5 -132.5t-231.5 -52.5q-182 0 -305 117q-121 118 -121 359v667h289v-624q0 -123 58 -188.5t167 -65.5
q130 0 206 80.5t76 220.5v577z" />
    <glyph glyph-name="uni043A" unicode="&#x43a;" horiz-adv-x="1193" 
d="M1219 0h-355l-368 477l-76 -67v-410h-289v1556h289v-821l405 381h365l-498 -457z" />
    <glyph glyph-name="uni043B" unicode="&#x43b;" horiz-adv-x="1245" 
d="M336 0h-320l469 1116h285l459 -1116h-320l-280 764z" />
    <glyph glyph-name="uni043C" unicode="&#x43c;" horiz-adv-x="1599" 
d="M412 0h-281v1116h207l463 -596l463 596h206v-1116h-280v592l-340 -422h-100l-338 422v-592z" />
    <glyph glyph-name="uni043D" unicode="&#x43d;" horiz-adv-x="1288" 
d="M870 688v428h287v-1116h-287v430h-452v-430h-287v1116h287v-428h452z" />
    <glyph glyph-name="uni043E" unicode="&#x43e;" horiz-adv-x="1339" 
d="M72 559q0 248 168 416q169 172 430 172t430 -172q168 -168 168 -416q0 -250 -168 -418q-170 -170 -430 -170t-430 170q-168 168 -168 418zM449 332q89 -92 221 -92q130 0 219 92q90 96 90 227q0 132 -90 225t-219 93q-131 0 -221 -93q-89 -92 -89 -225q0 -132 89 -227z
" />
    <glyph glyph-name="uni043F" unicode="&#x43f;" horiz-adv-x="1316" 
d="M420 0h-289v1116h283v-155q45 83 139.5 134.5t210.5 51.5q182 0 309 -121t127 -344v-682h-289v604q0 131 -63.5 204t-171.5 73q-115 0 -185.5 -79t-70.5 -204v-598z" />
    <glyph glyph-name="uni0440" unicode="&#x440;" horiz-adv-x="1394" 
d="M772 1145q237 0 393 -170t156 -416q0 -244 -158 -416q-156 -170 -393 -170q-206 0 -350 156v-588h-289v1575h287v-137q144 166 354 166zM721 238q137 0 223 92t86 227t-86 227q-87 93 -223 93q-134 0 -221 -93q-86 -92 -86 -227t86 -227t221 -92z" />
    <glyph glyph-name="uni0441" unicode="&#x441;" horiz-adv-x="1234" 
d="M664 -25q-259 0 -426 164q-166 163 -166 420q0 258 168 420q169 166 432 166q173 0 312.5 -82t207.5 -229l-231 -127q-102 170 -285 170q-137 0 -227 -93q-91 -91 -91 -225q0 -138 88 -229q90 -90 224 -90q88 0 167.5 47t116.5 121l234 -138q-72 -136 -212.5 -215.5
t-311.5 -79.5z" />
    <glyph glyph-name="uni0442" unicode="&#x442;" horiz-adv-x="2052" 
d="M1481 1147q200 0 325 -125q129 -126 129 -348v-674h-288v621q0 125 -61 192.5t-163 67.5q-110 0 -177.5 -73.5t-67.5 -195.5v-612h-289v618q0 123 -60.5 193t-164.5 70q-107 0 -175.5 -74t-68.5 -197v-610h-289v1116h283v-160q48 88 140 140t200 51q107 0 195.5 -51.5
t131.5 -145.5q61 92 168 144.5t232 52.5z" />
    <glyph glyph-name="uni0443" unicode="&#x443;" horiz-adv-x="1226" 
d="M637 389l254 727h315l-448 -1171q-83 -216 -196 -318t-277 -102q-127 0 -215 55l49 242q75 -37 143 -37q134 0 217 176l23 51l-488 1104h334z" />
    <glyph glyph-name="uni0444" unicode="&#x444;" horiz-adv-x="1742" 
d="M1671 557q0 -266 -180 -418q-184 -152 -483 -164v-440h-273v440q-300 12 -483 166q-180 152 -180 418q0 263 180 418q185 159 483 168v411h273v-411q298 -9 481 -166q182 -156 182 -422zM1008 895v-676q179 1 281 92.5t102 247.5q0 155 -100 243.5t-283 92.5zM352 559
q0 -155 102 -244t281 -94v674q-182 -4 -282.5 -93t-100.5 -243z" />
    <glyph glyph-name="uni0445" unicode="&#x445;" horiz-adv-x="1134" 
d="M754 561l358 -561h-332l-213 367l-223 -367h-334l371 569l-330 547h330l190 -342l205 342h326z" />
    <glyph glyph-name="uni0446" unicode="&#x446;" horiz-adv-x="1474" 
d="M1204 1116v-764q-1 -96 57.5 -130t200.5 -34v-557h-254v351q-105 0 -176.5 58t-81.5 159q-42 -99 -154.5 -162.5t-250.5 -63.5q-182 0 -305 117q-121 118 -121 359v667h289v-624q0 -123 58 -188.5t167 -65.5q130 0 206 80.5t76 220.5v577h289z" />
    <glyph glyph-name="uni0447" unicode="&#x447;" horiz-adv-x="1202" 
d="M782 592v524h289v-1116h-289v336q-135 -33 -247 -33q-195 0 -320 84q-137 98 -137 354v375h287v-354q0 -197 202 -197q113 0 215 27z" />
    <glyph glyph-name="uni0448" unicode="&#x448;" horiz-adv-x="2002" 
d="M1583 522v594h289v-1116h-273v158q-41 -78 -137 -131q-97 -54 -209 -54q-106 0 -191.5 48t-127.5 139q-54 -91 -155.5 -139t-221.5 -48q-186 0 -311 119q-127 121 -127 367v657h289v-629q0 -122 53 -185.5t153 -63.5q111 0 174.5 75.5t63.5 208.5v594h289v-637
q0 -117 52.5 -179t149.5 -62q109 0 174.5 78t65.5 206z" />
    <glyph glyph-name="uni0449" unicode="&#x449;" horiz-adv-x="2148" 
d="M1872 1116v-764q0 -96 60 -130t200 -34v-557h-252v351q-106 0 -177 58t-81 159q-42 -101 -146 -163.5t-233 -62.5q-103 0 -185 48t-124 139q-55 -91 -157.5 -139t-219.5 -48q-186 0 -311 119q-127 121 -127 367v657h289v-629q0 -122 53 -185.5t153 -63.5
q111 0 174.5 75.5t63.5 208.5v594h289v-637q0 -117 51.5 -179t148.5 -62q110 0 176 78t66 206v594h289z" />
    <glyph glyph-name="uni044A" unicode="&#x44a;" horiz-adv-x="1339" 
d="M813 909q201 0 332 -131q135 -129 135 -332q0 -196 -127 -335q-126 -138 -383 -138q-86 0 -157 18.5t-121 49.5t-88 75t-61.5 91t-38 103t-20 105.5t-5.5 102.5v354h-254v244h536v-276q115 69 252 69zM776 223q103 0 161 61t58 160q0 100 -59 157.5t-168 57.5
q-111 0 -207 -51v-127q0 -258 215 -258z" />
    <glyph glyph-name="uni044B" unicode="&#x44b;" horiz-adv-x="1630" 
d="M408 774h227q121 0 213.5 -34t142.5 -95q94 -108 94 -256q0 -168 -116 -278q-114 -111 -324 -111h-514v1116h277v-342zM1212 0v1116h287v-1116h-287zM406 236h210q95 0 142 41t47 112q0 65 -46.5 106.5t-133.5 41.5h-219v-301z" />
    <glyph glyph-name="uni044C" unicode="&#x44c;" horiz-adv-x="1177" 
d="M647 909q202 0 336 -131q135 -129 135 -332q0 -196 -127 -335q-126 -138 -383 -138q-143 0 -247 50.5t-156 138.5q-90 157 -90 356v598h284v-272q115 65 248 65zM614 223q103 0 160 61t57 160q0 100 -58.5 157.5t-166.5 57.5q-106 0 -207 -49v-129q0 -258 215 -258z" />
    <glyph glyph-name="uni044D" unicode="&#x44d;" horiz-adv-x="1234" 
d="M573 1145q261 0 424 -166q166 -163 166 -420q0 -256 -164 -420t-419 -164q-176 0 -317 80t-214 215l227 136q37 -75 120.5 -125t174.5 -50q102 0 184 62t113 162h-399v209h399q-32 99 -115.5 160t-187.5 61q-90 0 -167.5 -47t-125.5 -127l-227 123q71 149 212 230t316 81
z" />
    <glyph glyph-name="uni044E" unicode="&#x44e;" horiz-adv-x="1804" 
d="M1135 1147q261 0 430 -172q168 -168 168 -416q0 -250 -168 -418q-170 -170 -430 -170q-228 0 -387 129q-159 135 -199 336h-133v-436h-285v1556h285v-884h131q38 209 196 340q163 135 392 135zM913 332q89 -92 222 -92q130 0 219 92q90 96 90 227q0 132 -90 225t-219 93
q-132 0 -222 -93q-88 -91 -88 -225q0 -133 88 -227z" />
    <glyph glyph-name="uni044F" unicode="&#x44f;" horiz-adv-x="1187" 
d="M596 1116h461v-1116h-281v369q-120 -13 -186 -15l-228 -354h-315l272 395q-217 91 -217 340q0 175 127 278t367 103zM598 584q98 0 178 14v285h-172q-215 0 -215 -152q0 -147 209 -147z" />
    <glyph glyph-name="uni0451" unicode="&#x451;" horiz-adv-x="1282" 
d="M279 1397q0 69 50 118.5t122 49.5t122 -49.5t50 -118.5q0 -75 -49 -124.5t-123 -49.5t-123 49.5t-49 124.5zM897 1223q-74 0 -124 49.5t-50 124.5q0 72 50 120t124 48q71 0 120.5 -49.5t49.5 -118.5q0 -75 -49 -124.5t-121 -49.5zM1214 584q0 -52 -10 -127h-837
q62 -238 325 -238q90 0 189 31.5t172 81.5l114 -203q-213 -154 -487 -154q-295 0 -451 170q-155 168 -155 414q0 255 162 420q163 166 419 166q244 0 402 -152q157 -151 157 -409zM655 905q-109 0 -185.5 -62t-102.5 -171h567q-20 109 -94.5 171t-184.5 62z" />
    <glyph glyph-name="Wgrave" unicode="&#x1e80;" horiz-adv-x="2181" 
d="M1102 2003l133 -375h-272l-199 375h338zM770 0h-256l-502 1513h332l305 -1017l344 1017h193l350 -1017l301 1017h332l-500 -1513h-256l-321 991z" />
    <glyph glyph-name="wgrave" unicode="&#x1e81;" horiz-adv-x="1796" 
d="M915 1642l127 -360h-256l-192 360h321zM649 2h-252l-381 1114h303l224 -731l252 731h202l260 -731l218 731h303l-377 -1114h-252l-252 698z" />
    <glyph glyph-name="Wacute" unicode="&#x1e82;" horiz-adv-x="2181" 
d="M1237 1626h-266l133 375h334zM770 0h-256l-502 1513h332l305 -1017l344 1017h193l350 -1017l301 1017h332l-500 -1513h-256l-321 991z" />
    <glyph glyph-name="wacute" unicode="&#x1e83;" horiz-adv-x="1796" 
d="M1032 1282h-256l127 360h322zM649 2h-252l-381 1114h303l224 -731l252 731h202l260 -731l218 731h303l-377 -1114h-252l-252 698z" />
    <glyph glyph-name="Wdieresis" unicode="&#x1e84;" horiz-adv-x="2181" 
d="M702 1802q0 69 49 117.5t121 48.5t121 -48.5t49 -117.5q0 -73 -49 -122.5t-121 -49.5t-121 49.5t-49 122.5zM1311 1630q-73 0 -121.5 49t-48.5 123q0 69 49 117.5t121 48.5q69 0 118.5 -48.5t49.5 -117.5q0 -73 -49 -122.5t-119 -49.5zM770 0h-256l-502 1513h332
l305 -1017l344 1017h193l350 -1017l301 1017h332l-500 -1513h-256l-321 991z" />
    <glyph glyph-name="wdieresis" unicode="&#x1e85;" horiz-adv-x="1796" 
d="M504 1436q0 69 50 118.5t122 49.5t122 -49.5t50 -118.5q0 -75 -49 -124.5t-123 -49.5t-123 49.5t-49 124.5zM1122 1262q-74 0 -124 49.5t-50 124.5q0 72 50 120t124 48q72 0 121 -49t49 -119q0 -75 -49 -124.5t-121 -49.5zM649 2h-252l-381 1114h303l224 -731l252 731
h202l260 -731l218 731h303l-377 -1114h-252l-252 698z" />
    <glyph glyph-name="Ygrave" unicode="&#x1ef2;" horiz-adv-x="1390" 
d="M721 2003l133 -375h-272l-199 375h338zM1020 1513h350l-524 -989v-524h-303v524l-518 989h350l319 -663z" />
    <glyph glyph-name="ygrave" unicode="&#x1ef3;" horiz-adv-x="1226" 
d="M641 1642l127 -360h-256l-193 360h322zM639 389l254 727h315l-448 -1171q-83 -216 -196 -318t-277 -102q-127 0 -215 55l49 242q75 -37 143 -37q134 0 217 176l23 51l-488 1104h334z" />
    <glyph glyph-name="uni2009" unicode="&#x2009;" horiz-adv-x="159" 
 />
    <glyph glyph-name="endash" unicode="&#x2013;" horiz-adv-x="1474" 
d="M1352 432h-1229v270h1229v-270z" />
    <glyph glyph-name="emdash" unicode="&#x2014;" horiz-adv-x="2127" 
d="M2005 432h-1882v270h1882v-270z" />
    <glyph glyph-name="quoteleft" unicode="&#x2018;" horiz-adv-x="514" 
d="M268 1378h4q60 0 102 -43.5t42 -105.5q0 -68 -50 -116t-120 -48q-78 0 -128 54t-50 136q0 215 301 408l82 -117q-143 -107 -183 -168z" />
    <glyph glyph-name="quoteright" unicode="&#x2019;" horiz-adv-x="509" 
d="M279 1653q76 0 127 -54.5t51 -138.5q0 -212 -303 -405l-80 114q144 109 180 170l-2 -2q-57 0 -100 45.5t-43 106.5q0 67 50.5 115.5t119.5 48.5z" />
    <glyph glyph-name="quotesinglbase" unicode="&#x201a;" horiz-adv-x="528" 
d="M260 297q76 0 127 -54.5t51 -138.5q0 -212 -303 -405l-80 115q146 110 181 170l-3 -2q-57 0 -100 45t-43 106q0 67 50.5 115.5t119.5 48.5z" />
    <glyph glyph-name="quotedblleft" unicode="&#x201c;" horiz-adv-x="1030" 
d="M375 1663l82 -117q-143 -107 -183 -168h5q60 0 101.5 -43.5t41.5 -105.5q0 -68 -50 -116t-120 -48q-78 0 -128 54t-50 136q0 215 301 408zM784 1378h4q60 0 102 -43.5t42 -105.5q0 -68 -50 -116t-120 -48q-78 0 -128 54t-50 136q0 215 301 408l82 -117
q-143 -107 -183 -168z" />
    <glyph glyph-name="quotedblright" unicode="&#x201d;" horiz-adv-x="1017" 
d="M274 1659q78 0 128.5 -54.5t50.5 -136.5q0 -214 -301 -407l-82 117q141 106 182 168h-4q-60 0 -102 43.5t-42 105.5q0 68 50 116t120 48zM784 1659q78 0 128.5 -54.5t50.5 -136.5q0 -214 -301 -407l-82 117q141 106 182 168h-4q-60 0 -102 43.5t-42 105.5q0 68 50 116
t120 48z" />
    <glyph glyph-name="quotedblbase" unicode="&#x201e;" horiz-adv-x="1034" 
d="M254 295q78 0 128 -54.5t50 -136.5q0 -214 -301 -407l-82 117q141 106 182 168h-4q-60 0 -101.5 43.5t-41.5 105.5q0 68 50 116t120 48zM764 295q78 0 128 -54.5t50 -136.5q0 -214 -301 -407l-82 117q141 106 182 168h-4q-60 0 -101.5 43.5t-41.5 105.5q0 68 50 116
t120 48z" />
    <glyph glyph-name="dagger" unicode="&#x2020;" horiz-adv-x="1040" 
d="M662 1094h303v-263h-303v-1196h-283v1196h-303v263h303v645h283v-645z" />
    <glyph glyph-name="daggerdbl" unicode="&#x2021;" horiz-adv-x="1040" 
d="M965 1180v-262h-303v-461h303v-262h-303v-560h-283v560h-303v262h303v461h-303v262h303v559h283v-559h303z" />
    <glyph glyph-name="bullet" unicode="&#x2022;" horiz-adv-x="937" 
d="M467 362q-137 0 -236 99q-98 98 -98 235q0 140 98 238q97 100 236 100q141 0 238 -100q100 -97 100 -238q0 -138 -100 -235q-99 -99 -238 -99z" />
    <glyph glyph-name="ellipsis" unicode="&#x2026;" horiz-adv-x="1523" 
d="M254 -33q-72 0 -121 48t-49 120q0 69 49 116.5t121 47.5q68 0 116 -47.5t48 -116.5q0 -71 -48 -119.5t-116 -48.5zM764 -33q-72 0 -121 48t-49 120q0 69 49 116.5t121 47.5q68 0 116 -47.5t48 -116.5q0 -71 -48 -119.5t-116 -48.5zM1272 -33q-72 0 -121 48t-49 120
q0 69 49 116.5t121 47.5q68 0 116 -47.5t48 -116.5q0 -71 -48 -119.5t-116 -48.5z" />
    <glyph glyph-name="perthousand" unicode="&#x2030;" horiz-adv-x="2691" 
d="M63 1161q0 157 115 269q113 110 277 110q161 0 274 -110q115 -112 115 -269q0 -152 -115 -264q-115 -109 -274 -109q-162 0 -277 109q-115 112 -115 264zM508 0h-281l1102 1513h283zM455 989q70 0 122 51t52 123t-52 123t-122 51q-74 0 -125 -50.5t-51 -123.5
t51.5 -123.5t124.5 -50.5zM1006 348q0 157 112 266q114 111 277 111q162 0 276 -111q115 -112 115 -266q0 -152 -115 -264q-115 -109 -276 -109q-162 0 -277 109q-112 109 -112 264zM1860 348q0 156 114 264q114 111 277 111q162 0 276 -111q115 -109 115 -264
q0 -152 -115 -264q-115 -109 -276 -109q-162 0 -277 109q-114 111 -114 264zM2431 348q0 77 -53 129.5t-127 52.5t-127 -52.5t-53 -129.5q0 -74 53 -126t127 -52t127 52t53 126zM1571 350q0 73 -51 123.5t-125 50.5q-72 0 -123 -50.5t-51 -123.5q0 -74 50.5 -124t123.5 -50
t124.5 50t51.5 124z" />
    <glyph glyph-name="guilsinglleft" unicode="&#x2039;" horiz-adv-x="739" 
d="M647 180h-301l-278 416l278 416h301l-287 -416z" />
    <glyph glyph-name="guilsinglright" unicode="&#x203a;" horiz-adv-x="739" 
d="M672 596l-279 -416h-301l287 416l-287 416h301z" />
    <glyph glyph-name="fraction" unicode="&#x2044;" horiz-adv-x="436" 
d="M-252 0h-235l1183 1513h232z" />
    <glyph glyph-name="uni2070" unicode="&#x2070;" horiz-adv-x="790" 
d="M653 1143q-89 -117 -258 -117q-171 0 -260 117q-88 119 -88 303t88 303t260 119q170 0 258 -119q90 -122 90 -303t-90 -303zM395 1204q150 0 150 242t-150 242q-147 0 -147 -242t147 -242z" />
    <glyph glyph-name="uni2074" unicode="&#x2074;" horiz-adv-x="757" 
d="M606 1374h86v-153h-86v-183h-174v183h-364l-39 114l430 514h147v-475zM432 1608l-194 -234h194v234z" />
    <glyph glyph-name="uni2075" unicode="&#x2075;" horiz-adv-x="698" 
d="M360 1563q124 0 200.5 -74.5t76.5 -190.5q0 -119 -87 -196.5t-226 -77.5q-162 0 -287 94l76 148q110 -72 200 -72q65 0 103.5 31.5t38.5 81.5q0 46 -36 77t-95 31q-74 0 -138 -55l-94 88l49 397h443v-159h-314l-18 -142q59 19 108 19z" />
    <glyph glyph-name="uni2076" unicode="&#x2076;" horiz-adv-x="724" 
d="M674 1300q0 -119 -85.5 -197.5t-215.5 -78.5q-154 0 -239 108t-85 285q0 191 96 322q95 129 279 129q136 0 233 -72l-73 -135q-71 47 -150 47q-90 0 -148 -63t-69 -160q63 78 182 78q121 0 198 -73.5t77 -189.5zM250 1298q0 -50 35 -84t88 -34q54 0 89.5 34.5t35.5 85.5
t-35.5 84t-89.5 33t-88.5 -34t-34.5 -85z" />
    <glyph glyph-name="uni2077" unicode="&#x2077;" horiz-adv-x="612" 
d="M27 1673v172h559v-131l-305 -672h-205l293 631h-342z" />
    <glyph glyph-name="uni2078" unicode="&#x2078;" horiz-adv-x="770" 
d="M385 1026q-145 0 -231 65.5t-86 170.5q0 69 43 124t118 84v3q-127 59 -127 174q0 99 78 160t205 61t205 -61t78 -160q0 -119 -131 -174v-3q79 -30 122 -84.5t43 -121.5q0 -104 -86.5 -171t-230.5 -67zM494 1626q0 42 -30 68t-79 26t-80 -26.5t-31 -67.5q0 -39 31 -65.5
t80 -26.5t79 26.5t30 65.5zM385 1178q57 0 94 29.5t37 76.5q0 48 -36 77.5t-95 29.5q-61 0 -98 -29.5t-37 -77.5q0 -47 37.5 -76.5t97.5 -29.5z" />
    <glyph glyph-name="uni2079" unicode="&#x2079;" horiz-adv-x="747" 
d="M356 1868q155 0 238.5 -107.5t83.5 -290.5q0 -192 -94 -317q-95 -127 -277 -127q-139 0 -233 70l69 137q77 -47 156 -47q89 0 144.5 60.5t66.5 162.5q-74 -80 -184 -80q-122 0 -196.5 73t-74.5 187q0 123 84 201t217 78zM356 1714q-54 0 -89.5 -35t-35.5 -86t34.5 -83.5
t88.5 -32.5t88.5 32.5t34.5 83.5t-35 86t-86 35z" />
    <glyph glyph-name="uni2080" unicode="&#x2080;" horiz-adv-x="790" 
d="M653 -211q-88 -119 -258 -119q-172 0 -260 119q-88 116 -88 301q0 184 88 303t260 119q170 0 258 -119q90 -122 90 -303q0 -182 -90 -301zM395 -152q150 0 150 242t-150 242q-147 0 -147 -242t147 -242z" />
    <glyph glyph-name="uni2081" unicode="&#x2081;" horiz-adv-x="565" 
d="M20 266l295 223h144v-806h-193v540l-145 -108z" />
    <glyph glyph-name="uni2082" unicode="&#x2082;" horiz-adv-x="708" 
d="M514 25l-166 -172h285v-170h-557v153l264 266q94 94 94 154q0 37 -27.5 60.5t-68.5 23.5q-84 0 -197 -107l-92 140q130 139 301 139q122 0 200.5 -71t78.5 -183q0 -115 -115 -233z" />
    <glyph glyph-name="uni2083" unicode="&#x2083;" horiz-adv-x="681" 
d="M20 -250l78 150q113 -58 195 -58q79 -5 110.5 41.5t-2 92.5t-108.5 40h-109v162h97q51 0 85.5 21.5t34.5 60.5q0 37 -30.5 57.5t-75.5 20.5q-76 0 -162 -57l-92 135q116 96 276 96q121 0 199 -63q80 -62 80 -152q0 -65 -40 -113t-107 -69v-4q79 -19 123 -71.5t44 -125.5
q4 -79 -50 -139.5t-139 -86.5t-195.5 -12t-211.5 74z" />
    <glyph glyph-name="uni2084" unicode="&#x2084;" horiz-adv-x="757" 
d="M606 18h86v-153h-86v-182h-174v182h-364l-39 115l430 514h147v-476zM432 252l-194 -234h194v234z" />
    <glyph glyph-name="uni2085" unicode="&#x2085;" horiz-adv-x="698" 
d="M360 207q124 0 200.5 -74t76.5 -190q0 -119 -87 -197t-226 -78q-162 0 -287 94l76 148q110 -72 200 -72q65 0 103.5 31.5t38.5 81.5q0 46 -36 77t-95 31q-74 0 -138 -55l-94 88l49 397h443v-159h-314l-18 -142q59 19 108 19z" />
    <glyph glyph-name="uni2086" unicode="&#x2086;" horiz-adv-x="724" 
d="M674 -55q0 -119 -85.5 -198t-215.5 -79q-154 0 -239 108t-85 285q0 191 96 322q95 129 279 129q136 0 233 -72l-73 -135q-71 47 -150 47q-90 0 -148 -63t-69 -160q63 78 182 78q121 0 198 -73t77 -189zM250 -57q0 -50 35 -84.5t88 -34.5q54 0 89.5 35t35.5 86t-35.5 83.5
t-89.5 32.5t-88.5 -33.5t-34.5 -84.5z" />
    <glyph glyph-name="uni2087" unicode="&#x2087;" horiz-adv-x="612" 
d="M27 317v172h559v-131l-305 -671h-205l293 630h-342z" />
    <glyph glyph-name="uni2088" unicode="&#x2088;" horiz-adv-x="770" 
d="M385 -330q-145 0 -231 65.5t-86 170.5q0 69 43 124.5t118 84.5v2q-127 59 -127 174q0 99 78 160t205 61t205 -61t78 -160q0 -119 -131 -174v-2q79 -30 122 -85t43 -122q0 -104 -86.5 -171t-230.5 -67zM494 270q0 42 -30 68.5t-79 26.5t-80 -26.5t-31 -68.5
q0 -39 31 -65.5t80 -26.5t79 26.5t30 65.5zM385 -178q57 0 94 29.5t37 76.5q0 48 -36 77.5t-95 29.5q-61 0 -98 -29.5t-37 -77.5q0 -47 37.5 -76.5t97.5 -29.5z" />
    <glyph glyph-name="uni2089" unicode="&#x2089;" horiz-adv-x="747" 
d="M356 512q155 0 238.5 -107t83.5 -290q0 -193 -94 -318q-95 -127 -277 -127q-139 0 -233 70l69 137q77 -47 156 -47q89 0 144.5 60.5t66.5 162.5q-74 -80 -184 -80q-122 0 -196.5 73t-74.5 187q0 123 84 201t217 78zM356 358q-54 0 -89.5 -34.5t-35.5 -85.5t34.5 -84
t88.5 -33t88.5 33t34.5 84t-35 85.5t-86 34.5z" />
    <glyph glyph-name="Euro" unicode="&#x20ac;" horiz-adv-x="1570" 
d="M1137 506h-504q62 -116 171 -182t243 -66q189 0 370 102v-286q-174 -97 -405 -97q-251 0 -447 146q-195 145 -266 383h-242l80 194h127q-2 12 -2 56q0 41 2 53h-174l80 195h127q71 246 264 389q193 147 451 147q286 0 485 -141l-139 -238q-144 99 -309 99
q-133 0 -243.5 -68.5t-172.5 -187.5h704l-88 -195h-674q-2 -12 -2 -53q0 -44 2 -56h639z" />
    <glyph glyph-name="trademark" unicode="&#x2122;" horiz-adv-x="1673" 
d="M266 1352h-198v161h571v-161h-199v-555h-174v555zM1116 1120l287 393h121v-716h-170v368l-201 -272h-70l-200 272v-368h-170v716h121z" />
    <glyph glyph-name="estimated" unicode="&#x212e;" horiz-adv-x="1951" 
d="M989 -35q-378 0 -639 225q-260 224 -260 560q0 337 260 561q260 227 639 227q376 0 635 -223q264 -225 264 -576v-43q0 -10 -14 -10h-1405v-471q0 -5 8 -8q213 -148 512 -148q212 0 388 76t280 215l72 -59q-124 -153 -319 -239.5t-421 -86.5zM469 1286v-498h1040v500
q0 5 -6 8q-217 150 -514 150q-299 0 -516 -150q-4 -4 -4 -10z" />
    <glyph glyph-name="uni2150" unicode="&#x2150;" horiz-adv-x="1812" 
d="M504 709h-193v542l-145 -108l-100 151l294 224h144v-809zM180 0l1184 1513h231l-1179 -1513h-236zM1159 635v172h559v-131l-305 -672h-205l293 631h-342z" />
    <glyph glyph-name="uni2151" unicode="&#x2151;" horiz-adv-x="1855" 
d="M500 709h-193v542l-145 -108l-101 151l295 224h144v-809zM184 0l1184 1513h231l-1179 -1513h-236zM1454 829q155 0 238.5 -107t83.5 -290q0 -190 -95 -317t-276 -127q-142 0 -234 69l70 138q79 -48 156 -48q89 0 144.5 61t66.5 163q-74 -80 -185 -80q-122 0 -196 73
t-74 187q0 123 84 200.5t217 77.5zM1454 676q-54 0 -89.5 -35t-35.5 -86t34.5 -84t88.5 -33t88.5 33t34.5 84t-35 86t-86 35z" />
    <glyph glyph-name="uni2153" unicode="&#x2153;" horiz-adv-x="1792" 
d="M502 709h-193v542l-145 -108l-101 151l295 224h144v-809zM174 0l1184 1513h231l-1179 -1513h-236zM1536 434v-4q79 -19 123.5 -71.5t44.5 -125.5q4 -79 -50 -139.5t-139 -86.5t-195.5 -11.5t-211.5 74.5l78 149q111 -57 194 -57q79 -5 110.5 41.5t-2 92.5t-108.5 40h-108
v162h96q51 0 86 21.5t35 60.5q0 37 -31 57t-76 20q-75 0 -161 -57l-93 135q116 96 277 96q121 0 199 -63q79 -61 79 -152q0 -65 -40 -113t-107 -69z" />
    <glyph glyph-name="uni2154" unicode="&#x2154;" horiz-adv-x="1789" 
d="M94 711v153l264 266q95 95 95 154q0 37 -27.5 60.5t-69.5 23.5q-84 0 -196 -106l-92 139q130 139 301 139q122 0 200 -71t78 -183q0 -115 -115 -233l-165 -172h284v-170h-557zM236 0l1183 1513h232l-1182 -1513h-233zM1513 430v-4q79 -19 123.5 -71.5t44.5 -125.5
q4 -79 -50 -139.5t-139 -86.5t-195.5 -11.5t-211.5 74.5l78 149q111 -57 195 -57q79 -5 110.5 41.5t-2 92.5t-108.5 40h-109v162h97q51 0 85.5 21t34.5 60q0 37 -30.5 57.5t-75.5 20.5q-76 0 -162 -57l-92 135q116 96 276 96q121 0 199 -63q80 -62 80 -152q0 -65 -40.5 -113
t-107.5 -69z" />
    <glyph glyph-name="uni2155" unicode="&#x2155;" horiz-adv-x="1779" 
d="M500 709h-193v542l-145 -108l-101 151l295 224h144v-809zM176 0l1184 1513h231l-1181 -1513h-234zM1436 524q124 0 200 -74t76 -190q0 -119 -87 -196.5t-226 -77.5q-162 0 -287 94l76 147q109 -71 201 -71q65 0 103 31t38 81q0 48 -36 78.5t-95 30.5q-73 0 -137 -55
l-95 88l50 397h442v-160h-313l-19 -141q55 18 109 18z" />
    <glyph glyph-name="uni2156" unicode="&#x2156;" horiz-adv-x="1777" 
d="M92 711v153l264 266q95 95 95 154q0 37 -27.5 60.5t-69.5 23.5q-84 0 -196 -106l-92 139q130 139 301 139q122 0 200 -71t78 -183q0 -115 -115 -233l-165 -172h284v-170h-557zM229 0l1184 1513h232l-1180 -1513h-236zM1399 524q124 0 200 -74t76 -190q0 -119 -87 -196.5
t-226 -77.5q-162 0 -287 94l76 147q109 -71 201 -71q65 0 103 31t38 81q0 48 -36 78.5t-95 30.5q-73 0 -137 -55l-95 88l50 397h442v-160h-313l-19 -141q56 18 109 18z" />
    <glyph glyph-name="uni2157" unicode="&#x2157;" horiz-adv-x="1712" 
d="M313 870q79 -5 110.5 41.5t-2 92.5t-108.5 40h-108v162h96q51 0 86 21.5t35 60.5q0 37 -31 57.5t-76 20.5q-75 0 -161 -57l-93 135q116 96 277 96q121 0 199 -63q79 -61 79 -152q0 -65 -40 -113t-107 -69v-4q79 -19 123.5 -71.5t44.5 -125.5q4 -79 -50 -139.5t-139 -86.5
t-195.5 -12t-211.5 74l78 150q113 -58 194 -58zM166 0l1184 1513h231l-1180 -1513h-235zM1346 524q124 0 200 -74t76 -190q0 -119 -87 -196.5t-226 -77.5q-162 0 -287 94l76 147q109 -71 200 -71q65 0 103.5 31t38.5 81q0 48 -36 78.5t-95 30.5q-74 0 -138 -55l-94 88
l49 397h443v-160h-314l-18 -141q55 18 109 18z" />
    <glyph glyph-name="uni2158" unicode="&#x2158;" horiz-adv-x="1828" 
d="M633 711h-174v182h-365l-39 115l430 514h148v-475h86v-154h-86v-182zM268 0l1184 1513h231l-1179 -1513h-236zM459 1280l-195 -233h195v233zM1438 524q124 0 200 -74t76 -190q0 -119 -87 -196.5t-226 -77.5q-162 0 -287 94l76 147q109 -71 201 -71q65 0 103 31t38 81
q0 48 -36 78.5t-95 30.5q-73 0 -137 -55l-95 88l50 397h442v-160h-313l-19 -141q55 18 109 18z" />
    <glyph glyph-name="uni2159" unicode="&#x2159;" horiz-adv-x="1765" 
d="M500 709h-193v542l-145 -108l-101 151l295 224h144v-809zM166 0l1184 1513h231l-1182 -1513h-233zM1419 524q124 0 200.5 -74t76.5 -190q0 -118 -87.5 -196t-226.5 -78q-161 0 -286 94l75 147q109 -71 201 -71q65 0 103 31t38 81q0 48 -36 78.5t-95 30.5q-73 0 -137 -55
l-94 88l49 397h442v-160h-313l-18 -141q55 18 108 18z" />
    <glyph glyph-name="uni215A" unicode="&#x215a;" horiz-adv-x="1789" 
d="M332 866q65 0 103 31.5t38 81.5q0 46 -36 77t-95 31q-73 0 -137 -55l-94 88l49 398h442v-160h-313l-19 -141q55 18 109 18q124 0 200 -74t76 -190q0 -119 -87 -197t-226 -78q-160 0 -287 95l76 147q110 -72 201 -72zM205 0l1184 1513h233l-1182 -1513h-235zM1692 262
q0 -119 -85.5 -197.5t-215.5 -78.5q-154 0 -239 108t-85 285q0 190 96 321q95 129 279 129q138 0 233 -71l-73 -135q-71 47 -150 47q-89 0 -147.5 -63.5t-69.5 -160.5q63 78 182 78q121 0 198 -73t77 -189zM1268 260q0 -50 35 -84.5t88 -34.5q54 0 89.5 35t35.5 86t-35.5 84
t-89.5 33t-88.5 -34t-34.5 -85z" />
    <glyph glyph-name="oneeighth" unicode="&#x215b;" horiz-adv-x="1822" 
d="M500 709h-193v542l-145 -108l-101 151l295 224h144v-809zM188 0l1184 1513h232l-1180 -1513h-236zM1581 434v-2q79 -30 122.5 -85t43.5 -122q0 -104 -86.5 -170.5t-230.5 -66.5q-146 0 -232 65.5t-86 169.5q0 69 43.5 124.5t118.5 84.5v2q-127 59 -127 174q0 99 78 160
t205 61t204.5 -61t77.5 -160q0 -119 -131 -174zM1319 588q0 -39 31 -65.5t80 -26.5q48 0 78 26.5t30 65.5q0 42 -29.5 68t-78.5 26t-80 -26.5t-31 -67.5zM1430 139q57 0 94 30t37 77q0 48 -35.5 77t-95.5 29q-61 0 -98.5 -29.5t-37.5 -76.5t38 -77t98 -30z" />
    <glyph glyph-name="threeeighths" unicode="&#x215c;" horiz-adv-x="1781" 
d="M41 778l78 150q113 -58 194 -58q79 -5 110.5 41.5t-2 92.5t-108.5 40h-108v162h96q51 0 86 21.5t35 60.5q0 37 -31 57.5t-76 20.5q-75 0 -161 -57l-93 135q116 96 277 96q121 0 199 -63q79 -61 79 -152q0 -65 -40 -113t-107 -69v-4q79 -19 123.5 -71.5t44.5 -125.5
q4 -79 -50 -139.5t-139 -86.5t-195.5 -12t-211.5 74zM436 0h-235l1183 1513h234zM1397 -12q-146 0 -232 65.5t-86 169.5q0 69 43.5 124.5t118.5 84.5v2q-127 59 -127 174q0 99 78 160t205 61t204.5 -61t77.5 -160q0 -119 -131 -174v-2q79 -30 122.5 -85t43.5 -122
q0 -104 -86.5 -170.5t-230.5 -66.5zM1505 588q0 42 -29.5 68t-78.5 26t-80 -26.5t-31 -67.5q0 -39 31 -65.5t80 -26.5q48 0 78 26.5t30 65.5zM1397 139q57 0 94 30t37 77q0 48 -35.5 77t-95.5 29q-61 0 -98 -29.5t-37 -76.5t37.5 -77t97.5 -30z" />
    <glyph glyph-name="fiveeighths" unicode="&#x215d;" horiz-adv-x="1804" 
d="M332 866q65 0 103 31.5t38 81.5q0 46 -36 77t-95 31q-73 0 -137 -55l-94 88l49 398h442v-160h-313l-19 -141q55 18 109 18q124 0 200 -74t76 -190q0 -119 -87 -197t-226 -78q-160 0 -287 95l76 147q110 -72 201 -72zM225 0l1184 1513h231l-1179 -1513h-236zM1571 434v-2
q79 -30 122.5 -85t43.5 -122q0 -104 -87 -170.5t-231 -66.5q-146 0 -231.5 65.5t-85.5 169.5q0 69 43.5 124.5t118.5 84.5v2q-127 59 -127 174q0 99 77.5 160t204.5 61t205 -61t78 -160q0 -119 -131 -174zM1309 588q0 -39 30.5 -65.5t79.5 -26.5t79 26.5t30 65.5
q0 42 -30 68t-79 26t-79.5 -26t-30.5 -68zM1419 139q57 0 94 30t37 77q0 48 -35.5 77t-95.5 29q-61 0 -98 -29.5t-37 -76.5t37.5 -77t97.5 -30z" />
    <glyph glyph-name="seveneighths" unicode="&#x215e;" horiz-adv-x="1679" 
d="M315 715h-204l292 631h-342v172h560v-132zM86 0l1184 1513h233l-1181 -1513h-236zM1446 434v-2q79 -30 122.5 -85t43.5 -122q0 -104 -87 -170.5t-231 -66.5q-146 0 -231.5 65.5t-85.5 169.5q0 69 43.5 124.5t118.5 84.5v2q-127 59 -127 174q0 99 77.5 160t204.5 61
t205 -61t78 -160q0 -119 -131 -174zM1184 588q0 -39 30.5 -65.5t79.5 -26.5t79 26.5t30 65.5q0 42 -30 68t-79 26t-79.5 -26t-30.5 -68zM1294 139q57 0 94 30t37 77q0 48 -35.5 77t-95.5 29q-61 0 -98 -29.5t-37 -76.5t37.5 -77t97.5 -30z" />
    <glyph glyph-name="partialdiff" unicode="&#x2202;" horiz-adv-x="1273" 
d="M596 -25q-226 0 -377 148q-147 147 -147 371q0 220 139 368q138 147 352 150q207 0 324 -166q-44 184 -178.5 343t-329.5 259l172 203q220 -108 410 -324q106 -120 167.5 -286.5t61.5 -348.5q0 -307 -166 -512t-428 -205zM604 225q110 0 187 80q75 78 75 195
q0 111 -75 186q-75 78 -181 78q-107 0 -184 -80q-74 -77 -74 -192q0 -111 72 -189t180 -78z" />
    <glyph glyph-name="product" unicode="&#x220f;" horiz-adv-x="1548" 
d="M70 1503h1409v-293h-191v-1452h-305v1452h-418v-1452h-305v1452h-190v293z" />
    <glyph glyph-name="summation" unicode="&#x2211;" horiz-adv-x="1339" 
d="M1268 -367h-1176v246l424 692l-424 697v245h1176v-286h-797l383 -656l-383 -651h797v-287z" />
    <glyph glyph-name="minus" unicode="&#x2212;" horiz-adv-x="1206" 
d="M1075 547h-946v268h946v-268z" />
    <glyph glyph-name="radical" unicode="&#x221a;" horiz-adv-x="1509" 
d="M860 -242h-256l-346 885h-254v268h475l258 -712l494 1456h321z" />
    <glyph glyph-name="infinity" unicode="&#x221e;" horiz-adv-x="1931" 
d="M1419 1180q176 0 301 -125q125 -122 125 -297q0 -172 -127 -299q-125 -125 -303 -125q-119 0 -213 61t-235 205q-148 -148 -246 -207q-103 -59 -213 -59q-174 0 -299 125q-123 126 -123 297q0 174 125 299t303 125q104 0 205 -58q103 -56 248 -198q145 142 245 198
q101 58 207 58zM510 567q60 0 125.5 43.5t171.5 149.5q-107 104 -168.5 143t-116.5 39q-79 0 -134.5 -56t-55.5 -134t51.5 -131.5t126.5 -53.5zM1405 567q80 0 137 56t57 135q0 77 -55.5 130.5t-134.5 53.5q-65 0 -125.5 -38.5t-159.5 -139.5q121 -124 170 -158
q56 -39 111 -39z" />
    <glyph glyph-name="integral" unicode="&#x222b;" horiz-adv-x="980" 
d="M215 -430q-143 0 -258 65l68 240q71 -41 145 -41q84 0 134 57t50 175v1167q0 222 109.5 338.5t292.5 116.5q143 0 272 -72l-82 -238q-68 41 -145 41q-84 0 -133.5 -57.5t-49.5 -175.5v-1166q0 -226 -120 -337q-119 -113 -283 -113z" />
    <glyph glyph-name="approxequal" unicode="&#x2248;" horiz-adv-x="1337" 
d="M850 788q-107 0 -238 64q-129 63 -180 63q-50 0 -88.5 -26t-95.5 -98l-170 139q61 114 155.5 172.5t208.5 58.5q110 0 236 -63q133 -62 184 -62t91 29t94 104l174 -145q-137 -236 -371 -236zM860 338q-108 0 -237 63q-131 64 -181 64q-49 0 -88 -26.5t-96 -98.5l-170 139
q61 114 156 173t209 59q107 0 235 -64q131 -61 184 -61q51 0 91 29t94 104l174 -146q-137 -235 -371 -235z" />
    <glyph glyph-name="notequal" unicode="&#x2260;" horiz-adv-x="1208" 
d="M1077 989v-239h-356l-66 -158h422v-240h-522l-90 -217h-172l90 217h-252v240h352l66 158h-418v239h518l92 219h172l-92 -219h256z" />
    <glyph glyph-name="lessequal" unicode="&#x2264;" horiz-adv-x="1183" 
d="M1040 668v-273l-925 381v193l925 387v-275l-565 -207zM1040 319v-237h-936v237h936z" />
    <glyph glyph-name="greaterequal" unicode="&#x2265;" horiz-adv-x="1183" 
d="M1069 776l-926 -381v273l566 206l-566 207v275l926 -387v-193zM1079 82h-936v237h936v-237z" />
    <glyph glyph-name="lozenge" unicode="&#x25ca;" horiz-adv-x="1445" 
d="M844 -86h-242l-541 856l541 852h242l540 -852zM399 774l324 -522l324 522l-324 514z" />
    <glyph glyph-name="NULL" horiz-adv-x="0" 
 />
    <glyph glyph-name="Euro.osf" horiz-adv-x="1208" 
d="M942 506h-506q30 -143 137 -230.5t263 -87.5q144 0 313 88v-223q-134 -76 -338 -76q-243 0 -414 148q-168 146 -198 381h-185l74 166h2l4 8h103q27 242 202 395q177 154 416 154q241 0 406 -113l-99 -184q-133 80 -280 80q-155 0 -269.5 -92t-140.5 -240h600l-76 -166
h-10z" />
    <glyph glyph-name="I_J.loclNLD" horiz-adv-x="1832" 
d="M168 0v1513h305v-1513h-305zM1114 -25q-282 0 -469 187l148 237q133 -133 299 -133q131 0 208.5 83.5t77.5 228.5v935h303v-946q0 -294 -159 -444q-160 -148 -408 -148z" />
    <glyph glyph-name="Iacute_J.loclNLD" horiz-adv-x="1826" 
d="M451 1628h-267l133 375h334zM1653 1626h-267l134 375h333zM168 0v1513h305v-1513h-305zM1114 -25q-282 0 -469 187l148 237q133 -133 299 -133q131 0 208.5 83.5t77.5 228.5v935h303v-946q0 -294 -159 -444q-160 -148 -408 -148z" />
    <glyph glyph-name="J.loclNLD" horiz-adv-x="1189" 
d="M1016 1626h-266l133 375h334zM477 -25q-282 0 -469 187l148 237q133 -133 299 -133q131 0 208.5 83.5t77.5 228.5v935h303v-946q0 -294 -159 -444q-160 -148 -408 -148z" />
    <glyph glyph-name="Jacute" horiz-adv-x="1189" 
d="M1020 1626h-266l133 375h334zM477 -25q-282 0 -469 187l148 237q133 -133 299 -133q131 0 208.5 83.5t77.5 228.5v935h303v-946q0 -294 -159 -444q-160 -148 -408 -148z" />
    <glyph glyph-name="_1" horiz-adv-x="0" 
 />
    <glyph glyph-name="a.ss02" horiz-adv-x="1193" 
d="M567 1145q80 0 151.5 -14.5t138.5 -49.5t114.5 -88.5t76.5 -137.5t29 -191v-664h-262v123q-128 -152 -356 -152q-186 0 -295 103q-107 101 -107 258q0 168 133 260t367 94q213 8 250 8q-21 199 -254 199q-179 0 -346 -92l-103 213q210 131 463 131zM508 205q121 0 205 78
q83 77 92 198q-79 -8 -199 -8q-143 -2 -206.5 -31t-63.5 -104q0 -61 47 -97t125 -36z" />
    <glyph glyph-name="aacute.ss02" horiz-adv-x="1193" 
d="M578 1642h321l-192 -360h-256zM567 1145q80 0 151.5 -14.5t138.5 -49.5t114.5 -88.5t76.5 -137.5t29 -191v-664h-262v123q-128 -152 -356 -152q-186 0 -295 103q-107 101 -107 258q0 168 133 260t367 94q213 8 250 8q-21 199 -254 199q-179 0 -346 -92l-103 213
q210 131 463 131zM508 205q121 0 205 78q83 77 92 198q-79 -8 -199 -8q-143 -2 -206.5 -31t-63.5 -104q0 -61 47 -97t125 -36z" />
    <glyph glyph-name="abreve.ss02" horiz-adv-x="1193" 
d="M594 1272q-167 0 -271 99t-114 271h227q5 -80 45.5 -128t112.5 -48t112.5 48t45.5 128h231q-11 -172 -115 -271t-274 -99zM567 1145q80 0 151.5 -14.5t138.5 -49.5t114.5 -88.5t76.5 -137.5t29 -191v-664h-262v123q-128 -152 -356 -152q-186 0 -295 103
q-107 101 -107 258q0 168 133 260t367 94q213 8 250 8q-21 199 -254 199q-179 0 -346 -92l-103 213q210 131 463 131zM508 205q121 0 205 78q83 77 92 198q-79 -8 -199 -8q-143 -2 -206.5 -31t-63.5 -104q0 -61 47 -97t125 -36z" />
    <glyph glyph-name="acircumflex.ss02" horiz-adv-x="1193" 
d="M717 1282l-133 176l-133 -176h-275l303 360h215l305 -360h-282zM567 1145q80 0 151.5 -14.5t138.5 -49.5t114.5 -88.5t76.5 -137.5t29 -191v-664h-262v123q-128 -152 -356 -152q-186 0 -295 103q-107 101 -107 258q0 168 133 260t367 94q213 8 250 8q-21 199 -254 199
q-179 0 -346 -92l-103 213q210 131 463 131zM508 205q121 0 205 78q83 77 92 198q-79 -8 -199 -8q-143 -2 -206.5 -31t-63.5 -104q0 -61 47 -97t125 -36z" />
    <glyph glyph-name="acute.case" horiz-adv-x="698" 
d="M348 1628h-266l133 375h334z" />
    <glyph glyph-name="adieresis.ss02" horiz-adv-x="1193" 
d="M203 1438q0 69 50 118.5t122 49.5t122 -49.5t50 -118.5q0 -75 -49 -124.5t-123 -49.5t-123 49.5t-49 124.5zM821 1264q-74 0 -124 49.5t-50 124.5q0 72 50 120t124 48q71 0 120.5 -49t49.5 -119q0 -75 -49 -124.5t-121 -49.5zM567 1145q80 0 151.5 -14.5t138.5 -49.5
t114.5 -88.5t76.5 -137.5t29 -191v-664h-262v123q-128 -152 -356 -152q-186 0 -295 103q-107 101 -107 258q0 168 133 260t367 94q213 8 250 8q-21 199 -254 199q-179 0 -346 -92l-103 213q210 131 463 131zM508 205q121 0 205 78q83 77 92 198q-79 -8 -199 -8
q-143 -2 -206.5 -31t-63.5 -104q0 -61 47 -97t125 -36z" />
    <glyph glyph-name="agrave.ss02" horiz-adv-x="1193" 
d="M625 1645l127 -361h-256l-193 361h322zM567 1145q80 0 151.5 -14.5t138.5 -49.5t114.5 -88.5t76.5 -137.5t29 -191v-664h-262v123q-128 -152 -356 -152q-186 0 -295 103q-107 101 -107 258q0 168 133 260t367 94q213 8 250 8q-21 199 -254 199q-179 0 -346 -92l-103 213
q210 131 463 131zM508 205q121 0 205 78q83 77 92 198q-79 -8 -199 -8q-143 -2 -206.5 -31t-63.5 -104q0 -61 47 -97t125 -36z" />
    <glyph glyph-name="amacron.ss02" horiz-adv-x="1193" 
d="M262 1559h670v-250l-670 -4v254zM567 1145q80 0 151.5 -14.5t138.5 -49.5t114.5 -88.5t76.5 -137.5t29 -191v-664h-262v123q-128 -152 -356 -152q-186 0 -295 103q-107 101 -107 258q0 168 133 260t367 94q213 8 250 8q-21 199 -254 199q-179 0 -346 -92l-103 213
q210 131 463 131zM508 205q121 0 205 78q83 77 92 198q-79 -8 -199 -8q-143 -2 -206.5 -31t-63.5 -104q0 -61 47 -97t125 -36z" />
    <glyph glyph-name="aogonek.ss02" horiz-adv-x="1189" 
d="M1042 -295l64 -184q-103 -62 -217 -62q-116 0 -184 65.5t-68 170.5q0 175 201 305h-23v123q-128 -152 -356 -152q-186 0 -295 103q-107 101 -107 258q0 168 133 260t367 94q213 8 250 8q-21 199 -254 199q-179 0 -346 -92l-103 213q210 131 463 131q80 0 151.5 -14.5
t138.5 -49.5t114.5 -88.5t76.5 -137.5t29 -191v-664h-2q-85 -38 -143 -105t-58 -128t48 -78t120 16zM508 205q121 0 205 78q83 77 92 198q-79 -8 -199 -8q-143 -2 -206.5 -31t-63.5 -104q0 -61 47 -97t125 -36z" />
    <glyph glyph-name="aring.ss02" horiz-adv-x="1193" 
d="M596 1243q-116 0 -195 76q-77 77 -77 184q0 110 77 187q80 77 195 77q113 0 190 -77q80 -77 80 -187q0 -107 -80 -184q-76 -76 -190 -76zM596 1612q-45 0 -77 -30.5t-32 -74.5t32.5 -76t76.5 -32q43 0 73.5 32t30.5 76t-30.5 74.5t-73.5 30.5zM567 1145q80 0 151.5 -14.5
t138.5 -49.5t114.5 -88.5t76.5 -137.5t29 -191v-664h-262v123q-128 -152 -356 -152q-186 0 -295 103q-107 101 -107 258q0 168 133 260t367 94q213 8 250 8q-21 199 -254 199q-179 0 -346 -92l-103 213q210 131 463 131zM508 205q121 0 205 78q83 77 92 198q-79 -8 -199 -8
q-143 -2 -206.5 -31t-63.5 -104q0 -61 47 -97t125 -36z" />
    <glyph glyph-name="at.case" horiz-adv-x="1978" 
d="M1202 1077v88h219v-528q0 -61 26 -95t66 -34q71 0 129 94t58 236q0 270 -203 458q-201 186 -487 183q-296 -3 -504 -217q-207 -213 -207 -510q0 -307 217 -521q218 -215 526 -215q145 0 290 51t257 138l101 -168q-112 -95 -285 -156q-180 -65 -373 -65q-400 0 -674 274
q-274 277 -274 662t270 655q269 272 660 272q384 0 641 -245q258 -243 258 -586q0 -234 -127 -391q-127 -154 -309 -154q-180 0 -242 152q-109 -152 -309 -152q-176 0 -297 127q-119 125 -119 318q0 191 119 319q120 129 301 129q171 0 272 -119zM969 510q96 0 164 68
q67 70 67 170q0 104 -67 174q-65 71 -162 71q-99 0 -166.5 -69.5t-67.5 -173.5q0 -102 66.5 -171t165.5 -69z" />
    <glyph glyph-name="atilde.ss02" horiz-adv-x="1193" 
d="M477 1378q-79 0 -131 -104l-184 90q101 235 295 235q70 0 153 -45q87 -43 121 -43q67 0 121 97l182 -86q-41 -113 -113 -174.5t-163 -61.5q-68 0 -154 45q-89 47 -127 47zM567 1145q80 0 151.5 -14.5t138.5 -49.5t114.5 -88.5t76.5 -137.5t29 -191v-664h-262v123
q-128 -152 -356 -152q-186 0 -295 103q-107 101 -107 258q0 168 133 260t367 94q213 8 250 8q-21 199 -254 199q-179 0 -346 -92l-103 213q210 131 463 131zM508 205q121 0 205 78q83 77 92 198q-79 -8 -199 -8q-143 -2 -206.5 -31t-63.5 -104q0 -61 47 -97t125 -36z" />
    <glyph glyph-name="backslash.case" horiz-adv-x="1220" 
d="M352 1513l828 -1513h-314l-829 1513h315z" />
    <glyph glyph-name="braceleft.case" horiz-adv-x="849" 
d="M379 756v-6q85 -27 144 -94.5t59 -159.5q0 -26 -11 -187q-10 -147 -10 -186q0 -162 164 -162h57v-274h-141q-373 0 -373 385q0 76 8 188q9 129 9 180q0 101 -56 143.5t-180 55.5v229q125 14 180.5 56t55.5 143q0 50 -9 182q-8 117 -8 201q0 371 389 371h125v-275h-57
q-164 0 -164 -160q0 -40 10 -190q11 -161 11 -184q0 -92 -59 -161t-144 -95z" />
    <glyph glyph-name="braceright.case" horiz-adv-x="849" 
d="M473 752v6q-85 27 -145 95.5t-60 160.5q0 23 11 184q12 135 12 191q0 159 -164 159h-57v275h125q389 0 389 -373q0 -38 -11 -199q-8 -117 -8 -182q0 -111 72 -151q62 -34 164 -48v-229q-123 -13 -179.5 -55.5t-56.5 -143.5q0 -65 8 -180q11 -154 11 -188
q0 -385 -375 -385h-139v274h57q164 0 164 162q0 54 -12 186q-11 161 -11 187q0 92 59 160t146 94z" />
    <glyph glyph-name="bracketleft.case" horiz-adv-x="854" 
d="M807 -301h-639v2126h639v-256h-342v-1614h342v-256z" />
    <glyph glyph-name="bracketright.case" horiz-adv-x="854" 
d="M684 -301h-637v256h342v1614h-342v256h637v-2126z" />
    <glyph glyph-name="breve.case" horiz-adv-x="987" 
d="M82 1999h237q5 -83 47.5 -132.5t116.5 -49.5q72 0 114.5 49.5t47.5 132.5h242q-10 -180 -118.5 -282.5t-285.5 -102.5t-283 102.5t-118 282.5z" />
    <glyph glyph-name="brevecombcy" horiz-adv-x="0" 
d="M-489 1208q-262 0 -449 236l154 160q77 -95 144.5 -133.5t150.5 -38.5t150.5 38.5t145.5 133.5l154 -160q-193 -236 -450 -236z" />
    <glyph glyph-name="caron.alt" horiz-adv-x="638" 
d="M295 1278h-244l131 367h301z" />
    <glyph glyph-name="caron.case" horiz-adv-x="1099" 
d="M444 1622l-303 360h275l133 -176l133 176h283l-306 -360h-215z" />
    <glyph glyph-name="cedilla.case" horiz-adv-x="706" 
d="M469 37l-55 -135q95 -5 158 -60t63 -145q0 -103 -81.5 -174.5t-217.5 -71.5q-123 0 -254 64l63 166q85 -43 166 -43q52 0 79.5 21.5t27.5 55.5q0 70 -115 70h-110l-17 55l80 201z" />
    <glyph glyph-name="circumflex.case" horiz-adv-x="1083" 
d="M365 1630h-285l315 375h223l318 -375h-295l-137 182z" />
    <glyph glyph-name="colon.case" horiz-adv-x="598" 
d="M301 903q-72 0 -121 48t-49 120q0 69 49 116.5t121 47.5q68 0 116 -47.5t48 -116.5q0 -71 -48 -119.5t-116 -48.5zM301 209q-72 0 -121 48t-49 120q0 69 49 116.5t121 47.5q68 0 116 -47.5t48 -116.5q0 -71 -48 -119.5t-116 -48.5z" />
    <glyph glyph-name="comma.ss03" horiz-adv-x="518" 
d="M14 -369l162 645h283l-221 -645h-224z" />
    <glyph glyph-name="commaccent" horiz-adv-x="509" 
d="M281 -135q74 0 125 -51.5t51 -130.5q0 -95 -71 -184.5t-224 -198.5l-99 122q118 91 160 136q-47 12 -78.5 54t-31.5 93q0 67 48.5 113.5t119.5 46.5z" />
    <glyph glyph-name="commaccent.case" horiz-adv-x="466" 
d="M289 -139q77 0 128.5 -52t51.5 -135q0 -97 -73 -190t-228 -201l-100 125q106 77 165 139q-50 12 -83 55t-33 97q0 68 49.5 115t122.5 47z" />
    <glyph glyph-name="dieresis.case" horiz-adv-x="970" 
d="M88 1812q0 69 49 117.5t121 48.5t121 -48.5t49 -117.5q0 -73 -49 -122.5t-121 -49.5t-121 49.5t-49 122.5zM696 1640q-74 0 -122 48.5t-48 123.5q0 69 49 117.5t121 48.5q69 0 118.5 -48.5t49.5 -117.5q0 -73 -49 -122.5t-119 -49.5z" />
    <glyph glyph-name="dollar.osf" horiz-adv-x="1064" 
d="M1012 344q0 -132 -92.5 -227.5t-243.5 -128.5v-238h-250v232q-252 43 -377 245l176 166q55 -83 137.5 -129.5t178.5 -46.5q80 0 128 31.5t48 85.5q0 39 -27 63t-94 56q-210 88 -285 131q-194 117 -194 290q0 132 86 222.5t235 120.5v223h252v-226q160 -30 293 -151
l-149 -184q-133 112 -277 112q-76 0 -121 -28.5t-45 -77.5q0 -36 34.5 -66t109.5 -63l139 -62q94 -41 149 -67q189 -109 189 -283z" />
    <glyph glyph-name="dotaccent.case" horiz-adv-x="616" 
d="M387 1688q-51 -51 -127 -51t-127 51t-51 126.5t51 124.5q51 51 127 51t127 -51q51 -49 51 -124.5t-51 -126.5z" />
    <glyph glyph-name="eight.dnom" horiz-adv-x="770" 
d="M385 -12q-146 0 -231.5 65.5t-85.5 169.5q0 69 43 124.5t118 84.5v2q-127 59 -127 174q0 99 78 160t205 61t205 -61t78 -160q0 -119 -131 -174v-2q79 -30 122 -85t43 -122q0 -104 -86.5 -170.5t-230.5 -66.5zM494 588q0 42 -30 68t-79 26t-80 -26.5t-31 -67.5
q0 -39 31 -65.5t80 -26.5t79 26.5t30 65.5zM385 139q57 0 94 30t37 77q0 48 -35.5 77t-95.5 29q-61 0 -98 -29.5t-37 -76.5t37.5 -77t97.5 -30z" />
    <glyph glyph-name="eight.lf" horiz-adv-x="1302" 
d="M86 416q0 129 77.5 234.5t207.5 152.5v4q-104 48 -162.5 134.5t-58.5 195.5q0 175 137 288q139 115 364 115q224 0 363 -115t139 -288q0 -109 -59.5 -195.5t-163.5 -134.5v-6q130 -44 208.5 -150t78.5 -235q0 -190 -158 -318q-156 -123 -408 -123q-253 0 -409 123
q-156 126 -156 318zM426 1104q0 -81 61 -135t162 -54t162 53t61 136q0 82 -61 135t-160 53t-162 -53t-63 -135zM911 453q0 92 -71 149t-189 57t-190 -56.5t-72 -147.5q0 -94 72.5 -153.5t189.5 -59.5q116 0 188 59t72 152z" />
    <glyph glyph-name="eight.num" horiz-adv-x="770" 
d="M385 698q-145 0 -231 65.5t-86 170.5q0 69 43 124.5t118 84.5v2q-127 59 -127 174q0 99 78 160t205 61t205 -61t78 -160q0 -119 -131 -174v-2q79 -30 122 -85t43 -122q0 -104 -86.5 -171t-230.5 -67zM494 1298q0 42 -30 68.5t-79 26.5t-80 -26.5t-31 -68.5
q0 -39 31 -65.5t80 -26.5t79 26.5t30 65.5zM385 850q57 0 94 29.5t37 76.5q0 48 -36 77.5t-95 29.5q-61 0 -98 -29.5t-37 -77.5q0 -47 37.5 -76.5t97.5 -29.5z" />
    <glyph glyph-name="eight.osf" horiz-adv-x="1288" 
d="M645 -23q-253 0 -409 117q-156 120 -156 305q0 123 77.5 224t207.5 145v4q-105 48 -163.5 128.5t-58.5 184.5q0 171 138 279q139 109 364 109q224 0 363 -109t139 -279q0 -103 -59.5 -185.5t-163.5 -127.5v-6q130 -43 207 -143t77 -224q0 -184 -157 -305
q-156 -117 -406 -117zM868 1053q0 79 -62 129.5t-161 50.5q-102 0 -164.5 -50.5t-62.5 -129.5q0 -75 62 -125.5t163 -50.5t163 50t62 126zM907 434q0 86 -72.5 140.5t-189.5 54.5q-120 0 -192 -53.5t-72 -139.5q0 -88 73.5 -144t190.5 -56q116 0 189 55.5t73 142.5z" />
    <glyph glyph-name="eight.tf" horiz-adv-x="1267" 
d="M68 416q0 129 77 234.5t207 152.5v4q-104 48 -162.5 134.5t-58.5 195.5q0 175 137 288q139 115 365 115q223 0 362 -115q140 -116 140 -288q0 -109 -60 -195.5t-164 -134.5v-6q130 -44 208.5 -150t78.5 -235q0 -190 -158 -318q-156 -123 -407 -123q-254 0 -410 123
q-155 125 -155 318zM408 1104q0 -81 61 -135t162 -54t162 53t61 136q0 82 -61 135t-160 53t-162 -53t-63 -135zM893 453q0 92 -71 149t-189 57t-190 -56.5t-72 -147.5q0 -94 72.5 -153.5t189.5 -59.5q116 0 188 59t72 152z" />
    <glyph glyph-name="eight_fraction_nine" horiz-adv-x="1787" 
d="M707 936q0 -104 -87 -171t-231 -67q-145 0 -231 65.5t-86 170.5q0 69 43 124.5t118 84.5v2q-127 59 -127 174q0 99 78 160t205 61t205 -61t78 -160q0 -119 -131 -174v-2q79 -30 122.5 -85t43.5 -122zM193 -2l1183 1513h232l-1180 -1513h-235zM279 1298q0 -39 30.5 -65.5
t79.5 -26.5t79 26.5t30 65.5q0 42 -30 68.5t-79 26.5t-79.5 -26.5t-30.5 -68.5zM389 850q57 0 94 29.5t37 76.5q0 48 -36 77.5t-95 29.5q-61 0 -98 -29.5t-37 -77.5q0 -47 37.5 -76.5t97.5 -29.5zM1389 829q155 0 238 -107t83 -290q0 -192 -94 -317q-95 -127 -277 -127
q-141 0 -233 69l70 138q79 -48 155 -48q89 0 144.5 61t66.5 163q-74 -80 -184 -80q-122 0 -196.5 73t-74.5 187q0 123 84 200.5t218 77.5zM1389 676q-54 0 -89.5 -35t-35.5 -86t34 -84t88 -33t88.5 33t34.5 84t-34.5 86t-85.5 35z" />
    <glyph glyph-name="emdash.case" horiz-adv-x="2144" 
d="M2013 621h-1882v290h1882v-290z" />
    <glyph glyph-name="endash.case" horiz-adv-x="1490" 
d="M1360 621h-1229v290h1229v-290z" />
    <glyph glyph-name="exclamdown.case" horiz-adv-x="616" 
d="M340 1548q70 0 118 -47.5t48 -120.5q0 -69 -48.5 -116t-117.5 -47q-72 0 -121 47t-49 116q0 73 48.5 120.5t121.5 47.5zM186 -18l17 1122h268l21 -1122h-306z" />
    <glyph glyph-name="five.dnom" horiz-adv-x="698" 
d="M360 524q124 0 200.5 -74t76.5 -190q0 -119 -87 -196.5t-226 -77.5q-162 0 -287 94l76 147q109 -71 200 -71q65 0 103.5 31t38.5 81q0 48 -36 78.5t-95 30.5q-74 0 -138 -55l-94 88l49 397h443v-160h-314l-18 -141q56 18 108 18z" />
    <glyph glyph-name="five.lf" horiz-adv-x="1204" 
d="M621 975q215 0 362 -135t147 -353q0 -223 -155 -366q-158 -146 -410 -146q-276 0 -508 168l121 242q192 -131 373 -131q125 0 199.5 66t74.5 167q0 98 -73 163t-183 65q-143 0 -250 -101l-176 142l82 757h801v-278h-575l-33 -297q93 37 203 37z" />
    <glyph glyph-name="five.num" horiz-adv-x="698" 
d="M360 1235q124 0 200.5 -74t76.5 -190q0 -119 -87 -197t-226 -78q-160 0 -287 95l76 147q110 -72 200 -72q65 0 103.5 31.5t38.5 81.5q0 46 -36 77t-95 31q-74 0 -138 -55l-94 88l49 398h443v-160h-314l-18 -141q56 18 108 18z" />
    <glyph glyph-name="five.osf" horiz-adv-x="1171" 
d="M604 698q216 0 361 -127q147 -126 147 -325q0 -207 -156 -342q-153 -135 -407 -135q-275 0 -506 153l121 230q186 -119 371 -119q125 0 199.5 59.5t74.5 149.5q0 87 -73.5 147t-182.5 60q-137 0 -250 -93l-174 138l80 704h799v-260h-574l-33 -276q91 36 203 36z" />
    <glyph glyph-name="five.tf" horiz-adv-x="1267" 
d="M643 975q216 0 363 -135t147 -353q0 -222 -156 -366q-158 -146 -409 -146q-276 0 -508 168l121 242q192 -131 372 -131q125 0 200 66t75 167q0 98 -73 163t-183 65q-143 0 -250 -101l-176 142l82 757h801v-278h-576l-33 -297q93 37 203 37z" />
    <glyph glyph-name="five_fraction_nine" horiz-adv-x="1783" 
d="M332 866q65 0 103 31.5t38 81.5q0 46 -36 77t-95 31q-73 0 -137 -55l-94 88l49 398h442v-160h-313l-19 -141q55 18 109 18q124 0 200 -74t76 -190q0 -119 -87 -197t-226 -78q-160 0 -287 95l76 147q110 -72 201 -72zM186 -2l1184 1513h232l-1180 -1513h-236zM1382 829
q155 0 238.5 -107t83.5 -290q0 -192 -94 -317q-95 -127 -277 -127q-141 0 -233 69l69 138q79 -48 156 -48q89 0 144.5 61t66.5 163q-74 -80 -184 -80q-122 0 -196.5 73t-74.5 187q0 123 84 200.5t217 77.5zM1382 676q-54 0 -89.5 -35t-35.5 -86t34.5 -84t88.5 -33t88.5 33
t34.5 84t-35 86t-86 35z" />
    <glyph glyph-name="five_fraction_seven" horiz-adv-x="1775" 
d="M340 866q65 0 103 31.5t38 81.5q0 46 -36 77t-95 31q-73 0 -137 -55l-94 88l49 398h442v-160h-313l-18 -141q55 18 108 18q124 0 200.5 -74t76.5 -190q0 -119 -87.5 -197t-226.5 -78q-160 0 -287 95l76 147q110 -72 201 -72zM186 0l1184 1513h232l-1182 -1513h-234z
M1126 635v172h560v-131l-306 -672h-204l292 631h-342z" />
    <glyph glyph-name="four.dnom" horiz-adv-x="757" 
d="M606 336h86v-154h-86v-182h-174v182h-364l-39 115l430 514h147v-475zM432 569l-194 -233h194v233z" />
    <glyph glyph-name="four.lf" horiz-adv-x="1261" 
d="M1018 604h164v-252h-164v-352h-283v352h-665l-60 195l791 966h217v-909zM735 1075l-381 -471h381v471z" />
    <glyph glyph-name="four.num" horiz-adv-x="757" 
d="M606 1047h86v-154h-86v-182h-174v182h-364l-39 115l430 514h147v-475zM432 1280l-194 -233h194v233z" />
    <glyph glyph-name="four.osf" horiz-adv-x="1261" 
d="M1026 362h162v-239h-162v-326h-283v326h-655l-59 190l780 889h217v-840zM743 788l-368 -426h368v426z" />
    <glyph glyph-name="four.tf" horiz-adv-x="1267" 
d="M1042 604h164v-252h-164v-352h-282v352h-666l-59 195l790 966h217v-909zM760 1075l-381 -471h381v471z" />
    <glyph glyph-name="four_fraction_nine" horiz-adv-x="1943" 
d="M633 711h-174v182h-365l-39 115l430 514h148v-475h86v-154h-86v-182zM317 -2l1184 1513h232l-1182 -1513h-234zM459 1280l-195 -233h195v233zM1524 829q155 0 238 -107t83 -290q0 -192 -94 -317q-95 -127 -276 -127q-142 0 -234 69l70 138q79 -48 155 -48q89 0 144.5 61
t66.5 163q-74 -80 -184 -80q-122 0 -196 73t-74 187q0 123 84 200.5t217 77.5zM1524 676q-54 0 -89.5 -35t-35.5 -86t34.5 -84t88.5 -33t88.5 33t34.5 84t-35 86t-86 35z" />
    <glyph glyph-name="four_fraction_seven" horiz-adv-x="1867" 
d="M633 711h-174v182h-365l-39 115l430 514h148v-475h86v-154h-86v-182zM268 0l1184 1513h231l-1179 -1513h-236zM459 1280l-195 -233h195v233zM1208 635v172h559v-131l-305 -672h-205l293 631h-342z" />
    <glyph glyph-name="grave.case" horiz-adv-x="681" 
d="M420 2003l133 -375h-272l-199 375h338z" />
    <glyph glyph-name="guillemotleft.case" horiz-adv-x="1218" 
d="M655 354h-301l-278 416l280 416h299l-286 -416zM1116 354h-303l-276 416l276 416h303l-287 -416z" />
    <glyph glyph-name="guillemotright.case" horiz-adv-x="1218" 
d="M680 770l-274 -416h-304l285 416l-285 416h301zM1141 770l-279 -416h-301l287 416l-287 416h301z" />
    <glyph glyph-name="guilsinglleft.case" horiz-adv-x="757" 
d="M655 354h-301l-278 416l280 416h299l-286 -416z" />
    <glyph glyph-name="guilsinglright.case" horiz-adv-x="757" 
d="M682 770l-279 -416h-301l287 416l-287 416h301z" />
    <glyph glyph-name="hungarumlaut.case" horiz-adv-x="1140" 
d="M340 1628h-248l92 375h320zM768 1628h-252l121 375h332z" />
    <glyph glyph-name="hyphen.case" horiz-adv-x="1101" 
d="M973 621h-842v290h842v-290z" />
    <glyph glyph-name="i.loclTRK" horiz-adv-x="550" 
d="M408 1292q-51 -51 -127 -51t-127 51t-51 126.5t51 125.5q51 51 127 51t127 -51q51 -50 51 -125.5t-51 -126.5zM424 1116v-1116h-289v1116h289z" />
    <glyph glyph-name="i_j.loclNLD" horiz-adv-x="1200" 
d="M408 1292q-51 -51 -127 -51t-127 51t-51 126.5t51 125.5q51 51 127 51t127 -51q51 -50 51 -125.5t-51 -126.5zM979 1292q-51 -51 -127 -51t-127 51t-51 126.5t51 125.5q51 51 127 51t127 -51q51 -49 51 -125t-51 -127zM424 1116v-1116h-289v1116h289zM571 -475
q-168 0 -254 57l54 230q90 -33 153 -33q187 0 187 219v1118h288v-1132q0 -222 -115.5 -340.5t-312.5 -118.5z" />
    <glyph glyph-name="iacute_j.loclNLD" horiz-adv-x="1130" 
d="M399 1282h-256l127 360h322zM989 1282h-256l127 360h322zM420 1116v-1116h-289v1116h289zM571 -475q-168 0 -254 57l54 230q90 -33 153 -33q187 0 187 219v1118h288v-1132q0 -222 -115.5 -340.5t-312.5 -118.5z" />
    <glyph glyph-name="j.loclNLD" horiz-adv-x="600" 
d="M449 1292q-51 -51 -127 -51t-127 51t-51 126.5t51 125.5q51 51 127 51t127 -51q51 -50 51 -125.5t-51 -126.5zM41 -475q-168 0 -254 57l53 230q90 -33 154 -33q186 0 186 219v1118h289v-1132q0 -222 -115.5 -340.5t-312.5 -118.5z" />
    <glyph glyph-name="jacute" horiz-adv-x="600" 
d="M440 1282h-256l127 360h322zM41 -475q-168 0 -254 57l53 230q90 -33 154 -33q186 0 186 219v1118h289v-1132q0 -222 -115.5 -340.5t-312.5 -118.5z" />
    <glyph glyph-name="macron.case" horiz-adv-x="980" 
d="M840 1673l-754 -4v254h754v-250z" />
    <glyph glyph-name="nine.dnom" horiz-adv-x="747" 
d="M356 829q155 0 238.5 -107t83.5 -290q0 -192 -94 -317q-95 -127 -277 -127q-141 0 -233 69l69 138q79 -48 156 -48q89 0 144.5 61t66.5 163q-74 -80 -184 -80q-122 0 -196.5 73t-74.5 187q0 123 84 200.5t217 77.5zM356 676q-54 0 -89.5 -35t-35.5 -86t34.5 -84t88.5 -33
t88.5 33t34.5 84t-35 86t-86 35z" />
    <glyph glyph-name="nine.lf" horiz-adv-x="1273" 
d="M621 1540q276 0 423 -203q148 -204 148 -528q0 -134 -24 -255t-75.5 -227.5t-126 -184t-182 -122.5t-237.5 -45q-243 0 -418 134l111 225q133 -92 288 -92q163 0 258.5 118t116.5 322q-56 -66 -147 -102.5t-193 -36.5q-209 0 -346 137t-137 348q0 224 149 367
q151 145 392 145zM614 795q103 0 173.5 69.5t70.5 171.5q0 104 -69.5 175t-172.5 71q-105 0 -174 -70t-69 -178q0 -104 68.5 -171.5t172.5 -67.5z" />
    <glyph glyph-name="nine.num" horiz-adv-x="747" 
d="M356 1540q155 0 238.5 -107t83.5 -290q0 -193 -94 -318q-95 -127 -277 -127q-139 0 -233 70l69 137q77 -47 156 -47q89 0 144.5 60.5t66.5 162.5q-74 -80 -184 -80q-122 0 -196.5 73.5t-74.5 187.5q0 123 84 200.5t217 77.5zM356 1386q-54 0 -89.5 -34.5t-35.5 -85.5
t34.5 -84t88.5 -33t88.5 33t34.5 84t-35 85.5t-86 34.5z" />
    <glyph glyph-name="nine.osf" horiz-adv-x="1245" 
d="M600 1251q275 0 418 -192q147 -194 147 -500q0 -214 -65 -391q-63 -170 -213 -287q-144 -112 -361 -112q-245 0 -413 125l112 219q128 -88 285 -88q162 0 256 110.5t115 304.5q-115 -133 -336 -133q-206 0 -344 129q-135 132 -135 332q0 212 149 346q149 137 385 137z
M594 547q103 0 172.5 64.5t69.5 160.5q0 98 -70 162q-71 65 -170 65q-103 0 -172.5 -65t-69.5 -164q0 -98 67.5 -160.5t172.5 -62.5z" />
    <glyph glyph-name="nine.tf" horiz-adv-x="1267" 
d="M618 1540q277 0 424 -203q148 -204 148 -528q0 -134 -24 -255t-75.5 -227.5t-126 -184t-182 -122.5t-237.5 -45q-243 0 -418 134l111 225q133 -92 288 -92q163 0 258.5 118t116.5 322q-56 -66 -147 -102.5t-193 -36.5q-209 0 -346 137t-137 348q0 224 149 367
q151 145 391 145zM612 795q103 0 173.5 69.5t70.5 171.5q0 104 -69.5 175t-172.5 71q-105 0 -174 -70t-69 -178q0 -104 68.5 -171.5t172.5 -67.5z" />
    <glyph glyph-name="ogonek.case" horiz-adv-x="669" 
d="M487 -295l64 -184q-103 -62 -217 -62q-116 0 -184 65.5t-68 170.5q0 204 264 342l174 -37q-85 -38 -143 -105t-58 -128t48 -78t120 16z" />
    <glyph glyph-name="one.dnom" horiz-adv-x="565" 
d="M20 584l295 223h144v-809h-193v543l-145 -109z" />
    <glyph glyph-name="one.lf" horiz-adv-x="856" 
d="M-6 1141l469 372h225v-1513h-297v1112l-241 -186z" />
    <glyph glyph-name="one.num" horiz-adv-x="565" 
d="M20 1294l295 224h144v-807h-193v540l-145 -108z" />
    <glyph glyph-name="one.numalt" horiz-adv-x="692" 
d="M41 1294l295 224h143v-809h-192v542l-146 -108z" />
    <glyph glyph-name="one.osf" horiz-adv-x="1034" 
d="M733 1210v-960h275v-250h-914v250h350v616l-305 -196l-135 215l494 325h235z" />
    <glyph glyph-name="one.tf" horiz-adv-x="1267" 
d="M827 1513v-1234h312v-279h-934v279h325v833l-241 -186l-156 215l469 372h225z" />
    <glyph glyph-name="parenleft.case" horiz-adv-x="856" 
d="M831 -70l-133 -225q-302 161 -462 433.5t-160 621.5q0 350 161.5 620.5t469.5 434.5l124 -230q-440 -296 -440 -825q0 -519 440 -830z" />
    <glyph glyph-name="parenright.case" horiz-adv-x="856" 
d="M156 -295l-131 225q440 311 440 830q0 529 -440 825l122 230q309 -164 471 -435t162 -620t-161 -621.5t-463 -433.5z" />
    <glyph glyph-name="periodcentered.case" horiz-adv-x="542" 
d="M274 578q-72 0 -121 47.5t-49 119.5q0 69 49 116.5t121 47.5q68 0 116 -47.5t48 -116.5q0 -71 -48 -119t-116 -48z" />
    <glyph glyph-name="questiondown.case" horiz-adv-x="1128" 
d="M793 1382q0 -69 -49 -117t-121 -48q-69 0 -117.5 48t-48.5 117q0 71 48 118.5t118 47.5t120 -47.5t50 -118.5zM487 1124h279v-135q0 -83 -37 -157.5t-96 -129.5q-16 -14 -53.5 -46t-57.5 -49.5t-49 -48t-44 -53.5t-26.5 -54t-11.5 -62q0 -81 58 -132.5t147 -51.5
q152 0 305 178l178 -201q-203 -250 -506 -250q-215 0 -352 125t-137 314q0 92 39.5 171.5t103.5 137.5q21 20 69.5 61t73.5 65.5t56.5 60.5t46 70t14.5 69v118z" />
    <glyph glyph-name="quotedblbase.ss03" horiz-adv-x="1034" 
d="M45 -309l162 645h282l-221 -645h-223zM526 -309l162 645h283l-221 -645h-224z" />
    <glyph glyph-name="quotedblleft.ss03" horiz-adv-x="999" 
d="M506 1741l-162 -645h-283l222 645h223zM991 1741l-162 -645h-282l221 645h223z" />
    <glyph glyph-name="quotedblright.ss03" horiz-adv-x="1017" 
d="M59 1096l162 645h283l-221 -645h-224zM541 1096l161 645h283l-221 -645h-223z" />
    <glyph glyph-name="quoteleft.ss03" horiz-adv-x="514" 
d="M496 1741l-162 -645h-283l221 645h224z" />
    <glyph glyph-name="quoteright.ss03" horiz-adv-x="509" 
d="M59 1096l162 645h283l-221 -645h-224z" />
    <glyph glyph-name="quotesinglbase.ss03" horiz-adv-x="528" 
d="M4 -309l162 645h283l-222 -645h-223z" />
    <glyph glyph-name="ring.case" horiz-adv-x="743" 
d="M82 1860q0 115 82 194q83 80 201 80t198 -80q82 -79 82 -194q0 -117 -82 -193q-81 -78 -198 -78t-201 78q-82 79 -82 193zM365 1751q44 0 76 33t32 80q0 44 -32 76t-76 32q-47 0 -80 -32t-33 -76q0 -47 33 -80t80 -33z" />
    <glyph glyph-name="semicolon.case" horiz-adv-x="624" 
d="M332 899q-74 0 -124 49.5t-50 122.5q0 69 51 118.5t123 49.5q69 0 118.5 -49.5t49.5 -118.5q0 -73 -49 -122.5t-119 -49.5zM324 561q78 0 130 -55.5t52 -140.5q0 -223 -316 -431l-86 115q161 121 199 193h-6q-60 0 -103.5 44.5t-43.5 106.5q0 71 50.5 119.5t123.5 48.5z
" />
    <glyph glyph-name="semicolon.case.ss03" horiz-adv-x="624" 
d="M332 899q-74 0 -124 49.5t-50 122.5q0 69 51 118.5t123 49.5q69 0 118.5 -49.5t49.5 -118.5q0 -73 -49 -122.5t-119 -49.5zM20 -307l162 645h283l-221 -645h-224z" />
    <glyph glyph-name="semicolon.ss03" horiz-adv-x="591" 
d="M315 700q-74 0 -124 49.5t-50 122.5q0 69 51 118.5t123 49.5q69 0 118.5 -49.5t49.5 -118.5q0 -73 -49 -122.5t-119 -49.5zM16 -369l162 645h283l-221 -645h-224z" />
    <glyph glyph-name="seven.dnom" horiz-adv-x="612" 
d="M27 635v172h559v-131l-305 -672h-205l293 631h-342z" />
    <glyph glyph-name="seven.lf" horiz-adv-x="1073" 
d="M43 1235v278h987v-208l-541 -1305h-317l520 1235h-649z" />
    <glyph glyph-name="seven.num" horiz-adv-x="612" 
d="M27 1346v172h559v-132l-305 -671h-205l293 631h-342z" />
    <glyph glyph-name="seven.osf" horiz-adv-x="1050" 
d="M33 928v270h987v-205l-545 -1196h-317l518 1131h-643z" />
    <glyph glyph-name="seven.tf" horiz-adv-x="1267" 
d="M143 1241v272h1024v-190l-639 -1323h-319l612 1241h-678z" />
    <glyph glyph-name="seven_fraction_nine" horiz-adv-x="1699" 
d="M313 715h-204l292 631h-342v172h559v-132zM66 -2l1183 1513h234l-1182 -1513h-235zM1296 829q155 0 238.5 -107t83.5 -290q0 -192 -94 -317q-95 -127 -277 -127q-141 0 -233 69l69 138q79 -48 156 -48q89 0 144.5 61t66.5 163q-74 -80 -184 -80q-122 0 -196.5 73
t-74.5 187q0 123 84 200.5t217 77.5zM1296 676q-54 0 -89.5 -35t-35.5 -86t34.5 -84t88.5 -33t88.5 33t34.5 84t-35 86t-86 35z" />
    <glyph glyph-name="six.dnom" horiz-adv-x="724" 
d="M674 262q0 -119 -85.5 -197.5t-215.5 -78.5q-154 0 -239 108t-85 285q0 190 96 321q95 129 279 129q138 0 233 -71l-73 -135q-71 47 -150 47q-89 0 -147.5 -63.5t-69.5 -160.5q63 78 182 78q121 0 198 -73t77 -189zM250 260q0 -50 35 -84.5t88 -34.5q54 0 89.5 35
t35.5 86t-35.5 84t-89.5 33t-88.5 -34t-34.5 -85z" />
    <glyph glyph-name="six.lf" horiz-adv-x="1284" 
d="M725 977q215 0 352 -137q142 -139 142 -348q0 -220 -154 -365q-151 -145 -391 -145q-283 0 -432 204q-150 206 -150 525q0 128 24.5 247.5t77.5 225.5t129 185t186 125t241 46q234 0 417 -133l-131 -227q-134 90 -270 90q-172 0 -274 -135t-111 -324q111 166 344 166z
M674 242q103 0 174 71q72 72 72 174q0 103 -70 170q-71 68 -174 68q-105 0 -175.5 -68t-70.5 -172t70 -174q69 -69 174 -69z" />
    <glyph glyph-name="six.num" horiz-adv-x="724" 
d="M674 973q0 -119 -85.5 -198t-215.5 -79q-154 0 -239 108.5t-85 285.5q0 190 96 321q95 129 279 129q136 0 233 -72l-73 -135q-71 47 -150 47q-90 0 -148 -63t-69 -160q63 78 182 78q121 0 198 -73t77 -189zM250 971q0 -50 35 -84.5t88 -34.5q54 0 89.5 35t35.5 86
t-35.5 84t-89.5 33t-88.5 -34t-34.5 -85z" />
    <glyph glyph-name="six.osf" horiz-adv-x="1261" 
d="M698 932q207 0 346 -133q140 -134 140 -332q0 -210 -152 -350q-149 -137 -387 -137q-279 0 -426 196t-147 500q0 211 67 385q68 177 217 293t365 116q229 0 414 -129l-131 -219q-128 84 -267 84q-172 0 -272 -127t-109 -307q109 160 342 160zM889 463q0 96 -68.5 159.5
t-171.5 63.5q-104 0 -173.5 -63t-69.5 -160q0 -100 69 -166t172 -66t172.5 67t69.5 165z" />
    <glyph glyph-name="six.tf" horiz-adv-x="1267" 
d="M717 977q215 0 352 -137q141 -138 141 -348q0 -221 -153 -365q-151 -145 -391 -145q-284 0 -433 204t-149 525q0 128 24.5 247.5t77.5 225.5t128.5 185t185.5 125t241 46q235 0 418 -133l-131 -227q-134 90 -270 90q-173 0 -275 -135q-101 -133 -110 -324
q111 166 344 166zM666 242q103 0 174 71t71 174q0 104 -69 170q-71 68 -174 68q-105 0 -175.5 -68t-70.5 -172t70 -174q69 -69 174 -69z" />
    <glyph glyph-name="six_fraction_seven" horiz-adv-x="1781" 
d="M682 973q0 -119 -85.5 -198t-215.5 -79q-154 0 -239 108.5t-85 285.5q0 189 97 321q94 129 278 129q137 0 234 -72l-74 -135q-71 47 -150 47q-90 0 -148 -63t-69 -160q63 78 183 78q121 0 197.5 -73t76.5 -189zM188 0l1184 1513h232l-1182 -1513h-234zM258 971
q0 -50 35 -84.5t88 -34.5q54 0 89.5 35t35.5 86t-35.5 84t-89.5 33t-88.5 -34t-34.5 -85zM1133 635v172h559v-131l-306 -672h-204l293 631h-342z" />
    <glyph glyph-name="slash.case" horiz-adv-x="1220" 
d="M354 0h-313l827 1513h316z" />
    <glyph glyph-name="sterling.osf" horiz-adv-x="1013" 
d="M506 504v-19q0 -124 -109 -239h598v-246h-913v199q158 137 158 274q0 25 -2 31h-164v192h96q-25 73 -25 135q0 174 127 283q128 110 318 113q134 0 244.5 -58t173.5 -163l-183 -152q-77 129 -211 129q-86 0 -140 -55t-54 -135q0 -47 20 -97h437v-192h-371z" />
    <glyph glyph-name="three.dnom" horiz-adv-x="681" 
d="M20 68l78 149q111 -57 195 -57q79 -5 110.5 41.5t-2 92.5t-108.5 40h-109v162h97q51 0 85.5 21.5t34.5 60.5q0 37 -30.5 57t-75.5 20q-76 0 -162 -57l-92 135q116 96 276 96q121 0 199 -63q80 -62 80 -152q0 -65 -40 -113t-107 -69v-4q79 -19 123 -71.5t44 -125.5
q4 -79 -50 -139.5t-139 -86.5t-195.5 -11.5t-211.5 74.5z" />
    <glyph glyph-name="three.lf" horiz-adv-x="1157" 
d="M520 -25q-256 0 -493 150l127 242q186 -113 350 -113q115 0 180.5 51.5t65.5 138.5q0 85 -65 137t-169 52h-192v270h165q104 0 167 49t63 129t-58.5 127t-152.5 47q-139 0 -301 -116l-146 217q91 85 220 134.5t264 49.5q203 0 342 -115q137 -113 137 -280
q0 -119 -70.5 -210t-185.5 -130v-8q139 -30 218 -132t79 -241q0 -196 -152 -324q-149 -125 -393 -125z" />
    <glyph glyph-name="three.num" horiz-adv-x="681" 
d="M20 778l78 150q113 -58 195 -58q79 -5 110.5 41.5t-2 92.5t-108.5 40h-109v162h97q51 0 85.5 21.5t34.5 60.5q0 37 -30.5 57.5t-75.5 20.5q-76 0 -162 -57l-92 135q116 96 276 96q121 0 199 -63q80 -62 80 -152q0 -65 -40 -113t-107 -69v-4q79 -19 123 -71.5t44 -125.5
q4 -79 -50 -139.5t-139 -86.5t-195.5 -12t-211.5 74z" />
    <glyph glyph-name="three.osf" horiz-adv-x="1122" 
d="M504 -233q-252 0 -492 141l127 233q180 -104 357 -104q115 0 181 47t66 123q0 75 -64.5 121.5t-168.5 46.5h-201v262h174q102 0 165 45t63 115q0 72 -58.5 114.5t-150.5 42.5q-149 0 -309 -106l-146 209q88 80 216.5 126t264.5 46q203 0 340 -107q138 -108 138 -262
q0 -110 -70.5 -194.5t-183.5 -120.5v-8q139 -29 217 -123.5t78 -225.5q0 -186 -152 -305q-149 -116 -391 -116z" />
    <glyph glyph-name="three.tf" horiz-adv-x="1267" 
d="M565 -25q-256 0 -493 150l127 242q186 -113 350 -113q115 0 180.5 51.5t65.5 138.5q0 85 -65 137t-169 52h-192v270h166q104 0 166.5 49t62.5 129t-58.5 127t-152.5 47q-139 0 -301 -116l-146 217q91 85 220 134.5t264 49.5q203 0 342 -115q137 -113 137 -280
q0 -119 -70.5 -210t-185.5 -130v-8q139 -30 218 -132t79 -241q0 -196 -152 -324q-149 -125 -393 -125z" />
    <glyph glyph-name="three_fraction_seven" horiz-adv-x="1796" 
d="M319 870q79 -5 110.5 41.5t-2 92.5t-108.5 40h-108v162h96q51 0 86 21.5t35 60.5q0 37 -30.5 57.5t-75.5 20.5q-76 0 -162 -57l-92 135q116 96 276 96q121 0 199 -63q80 -62 80 -152q0 -65 -40.5 -113t-107.5 -69v-4q79 -19 123.5 -71.5t44.5 -125.5q4 -79 -50 -139.5
t-139 -86.5t-195.5 -12t-211.5 74l78 150q113 -58 194 -58zM197 0l1183 1513h232l-1182 -1513h-233zM1147 635v172h559v-131l-305 -672h-205l293 631h-342z" />
    <glyph glyph-name="tilde.case" horiz-adv-x="1153" 
d="M270 1661l-188 92q102 242 301 242q74 0 160 -45t121 -45q72 0 124 98l187 -88q-43 -115 -117 -178.5t-166 -63.5q-65 0 -157 47t-132 47q-81 0 -133 -106z" />
    <glyph glyph-name="two.dnom" horiz-adv-x="708" 
d="M514 342l-166 -172h285v-170h-557v154l264 266q94 94 94 153q0 37 -27.5 60.5t-68.5 23.5q-85 0 -197 -106l-92 139q130 139 301 139q122 0 200.5 -71t78.5 -183q0 -115 -115 -233z" />
    <glyph glyph-name="two.lf" horiz-adv-x="1196" 
d="M793 563l-267 -284h564v-279h-988v252l471 493q90 94 97 103q25 32 61 96q35 62 35 117q0 86 -59 140t-150 54q-160 0 -340 -168l-166 218q235 235 531 235q217 0 354 -131q139 -130 139 -332q0 -219 -282 -514z" />
    <glyph glyph-name="two.num" horiz-adv-x="708" 
d="M514 1053l-166 -172h285v-170h-557v153l264 266q94 94 94 154q0 37 -27.5 60.5t-68.5 23.5q-85 0 -197 -106l-92 139q130 139 301 139q122 0 200.5 -71t78.5 -183q0 -115 -115 -233z" />
    <glyph glyph-name="two.osf" horiz-adv-x="1120" 
d="M696 397l-176 -147h502v-250h-920v227l400 338q123 103 167 156.5t44 112.5q0 58 -46 95.5t-120 37.5q-134 0 -344 -174l-152 206q249 228 510 228q200 0 326 -111q125 -107 125 -264q0 -109 -75.5 -214.5t-240.5 -240.5z" />
    <glyph glyph-name="two.tf" horiz-adv-x="1267" 
d="M827 563l-266 -284h563v-279h-987v252l471 493q90 94 97 103q25 32 61 96q35 62 35 117q0 85 -60 139.5t-149 54.5q-160 0 -340 -168l-166 218q235 235 530 235q218 0 355 -131q139 -130 139 -332q0 -217 -283 -514z" />
    <glyph glyph-name="two_fraction_nine" horiz-adv-x="1871" 
d="M92 711v153l264 266q95 95 95 154q0 37 -27.5 60.5t-69.5 23.5q-84 0 -196 -106l-92 139q130 139 301 139q122 0 200 -71t78 -183q0 -115 -115 -233l-165 -172h284v-170h-557zM266 0l1184 1513h231l-1179 -1513h-236zM1473 829q155 0 238 -107t83 -290q0 -192 -94 -317
q-95 -127 -277 -127q-141 0 -233 69l70 138q79 -48 155 -48q89 0 144.5 61t66.5 163q-74 -80 -184 -80q-122 0 -196.5 73t-74.5 187q0 123 84 200.5t218 77.5zM1473 676q-54 0 -89.5 -35t-35.5 -86t34 -84t88 -33t88.5 33t34.5 84t-34.5 86t-85.5 35z" />
    <glyph glyph-name="two_fraction_seven" horiz-adv-x="1855" 
d="M100 711v153l265 266q94 94 94 154q0 37 -27.5 60.5t-69.5 23.5q-84 0 -196 -106l-92 139q130 139 301 139q122 0 200 -71t78 -183q0 -116 -114 -233l-166 -172h284v-170h-557zM264 0l1184 1513h233l-1181 -1513h-236zM1204 635v172h559v-131l-305 -672h-205l293 631
h-342z" />
    <glyph glyph-name="uni0414.ss01" horiz-adv-x="1595" 
d="M1354 1513v-1228h159v-592h-303v307h-843v-307h-304v592h130q69 123 122 331q54 212 97 572l39 325h903zM516 285h535v942h-334l-15 -99q-76 -576 -186 -843z" />
    <glyph glyph-name="uni0416.ss01" horiz-adv-x="1918" 
d="M1343 772l594 -772h-354l-475 631v-631h-295v631l-475 -631h-354l594 772l-564 741h344l455 -618v618h295v-618l453 618h346z" />
    <glyph glyph-name="uni041B.ss01" horiz-adv-x="1527" 
d="M156 -18q-52 0 -88 8l-52 260q46 -4 47 -4q130 0 199 112q32 50 55 123q25 79 39 146q22 103 33 194l25 205l24 242l25 245h897v-1513h-307v1221h-318l-16 -156l-19 -168q-3 -47 -18 -149q-11 -89 -25 -160q-15 -71 -32 -137q-34 -142 -95 -248q-129 -221 -374 -221z" />
    <glyph glyph-name="uni0424.ss01" horiz-adv-x="1992" 
d="M1149 82v-246h-305v246q-349 15 -561 194q-211 181 -211 484q0 300 209 479q212 182 563 197v241h305v-241q347 -15 559 -197q213 -183 213 -479q0 -299 -215 -481q-212 -182 -557 -197zM1149 1163v-811q212 6 338 117q127 115 127 291q0 173 -127 282q-127 112 -338 121
zM379 760q0 -183 125 -292.5t340 -115.5v811q-216 -11 -340.5 -118t-124.5 -285z" />
    <glyph glyph-name="uni042A.ss01" horiz-adv-x="1550" 
d="M670 997h288q151 0 265 -47.5t172 -128.5q108 -151 108 -325q0 -213 -139 -355q-138 -141 -379 -141h-614v1249h-340v264h639v-516zM670 268h264q121 0 188.5 65.5t67.5 168.5q0 101 -65 164t-183 63h-272v-461z" />
    <glyph glyph-name="uni042C.ss01" horiz-adv-x="1347" 
d="M467 997h289q150 0 264 -47.5t172 -128.5q108 -151 108 -325q0 -213 -139 -355q-138 -141 -379 -141h-614v1513h299v-516zM467 268h264q121 0 188.5 65.5t67.5 168.5q0 101 -65 164t-183 63h-272v-461z" />
    <glyph glyph-name="uni0431.ss01" horiz-adv-x="1388" 
d="M758 1098q141 0 266 -64q129 -64 210 -195t81 -298q0 -239 -164 -406q-164 -164 -424 -164q-161 0 -290 66.5t-204 181.5q-147 225 -147 518q-1 153 28 274t83.5 206.5t121.5 144t154 102.5q162 79 365 127q214 49 374 115v-274q-90 -41 -217 -76l-217 -58
q-61 -16 -112 -35.5t-105.5 -52t-94.5 -73t-72.5 -100.5t-47.5 -132q66 92 175 142.5t237 50.5zM729 231q124 0 215 91q88 91 88 221q0 127 -88 215q-85 88 -211 88q-128 0 -217 -86q-90 -84 -90 -215q0 -129 86 -221q87 -93 217 -93z" />
    <glyph glyph-name="uni0432.ss01" horiz-adv-x="1200" 
d="M903 618q108 -24 166.5 -100.5t58.5 -183.5q0 -147 -106 -240q-107 -94 -289 -94h-602v1116h586q160 0 253 -79.5t93 -194.5q0 -81 -42.5 -140t-117.5 -84zM688 893h-287v-209h287q58 0 88.5 30.5t30.5 76.5q0 44 -31 73t-88 29zM401 227h308q65 0 103 35.5t38 93.5
q0 57 -35.5 92t-101.5 35h-312v-256z" />
    <glyph glyph-name="uni0433.ss01" horiz-adv-x="923" 
d="M131 1116h768v-256h-481v-860h-287v1116z" />
    <glyph glyph-name="uni0434.ss01" horiz-adv-x="1347" 
d="M1153 1118v-870h121v-492h-273v244h-679v-244h-273v492h123q113 197 184 672l29 198h768zM625 887l-15 -74q-53 -357 -143 -565h403v639h-245z" />
    <glyph glyph-name="uni0436.ss01" horiz-adv-x="1605" 
d="M1157 569l461 -569h-322l-360 455v-455h-266v453l-361 -453h-321l461 569l-429 547h312l338 -450v450h266v-450l336 450h313z" />
    <glyph glyph-name="uni0437.ss01" horiz-adv-x="1081" 
d="M502 -25q-254 0 -465 117l94 211q203 -90 373 -90q105 0 164 35t59 96q0 111 -195 111h-239v221h176q219 0 219 117q0 53 -50 81.5t-136 28.5q-152 0 -318 -88l-118 193q88 63 212.5 100t249.5 37q197 0 316 -88q121 -89 121 -209q0 -78 -56 -141t-155 -95v-6
q118 -29 187 -104.5t69 -175.5q0 -145 -136 -248t-372 -103z" />
    <glyph glyph-name="uni0438.ss01" horiz-adv-x="1329" 
d="M315 0h-184v1116h281v-674l602 674h186v-1116h-282v666z" />
    <glyph glyph-name="uni0439.ss01" horiz-adv-x="1329" 
d="M682 1186q-234 0 -403 211l139 145q68 -86 128.5 -121t135.5 -35t136 35t132 121l137 -145q-172 -211 -405 -211zM315 0h-184v1116h281v-674l602 674h186v-1116h-282v666z" />
    <glyph glyph-name="uni043A.ss01" horiz-adv-x="1173" 
d="M1190 0h-342l-348 459l-88 -84v-375h-281v1116h281v-411l417 411h349l-488 -471z" />
    <glyph glyph-name="uni043B.ss01" horiz-adv-x="1284" 
d="M150 -16q-32 0 -70 6l-70 217h45q108 0 166 88q43 62 72 178q32 127 43 225q16 114 39 324l10 94h768v-1116h-289v858h-229l-12 -94l-13 -100l-14 -93q-7 -53 -16 -96q-20 -103 -45 -176q-31 -82 -70 -145q-108 -170 -315 -170z" />
    <glyph glyph-name="uni043F.ss01" horiz-adv-x="1265" 
d="M131 1116h1004v-1116h-287v858h-430v-858h-287v1116z" />
    <glyph glyph-name="uni0442.ss01" horiz-adv-x="1013" 
d="M25 1116h964v-250h-340v-866h-287v866h-337v250z" />
    <glyph glyph-name="uni0444.ss01" horiz-adv-x="1746" 
d="M1673 557q0 -266 -180 -418q-184 -152 -483 -164v-299h-273v299q-300 12 -483 166q-180 152 -180 418q0 265 180 420q183 157 483 166v299h273v-299q298 -9 481 -166q182 -156 182 -422zM1010 895v-676q179 1 281 92.5t102 247.5q0 155 -100 243.5t-283 92.5zM737 221
v674q-184 -4 -283.5 -92t-99.5 -244q0 -155 102 -244t281 -94z" />
    <glyph glyph-name="uni0446.ss01" horiz-adv-x="1366" 
d="M1321 -369h-277v369h-913v1116h289v-850h432v850h289v-850h180v-635z" />
    <glyph glyph-name="uni0448.ss01" horiz-adv-x="1906" 
d="M1776 0h-1645v1116h289v-850h389v850h289v-850h389v850h289v-1116z" />
    <glyph glyph-name="uni0449.ss01" horiz-adv-x="2000" 
d="M1776 1116v-850h178v-635h-277v369h-1546v1116h289v-850h389v850h289v-850h389v850h289z" />
    <glyph glyph-name="uni044A.ss01" horiz-adv-x="1269" 
d="M557 774h217q100 0 180 -23.5t130 -61.5t83 -89.5t46.5 -103.5t13.5 -107q0 -167 -117 -278q-114 -111 -324 -111h-507v860h-244v256h522v-342zM555 236h203q94 0 140 41t46 112q0 64 -46.5 106t-131.5 42h-211v-301z" />
    <glyph glyph-name="uni044C.ss01" horiz-adv-x="1128" 
d="M408 774h227q121 0 213.5 -34t142.5 -95q94 -108 94 -256q0 -168 -116 -278q-114 -111 -324 -111h-514v1116h277v-342zM406 236h210q95 0 142 41t47 112q0 65 -46.5 106.5t-133.5 41.5h-219v-301z" />
    <glyph glyph-name="uni044E.ss01" horiz-adv-x="1804" 
d="M1135 1147q261 0 430 -172q168 -168 168 -416q0 -250 -168 -418q-170 -170 -430 -170q-228 0 -387 129q-159 135 -199 336h-133v-436h-285v1116h285v-444h131q38 209 196 340q163 135 392 135zM913 332q89 -92 222 -92q130 0 219 92q90 96 90 227q0 132 -90 225t-219 93
q-132 0 -222 -93q-88 -91 -88 -225q0 -133 88 -227z" />
    <glyph glyph-name="yen.osf" horiz-adv-x="1044" 
d="M784 1210h293l-297 -532h170v-189h-274l-12 -20v-45h286v-188h-286v-236h-277v236h-289v188h289v47l-10 18h-279v189h174l-295 532h295l254 -501z" />
    <glyph glyph-name="zero.dnom" horiz-adv-x="790" 
d="M653 106q-88 -116 -258 -116q-172 0 -260 116q-88 119 -88 304q0 184 88 303q87 118 260 118q171 0 258 -118q90 -122 90 -303q0 -182 -90 -304zM395 168q150 0 150 242q0 241 -150 241q-147 0 -147 -241q0 -242 147 -242z" />
    <glyph glyph-name="zero.lf" horiz-adv-x="1409" 
d="M705 -25q-204 0 -345 111q-268 210 -268 672q0 218 64 389q65 178 209 285.5t340 107.5q153 0 272.5 -63t192.5 -172t110 -248t37 -299t-37 -299t-110 -248.5t-192.5 -172.5t-272.5 -63zM1016 758q0 217 -78 358q-77 139 -233 139q-155 0 -232 -139q-78 -141 -78 -358
q0 -228 79.5 -363t230.5 -135t231 135t80 363z" />
    <glyph glyph-name="zero.num" horiz-adv-x="790" 
d="M653 815q-89 -117 -258 -117q-171 0 -260 117q-88 119 -88 303t88 303t260 119q170 0 258 -119q90 -122 90 -303t-90 -303zM395 877q150 0 150 241q0 242 -150 242q-147 0 -147 -242q0 -241 147 -241z" />
    <glyph glyph-name="zero.osf" horiz-adv-x="1275" 
d="M637 -25q-264 0 -406 177q-139 180 -139 450q0 271 139 451q141 178 406 178q267 0 405 -178q142 -180 142 -451q0 -270 -142 -450q-139 -177 -405 -177zM637 227q130 0 194 101q68 103 68 274q0 169 -65 272t-195 103q-127 0 -193.5 -100t-66.5 -275q0 -174 66.5 -274.5
t191.5 -100.5z" />
    <glyph glyph-name="zero.slash" horiz-adv-x="1409" 
d="M705 1540q153 0 272.5 -63t192.5 -172t110 -248t37 -299t-37 -299t-110 -248.5t-192.5 -172.5t-272.5 -63q-204 0 -345 111q-268 210 -268 672q0 218 64 389q65 178 209 285.5t340 107.5zM705 1286q-163 0 -246 -147q-82 -146 -82 -381q0 -171 43 -299l483 743
q-81 84 -198 84zM705 229q163 0 247 146q82 146 82 383q0 155 -37 276l-477 -735q76 -70 185 -70z" />
    <glyph glyph-name="zero.tf" horiz-adv-x="1267" 
d="M633 -25q-191 0 -326 111q-256 209 -256 672q0 212 60 389q64 178 200.5 285.5t321.5 107.5q194 0 328 -110q258 -211 258 -672q0 -212 -62 -389q-64 -178 -201 -286t-323 -108zM924 758q0 219 -74 358q-71 139 -215 139q-145 0 -219 -139q-72 -141 -72 -358
q0 -229 74.5 -363.5t216.5 -134.5t215.5 134.5t73.5 363.5z" />
    </font>
</defs>
</svg>
