<?xml version="1.0" standalone="no"?>
<!DOCTYPE svg PUBLIC "-//W3C//DTD SVG 1.1//EN" "http://www.w3.org/Graphics/SVG/1.1/DTD/svg11.dtd" >
<svg xmlns="http://www.w3.org/2000/svg" xmlns:xlink="http://www.w3.org/1999/xlink" version="1.1">
<metadata>
Created by FontForge 20170731 at Tue Jun  8 08:01:12 2021
 By Aleksey,,,
Copyright (c) 2017 by Kastelov. All rights reserved.
</metadata>
<defs>
<font id="Axiforma-Light" horiz-adv-x="1236" >
  <font-face 
    font-family="Axiforma Light"
    font-weight="300"
    font-stretch="normal"
    units-per-em="2048"
    panose-1="0 0 4 0 0 0 0 0 0 0"
    ascent="1579"
    descent="-469"
    x-height="1094"
    cap-height="1513"
    bbox="-813 -561 2591 2056"
    underline-thickness="102"
    underline-position="-307"
    unicode-range="U+000D-25CA"
  />
<missing-glyph horiz-adv-x="266" 
 />
    <glyph glyph-name="f_b" unicode="fb" horiz-adv-x="2144" 
d="M242 1096v88q0 182 99 285.5t263 103.5q117 0 221 -55l-45 -101q-90 41 -168 41q-119 0 -183 -71.5t-64 -204.5v-86h409v-109h-409v-987h-123v987h-193v109h193zM1509 1120q231 0 387 -166t156 -407t-156 -410q-156 -166 -389 -166q-140 0 -254 65t-182 183v-219h-123
v1546h123v-672q69 117 183 181.5t255 64.5zM1501 88q186 0 305 131q121 133 121 328q0 194 -119 325q-122 134 -307 134q-188 0 -313 -134q-121 -133 -121 -321q0 -194 121 -330q124 -133 313 -133z" />
    <glyph glyph-name="f_f" unicode="ff" horiz-adv-x="1490" 
d="M1335 1458q-128 0 -196 -71.5t-68 -204.5v-86h410v-109h-410v-987h-123v987h-583v-987h-123v987h-193v109h193v88q0 183 109.5 286t295.5 103q158 0 299 -84l-51 -100q-115 69 -242 69q-137 0 -212.5 -71.5t-75.5 -204.5v-86h583v88q0 183 102.5 286t276.5 103
q125 0 236 -60l-43 -100q-86 45 -185 45z" />
    <glyph glyph-name="f_f_i" unicode="ffi" horiz-adv-x="1947" 
d="M1319 1458q-118 0 -183 -71.5t-65 -204.5v-86h434v-109h-434v-987h-123v987h-583v-987h-123v987h-193v109h193v88q0 183 109.5 286t295.5 103q158 0 299 -84l-51 -100q-115 69 -242 69q-137 0 -212.5 -71.5t-75.5 -204.5v-86h583v88q0 182 99.5 285.5t263.5 103.5
q116 0 223 -55l-47 -101q-90 41 -168 41zM1722 1479q43 0 73 -30.5t30 -74.5t-30 -75t-73 -31q-47 0 -77.5 30.5t-30.5 75.5t30.5 75t77.5 30zM1782 0h-123v1096h123v-1096z" />
    <glyph glyph-name="f_f_j" unicode="ffj" horiz-adv-x="1947" 
d="M1501 1096v-109h-430v-987h-123v987h-583v-987h-123v987h-193v109h193v88q0 183 109.5 286t295.5 103q158 0 299 -84l-51 -100q-115 69 -242 69q-137 0 -212.5 -71.5t-75.5 -204.5v-86h583v88q0 182 99.5 285.5t263.5 103.5q116 0 223 -55l-47 -101q-90 41 -168 41
q-118 0 -183 -71.5t-65 -204.5v-86h430zM1722 1479q43 0 73 -30.5t30 -74.5t-30 -75t-73 -31q-47 0 -77.5 30.5t-30.5 75.5t30.5 75t77.5 30zM1659 -109v1205h123v-1196q0 -176 -86.5 -271.5t-237.5 -95.5q-113 0 -196 47l32 105q88 -39 156 -39q102 0 155.5 63.5
t53.5 181.5z" />
    <glyph glyph-name="f_h" unicode="fh" horiz-adv-x="2033" 
d="M242 1096v88q0 182 99 285.5t263 103.5q117 0 221 -55l-45 -101q-90 41 -168 41q-119 0 -183 -71.5t-64 -204.5v-86h409v-109h-409v-987h-123v987h-193v109h193zM1446 1124q186 0 309 -120q125 -119 125 -342v-662h-123v641q0 172 -86.5 270.5t-238.5 98.5
q-144 0 -252 -99q-109 -100 -109 -295v-616h-123v1546h119v-635q49 102 148.5 157.5t230.5 55.5z" />
    <glyph glyph-name="f_i" unicode="fi" horiz-adv-x="1241" 
d="M242 1096v88q0 182 99 285.5t263 103.5q117 0 221 -55l-45 -101q-90 41 -168 41q-119 0 -183 -71.5t-64 -204.5v-86h409v-109h-409v-987h-123v987h-193v109h193zM938 1448q31 31 75.5 31t73.5 -31q31 -31 31 -76t-31 -76q-29 -29 -73.5 -29t-75.5 29q-31 31 -31 76t31 76
zM1075 0h-123v1096h123v-1096z" />
    <glyph glyph-name="f_j" unicode="fj" horiz-adv-x="1241" 
d="M795 1096v-109h-430v-987h-123v987h-193v109h193v88q0 182 99 285.5t263 103.5q117 0 221 -55l-45 -101q-90 41 -168 41q-119 0 -183 -71.5t-64 -204.5v-86h430zM938 1448q31 31 75.5 31t73.5 -31q31 -29 31 -74t-31 -76q-29 -29 -73.5 -29t-75.5 29q-31 31 -31 76t31 74
zM952 -109v1205h123v-1196q0 -176 -87 -271.5t-238 -95.5q-112 0 -195 47l33 105q85 -39 155 -39q100 0 154.5 64t54.5 181z" />
    <glyph glyph-name="f_k" unicode="fk" horiz-adv-x="1822" 
d="M242 1096v88q0 182 99 285.5t263 103.5q117 0 221 -55l-45 -101q-90 41 -168 41q-119 0 -183 -71.5t-64 -204.5v-86h409v-109h-409v-987h-123v987h-193v109h193zM1831 0h-160l-471 571l-129 -114v-457h-123v1546h123v-940l547 490h166l-498 -447z" />
    <glyph glyph-name="f_l" unicode="fl" horiz-adv-x="1239" 
d="M242 1096v88q0 183 95.5 286t258.5 103q117 0 221 -55l-37 -101q-90 41 -168 41q-119 0 -183 -71.5t-64 -204.5v-86h409v-109h-409v-987h-123v987h-193v109h193zM948 0v1546h123v-1546h-123z" />
    <glyph glyph-name=".notdef" horiz-adv-x="266" 
 />
    <glyph glyph-name=".null" horiz-adv-x="0" 
 />
    <glyph glyph-name="nonmarkingreturn" horiz-adv-x="682" 
 />
    <glyph glyph-name="CR.001" horiz-adv-x="266" 
 />
    <glyph glyph-name="CR.001" horiz-adv-x="266" 
 />
    <glyph glyph-name="CR" unicode="&#xd;" horiz-adv-x="681" 
 />
    <glyph glyph-name="space" unicode=" " horiz-adv-x="505" 
 />
    <glyph glyph-name="exclam" unicode="!" horiz-adv-x="552" 
d="M334 336h-117l-6 1184h131zM279 -25q-43 0 -72 29t-29 70t29 68.5t72 27.5q41 0 69.5 -27.5t28.5 -68.5q0 -42 -28.5 -70.5t-69.5 -28.5z" />
    <glyph glyph-name="quotedbl" unicode="&#x22;" horiz-adv-x="813" 
d="M272 920h-108l174 593h145zM610 920h-108l174 593h145z" />
    <glyph glyph-name="numbersign" unicode="#" horiz-adv-x="1400" 
d="M1327 1063l-20 -102h-254l-80 -394h258l-21 -104h-260l-94 -463h-113l95 463h-392l-94 -463h-112l94 463h-260l18 104h264l80 394h-268l20 102h271l92 450h113l-93 -450h392l92 450h112l-92 -450h252zM469 567h391l80 394h-391z" />
    <glyph glyph-name="dollar" unicode="$" horiz-adv-x="1130" 
d="M1040 391q0 -168 -114 -282t-295 -129v-209h-105v206q-153 11 -273 91t-185 223l102 67q57 -125 159 -194.5t232 -69.5q153 0 249.5 83.5t96.5 209.5q0 159 -196 258q-85 41 -156 70q-86 38 -149 71q-259 130 -259 361q0 158 105 266q107 110 283 125v188h102v-188
q233 -24 371 -223l-93 -76q-129 184 -331 184q-134 0 -219.5 -74.5t-85.5 -195.5q0 -157 182 -252q63 -32 166 -78q116 -51 172 -80q241 -128 241 -352z" />
    <glyph glyph-name="percent" unicode="%" horiz-adv-x="1785" 
d="M451 797q-153 0 -267 108q-110 107 -110 262q0 156 110 263q113 110 267 110q156 0 266 -110q110 -107 110 -263q0 -155 -110 -262q-111 -108 -266 -108zM377 0h-131l1151 1513h133zM258 975q80 -80 193 -80t190 80q80 80 80 192q0 113 -80 193q-77 80 -190 80t-193 -80
q-78 -81 -78 -193q0 -111 78 -192zM1602 84q-112 -109 -267 -109q-154 0 -266 109q-111 108 -111 262t111 262q111 111 266 111q156 0 267 -111q110 -107 110 -262t-110 -262zM1065 346q0 -111 78 -192q80 -80 192 -80q113 0 191 78q80 80 80 194q0 115 -80 195
q-77 80 -191 80q-112 0 -192 -80q-78 -81 -78 -195z" />
    <glyph glyph-name="ampersand" unicode="&#x26;" horiz-adv-x="1392" 
d="M1128 303l250 -231l-73 -86l-250 233q-236 -239 -502 -239q-203 0 -334 122t-131 304q0 275 318 448q-109 148 -109 305q0 162 106 268q109 109 259 109q131 0 227 -84q94 -82 94 -213q0 -149 -131 -252q-57 -44 -115 -78q-41 -24 -141 -73l-25 -13q45 -51 115 -114
l358 -330q75 87 168 233l88 -67q-77 -126 -172 -242zM664 1436q-107 0 -181 -80q-71 -80 -71 -195q0 -125 92 -258l112 55q25 12 93 54q68 45 86 65q71 79 71 158q0 85 -57.5 143t-144.5 58zM563 88q209 0 410 207l-377 352q-68 61 -123 123q-131 -76 -196.5 -161
t-65.5 -199q0 -141 98 -232q101 -90 254 -90z" />
    <glyph glyph-name="quotesingle" unicode="'" horiz-adv-x="475" 
d="M209 920h-109l174 593h146z" />
    <glyph glyph-name="parenleft" unicode="(" horiz-adv-x="755" 
d="M745 -356l-55 -95q-286 156 -442 433q-156 276 -156 620q0 348 156 621q157 278 442 434l55 -94q-256 -153 -391 -400.5t-135 -560.5q0 -311 136 -558t390 -400z" />
    <glyph glyph-name="parenright" unicode=")" horiz-adv-x="755" 
d="M63 -451l-53 95q254 152 389.5 399t135.5 559t-135.5 559.5t-389.5 401.5l53 94q286 -157 443 -434q158 -277 158 -621q0 -340 -158 -620q-156 -276 -443 -433z" />
    <glyph glyph-name="asterisk" unicode="*" horiz-adv-x="903" 
d="M453 1075l-199 -246l-80 64l201 233l-277 127l43 90l265 -124l-5 305h103l-4 -305l264 124l41 -90l-277 -127l201 -233l-80 -64z" />
    <glyph glyph-name="plus" unicode="+" horiz-adv-x="1050" 
d="M584 760h391v-115h-391v-389l-115 -2v391h-391v115h391v393h115v-393z" />
    <glyph glyph-name="comma" unicode="," horiz-adv-x="458" 
d="M238 162q47 0 77.5 -35t30.5 -86q0 -156 -215 -291l-39 55q135 94 162 172q-16 -8 -35 -8q-35 0 -61.5 27.5t-26.5 64.5q0 41 31.5 71t75.5 30z" />
    <glyph glyph-name="hyphen" unicode="-" horiz-adv-x="1071" 
d="M928 510h-783v115h783v-115z" />
    <glyph glyph-name="period" unicode="." horiz-adv-x="448" 
d="M225 -33q-43 0 -71.5 28.5t-28.5 70.5q0 41 28.5 68.5t71.5 27.5q42 0 70.5 -27.5t28.5 -68.5q0 -42 -28.5 -70.5t-70.5 -28.5z" />
    <glyph glyph-name="slash" unicode="/" horiz-adv-x="1167" 
d="M162 -252h-119l965 1942h114z" />
    <glyph glyph-name="zero" unicode="0" horiz-adv-x="1357" 
d="M678 -25q-146 0 -261 69t-179 189q-123 231 -123 525t123 522q64 121 179 190.5t261 69.5q149 0 263 -69.5t177 -190.5q123 -228 123 -522t-123 -525q-63 -120 -177 -189t-263 -69zM678 92q207 0 321 182q115 183 115 484q0 298 -115 481q-114 184 -321 184
q-208 0 -322 -184q-112 -178 -112 -481t112 -484q114 -182 322 -182z" />
    <glyph glyph-name="one" unicode="1" horiz-adv-x="755" 
d="M18 1147l433 366h98v-1513h-127v1337l-330 -278z" />
    <glyph glyph-name="two" unicode="2" horiz-adv-x="1101" 
d="M672 561l-391 -446h720v-117h-895v108l437 492q164 187 233 297q76 116 76 231q0 129 -89.5 213t-230.5 84q-204 0 -378 -180l-78 86q205 211 459 211q193 0 315 -119q125 -116 125 -303q0 -104 -64 -229q-69 -135 -239 -328z" />
    <glyph glyph-name="three" unicode="3" horiz-adv-x="1110" 
d="M502 -25q-240 0 -441 154l64 100q183 -137 377 -137q163 0 262.5 88t99.5 228q0 141 -95.5 225t-276.5 84h-162v112h149q173 0 264 91t91 213q0 129 -89.5 209.5t-230.5 80.5q-205 0 -354 -149l-70 86q75 82 191 131t237 49q199 0 320 -115q123 -114 123 -282
q0 -127 -71.5 -224.5t-187.5 -134.5v-8q133 -31 211 -130.5t78 -239.5q0 -188 -137 -310q-136 -121 -352 -121z" />
    <glyph glyph-name="four" unicode="4" horiz-adv-x="1159" 
d="M905 518h170v-115h-170v-403h-125v403h-731l-20 78l800 1032h76v-995zM780 1266l-581 -748h581v748z" />
    <glyph glyph-name="five" unicode="5" horiz-adv-x="1144" 
d="M575 971q207 0 345 -135q137 -134 137 -355q0 -224 -148 -366q-146 -140 -368 -140q-247 0 -455 187l68 94q182 -164 383 -164q170 0 282 109q111 108 111 280q0 168 -103 271q-102 102 -262 102q-191 0 -321 -160l-90 45l77 774h723v-112h-618l-57 -531q119 101 296 101
z" />
    <glyph glyph-name="six" unicode="6" horiz-adv-x="1230" 
d="M645 -18q-256 0 -393 204t-137 527q-1 159 35.5 304.5t107 263.5t187.5 188.5t264 70.5q215 0 364 -125l-57 -94q-130 106 -301 106q-127 0 -227.5 -69.5t-155.5 -188.5q-107 -228 -94 -501h6q35 134 153 221q119 88 271 88q200 0 336 -139q135 -138 135 -353
q0 -214 -140 -360q-137 -143 -354 -143zM653 96q151 0 256 111q107 113 107 278q0 163 -105 271q-102 108 -256 108t-266 -112q-110 -110 -110 -269q0 -155 108 -272q109 -115 266 -115z" />
    <glyph glyph-name="seven" unicode="7" horiz-adv-x="997" 
d="M39 1401v112h922v-77l-605 -1436h-135l602 1401h-784z" />
    <glyph glyph-name="eight" unicode="8" horiz-adv-x="1247" 
d="M625 -25q-229 0 -373 123q-143 122 -143 305q0 138 84 246.5t229 149.5v4q-122 50 -188 143.5t-66 204.5q0 164 127 276q128 113 330 113q200 0 325 -113q127 -112 127 -276q0 -113 -67 -207.5t-187 -140.5v-6q146 -41 231 -149t85 -245q0 -180 -146 -305
q-144 -123 -368 -123zM623 852q159 0 247 88t88 205q0 119 -94 201q-93 84 -239 84q-148 0 -244 -84q-92 -83 -92 -201q0 -117 88 -205t246 -88zM1016 416q0 133 -101 227q-101 98 -290 98q-192 0 -293 -98q-103 -95 -103 -229q0 -140 111 -234q115 -92 285 -92
q171 0 280 92q111 94 111 236z" />
    <glyph glyph-name="nine" unicode="9" horiz-adv-x="1228" 
d="M535 -20q-224 0 -369 124l55 97q133 -109 309 -109q107 0 190.5 46t135.5 121t85 176.5t44.5 205.5t7.5 215h-6q-35 -134 -156 -223q-119 -88 -270 -88q-197 0 -336 139q-135 138 -135 350q0 216 139 361t357 145q256 0 391 -205q135 -203 135 -530q0 -130 -20 -248
t-65 -224.5t-111 -184t-164 -123t-217 -45.5zM575 657q152 0 263 111q112 112 112 270q0 156 -108 273q-107 116 -267 116q-153 0 -256 -112q-104 -110 -104 -279q0 -164 102 -272q104 -107 258 -107z" />
    <glyph glyph-name="colon" unicode=":" horiz-adv-x="487" 
d="M258 754q-43 0 -71.5 28.5t-28.5 69.5t28.5 68.5t71.5 27.5q41 0 69.5 -27.5t28.5 -68.5q0 -42 -28 -70t-70 -28zM258 -33q-42 0 -71 28.5t-29 70.5q0 41 28.5 68.5t71.5 27.5q41 0 69.5 -27.5t28.5 -68.5q0 -42 -28 -70.5t-70 -28.5z" />
    <glyph glyph-name="semicolon" unicode=";" horiz-adv-x="548" 
d="M279 750q-63 -4 -89 48.5t0 104t89 45.5q43 0 72.5 -28t29.5 -70q0 -43 -29.5 -71.5t-72.5 -28.5zM279 162q47 0 77.5 -35t30.5 -86q0 -156 -215 -291l-39 55q135 94 162 172q-16 -8 -35 -8q-35 0 -61.5 27.5t-26.5 64.5q0 41 31.5 71t75.5 30z" />
    <glyph glyph-name="less" unicode="&#x3c;" horiz-adv-x="1107" 
d="M971 266v-133l-903 498v90l903 498v-132l-752 -411z" />
    <glyph glyph-name="equal" unicode="=" horiz-adv-x="1200" 
d="M1049 791h-897v112h897v-112zM1049 438h-897v113h897v-113z" />
    <glyph glyph-name="greater" unicode="&#x3e;" horiz-adv-x="1083" 
d="M1020 631l-893 -510v133l725 412l-725 409v131l893 -510v-65z" />
    <glyph glyph-name="question" unicode="?" horiz-adv-x="1015" 
d="M502 330h-115v153q0 151 143 283q10 9 44.5 39.5t48 42.5t43.5 41t43 46.5t34 46.5t30 52t16.5 53t7.5 60q0 120 -90 201q-88 82 -228 82q-193 0 -340 -173l-80 80q78 97 190.5 152t233.5 55q183 0 308 -110q129 -108 129 -287q0 -86 -41 -167t-107 -142
q-19 -18 -60 -54.5t-64 -57.5t-55 -55t-48.5 -60t-29.5 -59t-13 -65v-157zM446 -25q-43 0 -72.5 29t-29.5 70t29.5 68.5t72.5 27.5q39 0 68 -28t29 -68q0 -42 -29 -70.5t-68 -28.5z" />
    <glyph glyph-name="at" unicode="@" horiz-adv-x="1982" 
d="M1266 868v121h106v-571q0 -77 38.5 -120.5t100.5 -43.5q112 0 189 121q78 125 78 299q0 298 -230 512q-229 215 -542 215q-331 0 -562 -240t-231 -579q0 -341 240 -578q238 -235 587 -235q164 0 317.5 58t266.5 161l62 -82q-107 -101 -283 -172q-174 -70 -371 -70
q-258 0 -473 123q-216 124 -338 334q-123 211 -123 459q-3 122 29 241t90.5 221t144 189t185.5 147.5t218 93.5t239 31q364 0 624 -248t260 -585q0 -221 -114 -371q-114 -147 -273 -147q-91 0 -152 50.5t-75 127.5q-54 -85 -140.5 -131.5t-189.5 -46.5q-171 0 -287 122
q-114 126 -114 308q0 186 119 311q121 127 292 127q97 0 180.5 -41t131.5 -111zM958 254q132 0 220 94q90 96 90 236q0 143 -88 237q-91 97 -217 97q-131 0 -222 -97q-88 -94 -88 -237q0 -141 86 -236q85 -94 219 -94z" />
    <glyph glyph-name="A" unicode="A" horiz-adv-x="1335" 
d="M1303 0h-138l-180 459h-637l-180 -459h-137l604 1513h67zM944 575l-276 715l-279 -715h555z" />
    <glyph glyph-name="B" unicode="B" horiz-adv-x="1353" 
d="M956 819q138 -37 216.5 -144.5t78.5 -244.5q0 -175 -125 -303q-127 -127 -354 -127h-565v1513h545q203 0 309 -112q110 -110 110 -264q0 -110 -59 -198t-156 -120zM739 1395h-407v-527h430q123 0 202.5 77.5t79.5 191.5q0 115 -81 186.5t-224 71.5zM332 119h430
q159 0 260 90q100 90 100 227q0 136 -100 223q-105 91 -262 91h-428v-631z" />
    <glyph glyph-name="C" unicode="C" horiz-adv-x="1607" 
d="M881 -23q-325 0 -551 218t-226 557q0 344 228 565q229 223 553 223q207 0 385 -94q177 -91 272 -242l-96 -71q-86 131 -236 208.5t-325 77.5q-279 0 -467 -188q-187 -187 -187 -477q0 -285 185 -473q188 -185 467 -185q170 0 320 74.5t249 206.5l90 -74
q-111 -151 -284.5 -238.5t-376.5 -87.5z" />
    <glyph glyph-name="D" unicode="D" horiz-adv-x="1533" 
d="M711 0h-504v1513h520q322 0 508 -204q188 -206 188 -555t-190 -551q-191 -203 -522 -203zM332 1395v-1276h379q275 0 428 172q155 174 155 465q0 290 -153 465q-149 174 -418 174h-391z" />
    <glyph glyph-name="E" unicode="E" horiz-adv-x="1230" 
d="M1122 0h-915v1513h911v-118h-786v-570h733v-116h-733v-590h790v-119z" />
    <glyph glyph-name="F" unicode="F" horiz-adv-x="1136" 
d="M332 0h-125v1513h876v-120h-751v-566h667v-120h-667v-707z" />
    <glyph glyph-name="G" unicode="G" horiz-adv-x="1677" 
d="M877 -23q-334 0 -553 222q-220 223 -220 557q0 341 230 561q229 223 555 223q185 0 358 -78t273 -202l-90 -82q-92 112 -236.5 176.5t-304.5 64.5q-279 0 -469 -190q-189 -189 -189 -473q0 -285 185 -473q184 -187 463 -187q319 0 563 250v354h-604v117h725v-518
q-279 -322 -686 -322z" />
    <glyph glyph-name="H" unicode="H" horiz-adv-x="1509" 
d="M334 0h-127v1513h127v-700h844v700h125v-1513h-125v694h-844v-694z" />
    <glyph glyph-name="I" unicode="I" horiz-adv-x="538" 
d="M207 0v1513h125v-1513h-125z" />
    <glyph glyph-name="J" unicode="J" horiz-adv-x="1126" 
d="M469 -25q-258 0 -426 201l84 88q62 -80 152.5 -125t189.5 -45q151 0 245.5 100.5t94.5 270.5v1048h127v-1040q0 -243 -131 -371q-133 -127 -336 -127z" />
    <glyph glyph-name="K" unicode="K" horiz-adv-x="1280" 
d="M1296 0h-159l-588 709l-217 -254v-455h-125v1513h125v-884l755 884h152l-606 -714z" />
    <glyph glyph-name="L" unicode="L" horiz-adv-x="1206" 
d="M1178 0h-971v1513h125v-1392h846v-121z" />
    <glyph glyph-name="M" unicode="M" horiz-adv-x="1851" 
d="M332 0h-125v1513h55l666 -978l659 978h58v-1513h-125v1204l-578 -856h-31l-579 854v-1202z" />
    <glyph glyph-name="N" unicode="N" horiz-adv-x="1576" 
d="M1245 270v1243h125v-1513h-65l-973 1231v-1231h-125v1513h55z" />
    <glyph glyph-name="O" unicode="O" horiz-adv-x="1761" 
d="M877 -25q-324 0 -549 228q-226 229 -226 551q0 324 228 555t551 231t549 -229q229 -229 229 -553t-229 -553q-227 -230 -553 -230zM881 96q272 0 460 191q189 195 189 469q0 276 -189 471q-186 192 -460 192q-272 0 -463 -194q-189 -195 -189 -469t189 -469
q188 -191 463 -191z" />
    <glyph glyph-name="P" unicode="P" horiz-adv-x="1224" 
d="M207 1513h467q236 0 358 -137q125 -137 125 -325q0 -191 -131 -328q-129 -135 -371 -135h-323v-588h-125v1513zM332 705h325q170 0 271.5 98t101.5 250q0 151 -95.5 246.5t-254.5 95.5h-348v-690z" />
    <glyph glyph-name="Q" unicode="Q" horiz-adv-x="1761" 
d="M1446 -139q93 0 186 35l17 -109q-91 -39 -207 -39q-284 0 -490 232q-14 -1 -38.5 -3t-32.5 -2q-321 0 -551 230q-228 231 -228 553t228 553q229 229 551 229q325 0 551 -229q227 -230 227 -553q0 -262 -158 -473q-159 -209 -403 -279q151 -145 348 -145zM231 756
q0 -274 189 -469q188 -191 461 -191q272 0 460 191q189 195 189 469q0 276 -189 471q-186 192 -460 192q-275 0 -461 -192q-189 -195 -189 -471z" />
    <glyph glyph-name="R" unicode="R" horiz-adv-x="1267" 
d="M1174 0h-152l-387 639h-303v-639h-125v1513h457q232 0 354 -131q125 -128 125 -307q0 -152 -99 -272q-92 -117 -276 -152zM666 1395h-334v-637h303q181 0 280 87.5t99 233.5q0 141 -94.5 228.5t-253.5 87.5z" />
    <glyph glyph-name="S" unicode="S" horiz-adv-x="1128" 
d="M563 -25q-164 0 -296.5 82t-200.5 234l100 67q58 -126 159.5 -195t233.5 -69q154 0 250 84t96 209q0 85 -48.5 146t-149.5 112q-88 42 -156 72q-121 54 -150 69q-258 129 -258 361q0 170 119 280q119 113 316 113q272 0 428 -225l-95 -76q-129 184 -331 184
q-134 0 -220 -74.5t-86 -195.5q0 -157 183 -252q63 -32 166 -78q116 -51 172 -80q243 -132 243 -352q0 -185 -137 -301q-136 -115 -338 -115z" />
    <glyph glyph-name="T" unicode="T" horiz-adv-x="1103" 
d="M489 0v1393h-458v120h1042v-120h-459v-1393h-125z" />
    <glyph glyph-name="U" unicode="U" horiz-adv-x="1402" 
d="M190 492v1021h125v-1001q0 -197 101.5 -305.5t285.5 -108.5q183 0 284 109.5t101 304.5v1001h125v-1021q0 -242 -139 -381q-138 -138 -371 -138q-231 0 -372 138q-140 140 -140 381z" />
    <glyph glyph-name="V" unicode="V" horiz-adv-x="1359" 
d="M682 221l514 1292h133l-614 -1513h-66l-622 1513h137z" />
    <glyph glyph-name="W" unicode="W" horiz-adv-x="2068" 
d="M600 0h-61l-506 1513h127l411 -1265l435 1265h55l440 -1263l408 1263h125l-502 -1513h-62l-436 1274z" />
    <glyph glyph-name="X" unicode="X" horiz-adv-x="1210" 
d="M176 0h-151l507 770l-485 743h148l411 -641l414 641h151l-491 -743l502 -770h-148l-428 662z" />
    <glyph glyph-name="Y" unicode="Y" horiz-adv-x="1232" 
d="M1053 1513h137l-512 -913v-600h-125v600l-508 913h137l434 -796z" />
    <glyph glyph-name="Z" unicode="Z" horiz-adv-x="1181" 
d="M1118 0h-1065v76l881 1319h-842v118h1004v-94l-863 -1300h885v-119z" />
    <glyph glyph-name="bracketleft" unicode="[" horiz-adv-x="737" 
d="M715 -465h-520v2126h520v-105h-396v-1916h396v-105z" />
    <glyph glyph-name="backslash" unicode="\" horiz-adv-x="1169" 
d="M162 1690l964 -1942h-116l-965 1942h117z" />
    <glyph glyph-name="bracketright" unicode="]" horiz-adv-x="737" 
d="M543 -465h-520v105h395v1916h-395v105h520v-2126z" />
    <glyph glyph-name="asciicircum" unicode="^" horiz-adv-x="1032" 
d="M223 883h-129l395 630h56l393 -630h-127l-295 485z" />
    <glyph glyph-name="underscore" unicode="_" horiz-adv-x="1177" 
d="M1178 -289h-1178v113h1178v-113z" />
    <glyph glyph-name="grave" unicode="`" horiz-adv-x="872" 
d="M260 1597l121 -327h-105l-174 327h158z" />
    <glyph glyph-name="a" unicode="a" horiz-adv-x="1355" 
d="M1069 885v211h119v-1096h-119v213q-69 -113 -182.5 -176.5t-249.5 -63.5q-233 0 -389 166q-156 169 -156 414q0 240 154 405q156 164 391 164q136 0 249.5 -62t182.5 -175zM643 86q190 0 313 135t123 332q0 192 -123 324q-124 133 -313 133q-188 0 -309 -133
q-119 -131 -119 -328q0 -199 119 -330q121 -133 309 -133z" />
    <glyph glyph-name="b" unicode="b" horiz-adv-x="1361" 
d="M727 1120q231 0 387 -166t156 -407t-156 -410q-156 -166 -389 -166q-140 0 -254 65t-182 183v-219h-123v1546h123v-672q69 117 183 181.5t255 64.5zM719 88q186 0 305 131q121 133 121 328q0 194 -119 325q-122 134 -307 134q-188 0 -313 -134q-121 -133 -121 -321
q0 -194 121 -330q124 -133 313 -133z" />
    <glyph glyph-name="c" unicode="c" horiz-adv-x="1218" 
d="M653 -25q-244 0 -401 160q-158 166 -158 412q0 249 160 414q161 161 412 161q162 0 294 -76t195 -206l-100 -58q-56 105 -160.5 166.5t-228.5 61.5q-197 0 -322 -131q-127 -130 -127 -332q0 -201 123 -330t313 -129q123 0 232.5 63t163.5 164l100 -61q-64 -126 -201 -203
q-134 -76 -295 -76z" />
    <glyph glyph-name="d" unicode="d" horiz-adv-x="1361" 
d="M1071 881v665h123v-1546h-123v213q-69 -116 -182 -179t-252 -63q-233 0 -389 166q-156 169 -156 410t156 407t389 166q138 0 251 -63t183 -176zM643 86q190 0 313 135t123 330q0 191 -123 323q-125 134 -313 134q-187 0 -309 -134q-119 -131 -119 -327q0 -197 119 -328
q121 -133 309 -133z" />
    <glyph glyph-name="e" unicode="e" 
d="M1149 596q0 -22 -6 -96h-922q14 -187 131 -298.5t314 -111.5q107 0 217.5 36t183.5 95l57 -94q-84 -66 -207 -109t-253 -43q-117 0 -213.5 32.5t-161.5 87.5t-110 129.5t-65 156.5t-20 170q0 247 150 410q148 161 395 161q222 0 365 -143q145 -142 145 -383zM639 1010
q-171 0 -285 -109t-133 -289h801q-1 181 -107.5 289.5t-275.5 108.5z" />
    <glyph glyph-name="f" unicode="f" horiz-adv-x="782" 
d="M629 1458q-128 0 -196 -71.5t-68 -204.5v-86h409v-109h-409v-987h-123v987h-193v109h193v88q0 183 102.5 286t276.5 103q124 0 235 -60l-43 -100q-89 45 -184 45z" />
    <glyph glyph-name="g" unicode="g" horiz-adv-x="1357" 
d="M1069 899v197h123v-1000q0 -258 -154 -409q-152 -152 -413 -152q-259 0 -471 156l63 98q187 -141 410 -141q204 0 323 117.5t119 318.5v141q-69 -109 -182 -169t-248 -60q-236 0 -391 162q-156 163 -156 401q0 233 158 399q156 164 391 164q135 0 247 -58.5t181 -164.5z
M643 109q189 0 311 131q125 131 125 323q0 190 -125 318q-123 129 -311 129q-187 0 -307 -129q-121 -130 -121 -322q0 -191 121 -321q120 -129 307 -129z" />
    <glyph glyph-name="h" unicode="h" horiz-adv-x="1251" 
d="M289 0h-123v1546h119v-635q49 102 148.5 157.5t230.5 55.5q186 0 309 -120q125 -119 125 -342v-662h-123v641q0 172 -87 270.5t-239 98.5q-144 0 -252 -99t-108 -295v-616z" />
    <glyph glyph-name="i" unicode="i" horiz-adv-x="456" 
d="M223 1268q-44 0 -75 30t-31 74t31 74.5t75 30.5q43 0 74 -30.5t31 -74.5t-31 -74t-74 -30zM281 1096v-1096h-123v1096h123z" />
    <glyph glyph-name="j" unicode="j" horiz-adv-x="505" 
d="M279 1268q-45 0 -76 30t-31 74t31.5 74.5t75.5 30.5q43 0 73.5 -30.5t30.5 -74.5t-30.5 -74t-73.5 -30zM14 -467q-117 0 -194 47l30 105q88 -39 156 -39q102 0 155.5 63.5t53.5 181.5v1205h123v-1196q0 -176 -86.5 -271.5t-237.5 -95.5z" />
    <glyph glyph-name="k" unicode="k" horiz-adv-x="1040" 
d="M1049 0h-160l-471 571l-129 -114v-457h-123v1546h123v-940l547 490h165l-497 -447z" />
    <glyph glyph-name="l" unicode="l" horiz-adv-x="456" 
d="M289 1546v-1546h-123v1546h123z" />
    <glyph glyph-name="m" unicode="m" horiz-adv-x="1953" 
d="M1382 1124q185 0 301 -116q119 -116 119 -326v-682h-123v672q0 157 -81.5 247.5t-219.5 90.5q-127 0 -231 -90q-100 -87 -100 -265v-655h-123v657q0 161 -81 257t-218 96q-131 0 -236 -97q-100 -93 -100 -297v-616h-123v1096h121v-185q44 100 136.5 156.5t209.5 56.5
q121 0 217 -62t139 -175q50 113 156 175t237 62z" />
    <glyph glyph-name="n" unicode="n" horiz-adv-x="1253" 
d="M289 0h-123v1096h119v-193q49 108 147.5 164.5t233.5 56.5q183 0 309 -120q125 -119 125 -342v-662h-123v639q0 172 -87 271.5t-239 99.5q-144 0 -254 -101q-108 -99 -108 -295v-614z" />
    <glyph glyph-name="o" unicode="o" horiz-adv-x="1323" 
d="M92 549q0 242 162 407q163 166 408 166q244 0 407 -166q162 -165 162 -407q0 -245 -162 -410q-163 -166 -407 -166q-245 0 -408 166q-162 165 -162 410zM662 86q192 0 319 133q127 136 127 330q0 195 -127 328t-319 133q-190 0 -320 -136q-127 -133 -127 -325
q0 -194 127 -330q130 -133 320 -133z" />
    <glyph glyph-name="p" unicode="p" horiz-adv-x="1363" 
d="M727 1124q234 0 389 -168q156 -166 156 -407t-156 -408q-156 -166 -389 -166q-140 0 -254.5 64t-183.5 180v-670h-123v1547h123v-224q70 119 184 185.5t254 66.5zM721 88q186 0 307 133t121 328t-121 328t-307 133q-189 0 -313 -136q-123 -135 -123 -329q0 -192 123 -324
q124 -133 313 -133z" />
    <glyph glyph-name="q" unicode="q" horiz-adv-x="1363" 
d="M1073 877v219h123v-1547h-123v666q-70 -113 -183.5 -176.5t-252.5 -63.5q-233 0 -389 166q-156 167 -156 408t156 407q155 168 389 168q139 0 253 -65t183 -182zM643 88q189 0 313 133q123 132 123 324q0 194 -123 329q-124 136 -313 136q-186 0 -307 -133t-121 -328
q0 -197 119 -328q121 -133 309 -133z" />
    <glyph glyph-name="r" unicode="r" horiz-adv-x="749" 
d="M289 0h-123v1096h117v-176q88 204 317 204q64 0 135 -18l-14 -117q-62 19 -117 19q-147 0 -231 -105t-84 -278v-625z" />
    <glyph glyph-name="s" unicode="s" horiz-adv-x="905" 
d="M451 -25q-125 0 -227.5 61t-160.5 179l99 61q94 -190 289 -190q108 0 178.5 60.5t70.5 146.5q0 107 -139 178q-36 17 -131 55q-102 44 -131 60q-174 88 -174 256q0 127 92.5 209t243.5 82q225 0 330 -172l-86 -70q-77 133 -246 133q-101 0 -158 -49t-57 -129
q0 -108 118 -166l123 -53q121 -52 146 -64q97 -46 144.5 -108.5t47.5 -153.5q0 -137 -104 -231q-106 -95 -268 -95z" />
    <glyph glyph-name="t" unicode="t" horiz-adv-x="847" 
d="M791 164l51 -94q-121 -95 -291 -95q-162 0 -246 100t-84 283v629h-194v109h196v387h121v-387h451v-109h-451v-633q0 -266 217 -266q126 0 230 76z" />
    <glyph glyph-name="u" unicode="u" horiz-adv-x="1198" 
d="M598 -27q-203 0 -326 123q-120 126 -120 332v668h122v-666q0 -158 87.5 -250t236.5 -92q153 0 239.5 92t86.5 252v664h123v-668q0 -210 -120 -332.5t-329 -122.5z" />
    <glyph glyph-name="v" unicode="v" horiz-adv-x="1103" 
d="M553 190l385 906h135l-483 -1094h-76l-483 1094h135z" />
    <glyph glyph-name="w" unicode="w" horiz-adv-x="1667" 
d="M504 2h-86l-385 1094h127l305 -901l328 901l81 -2l332 -899l299 901h129l-383 -1094h-86l-331 920z" />
    <glyph glyph-name="x" unicode="x" horiz-adv-x="970" 
d="M557 559l377 -559h-143l-308 461l-309 -461h-147l387 565l-357 531h146l284 -434l293 434h146z" />
    <glyph glyph-name="y" unicode="y" horiz-adv-x="1087" 
d="M561 160l359 936h135l-463 -1178q-82 -210 -166.5 -296.5t-208.5 -86.5q-90 0 -158 39l19 109q70 -33 135 -33q84 0 145 68t117 212l27 70l-467 1096h135z" />
    <glyph glyph-name="z" unicode="z" horiz-adv-x="976" 
d="M885 1006l-668 -897h698v-109h-858v84l676 901h-639v109h791v-88z" />
    <glyph glyph-name="braceleft" unicode="{" horiz-adv-x="702" 
d="M670 1556h-74q-227 0 -227 -245q0 -79 6 -242q8 -145 8 -211q0 -93 -45.5 -162t-124.5 -102q80 -33 125 -101t45 -163q0 -66 -8 -211q-6 -163 -6 -240q0 -248 227 -248h74v-104h-78q-342 0 -342 356q0 87 6 250q8 145 8 203q0 180 -215 215v86q215 35 215 215
q0 58 -8 203q-6 163 -6 252q0 176 87 265t255 89h78v-105z" />
    <glyph glyph-name="bar" unicode="|" horiz-adv-x="501" 
d="M307 -367h-112v2102h112v-2102z" />
    <glyph glyph-name="braceright" unicode="}" horiz-adv-x="702" 
d="M438 852q0 -180 215 -215v-86q-215 -35 -215 -215q0 -40 6 -203q9 -164 9 -250q0 -356 -342 -356h-78v104h71q230 0 230 248q0 95 -8 240q-7 191 -7 211q0 95 45 163t125 101q-80 33 -125 101t-45 163q0 20 7 211q8 145 8 242q0 245 -230 245h-71v105h78q168 0 255 -89
t87 -265q0 -89 -9 -252q-6 -164 -6 -203z" />
    <glyph glyph-name="asciitilde" unicode="~" horiz-adv-x="1302" 
d="M866 563q-87 0 -215 70q-126 69 -190 69q-72 0 -123.5 -30t-108.5 -101l-82 60q117 182 318 182q90 0 221 -70q129 -69 186 -69q66 0 110 26.5t95 94.5l82 -64q-110 -168 -293 -168z" />
    <glyph glyph-name="exclamdown" unicode="&#xa1;" horiz-adv-x="479" 
d="M262 1077q42 0 70 -28t28 -70q0 -41 -28.5 -68.5t-69.5 -27.5q-43 0 -71.5 27.5t-28.5 68.5t28.5 69.5t71.5 28.5zM195 -467l6 1184h116l9 -1184h-131z" />
    <glyph glyph-name="cent" unicode="&#xa2;" horiz-adv-x="1243" 
d="M711 1008v-916q109 12 201.5 73t140.5 150l100 -61q-60 -117 -178 -191t-264 -86v-163h-105v163q-221 15 -366 175q-142 160 -142 395q0 236 142 393q144 159 366 180v168h105v-168q151 -11 271.5 -85t176.5 -195l-100 -58q-51 97 -143.5 158t-204.5 68zM606 90v916
q-169 -21 -278 -148q-107 -125 -107 -311q0 -189 107 -314t278 -143z" />
    <glyph glyph-name="sterling" unicode="&#xa3;" horiz-adv-x="1128" 
d="M279 117h759v-117h-921v92q84 66 139 184q57 117 57 246q0 91 -32 191h-175v110h138q-64 192 -64 287q0 185 123 305q125 122 311 125q131 2 240 -61.5t170 -175.5l-100 -66q-102 188 -303 188q-137 -3 -226 -92q-88 -88 -88 -229q0 -83 66 -281h528v-110h-491
q28 -115 28 -203q-3 -229 -159 -393z" />
    <glyph glyph-name="currency" unicode="&#xa4;" horiz-adv-x="1302" 
d="M1100 752q0 -161 -105 -287l150 -146l-78 -73l-149 147q-121 -92 -273 -92q-147 0 -266 88l-146 -143l-75 73l143 142q-106 127 -106 291q0 147 90 272l-160 160l76 73l157 -155q124 106 287 106q164 0 295 -110l162 159l76 -73l-166 -164q88 -119 88 -268zM307 754
q0 -144 99 -246q100 -100 239 -100q140 0 240 100q102 102 102 246q0 145 -100 245q-103 103 -242 103q-136 0 -239 -103q-99 -102 -99 -245z" />
    <glyph glyph-name="yen" unicode="&#xa5;" horiz-adv-x="1232" 
d="M1036 1513h131l-436 -788h316v-102h-369v-160h369v-103h-369v-360h-125v360h-373v103h373v160h-373v102h322l-434 788h133l417 -772z" />
    <glyph glyph-name="brokenbar" unicode="&#xa6;" horiz-adv-x="501" 
d="M307 889h-112v846h112v-846zM195 479h112v-846h-112v846z" />
    <glyph glyph-name="section" unicode="&#xa7;" horiz-adv-x="1116" 
d="M1036 399q0 -175 -147 -264q53 -83 53 -188q0 -166 -119 -273q-118 -106 -301 -106q-264 0 -428 215l88 76q138 -176 338 -176q130 0 215.5 73.5t85.5 186.5q0 47 -21.5 94t-51.5 80q-21 26 -86 69q-58 38 -89 52l-102 53q-93 45 -147 78.5t-113 81.5q-115 95 -115 235
q0 79 38.5 147.5t105.5 110.5q-62 89 -62 207q0 170 115 279q113 110 301 110q252 0 403 -213l-88 -72q-125 168 -309 168q-134 0 -216.5 -75.5t-82.5 -194.5q0 -68 25 -119.5t84 -97.5q60 -45 106 -72q41 -24 141 -73l25 -13q95 -48 142.5 -76t99.5 -71q112 -93 112 -232z
M813 221q100 54 100 168q0 88 -65.5 149t-222.5 138q-235 113 -312 184q-94 -52 -94 -166q0 -87 69.5 -151t239.5 -148l54 -28q32 -15 63 -33q112 -62 168 -113z" />
    <glyph glyph-name="dieresis" unicode="&#xa8;" horiz-adv-x="1011" 
d="M115 1423q0 43 32.5 76t79.5 33q46 0 78.5 -32.5t32.5 -76.5q0 -47 -32 -79.5t-79 -32.5t-79.5 32.5t-32.5 79.5zM492 1423q0 43 33 76t79 33q47 0 80 -33t33 -76q0 -47 -33 -79.5t-80 -32.5t-79.5 32.5t-32.5 79.5z" />
    <glyph glyph-name="copyright" unicode="&#xa9;" horiz-adv-x="1777" 
d="M100 756q0 321 232 553q231 231 557 231t557 -231t231 -553q0 -320 -231 -551q-230 -230 -557 -230t-557 230q-232 232 -232 551zM1573 756q0 282 -201 483q-200 203 -483 203t-483 -203q-201 -201 -201 -483q0 -281 201 -482q200 -200 483 -200t483 200q201 201 201 482
zM893 336q-174 0 -295 121q-119 119 -119 299t119 299q121 121 295 121q196 0 324 -152l-70 -59q-102 120 -250 120q-137 0 -229 -92q-90 -93 -90 -237q0 -141 92 -236q92 -92 227 -92q151 0 254 109l63 -62q-124 -139 -321 -139z" />
    <glyph glyph-name="ordfeminine" unicode="&#xaa;" horiz-adv-x="839" 
d="M399 1507q135 0 214 -78t79 -217v-411h-88v94q-79 -113 -242 -113q-116 0 -186 62.5t-70 161.5t78 157t211 58q107 0 209 -27v18q0 209 -207 209q-130 0 -211 -63l-43 72q100 77 256 77zM365 870q106 0 172 64.5t67 179.5q-99 27 -203 27q-96 0 -149 -36.5t-53 -98.5
t46 -99t120 -37z" />
    <glyph glyph-name="guillemotleft" unicode="&#xab;" horiz-adv-x="1007" 
d="M516 180h-123l-297 416l297 416h123l-295 -416zM883 180h-125l-295 416l295 416h125l-295 -416z" />
    <glyph glyph-name="logicalnot" unicode="&#xac;" horiz-adv-x="1214" 
d="M950 621h-788v114h899v-383h-111v269z" />
    <glyph glyph-name="uni00AD" unicode="&#xad;" horiz-adv-x="1064" 
d="M924 616h-783v113h783v-113z" />
    <glyph glyph-name="registered" unicode="&#xae;" horiz-adv-x="1167" 
d="M240 1415q144 144 344 144q198 0 344 -146q143 -143 143 -344t-143 -344q-144 -141 -344 -141q-201 0 -344 143q-144 144 -144 346q0 201 144 342zM295 782q120 -120 289 -120q168 0 288 120q121 121 121 289t-121 289t-288 121q-168 0 -289 -121t-121 -289t121 -289z
M770 1165q0 -111 -106 -145l112 -191h-84l-100 181h-98v-181h-72v494h186q72 0 117 -44.5t45 -113.5zM592 1262h-98v-191h92q114 0 114 94q0 97 -108 97z" />
    <glyph glyph-name="overscore" unicode="&#xaf;" horiz-adv-x="970" 
d="M713 1380l-619 -2v113h619v-111z" />
    <glyph glyph-name="degree" unicode="&#xb0;" horiz-adv-x="735" 
d="M563 1198q-81 -78 -194 -78t-197 78q-82 79 -82 193q0 113 82 192q82 82 197 82t194 -82q82 -79 82 -192q0 -114 -82 -193zM553 1391q0 80 -53 134t-131 54t-133.5 -54.5t-55.5 -133.5q0 -75 55.5 -130t133.5 -55t131 53.5t53 131.5z" />
    <glyph glyph-name="plusminus" unicode="&#xb1;" horiz-adv-x="1204" 
d="M659 1352v-391h392v-117h-392v-389l-114 -2v391h-391v117h393v391h112zM1051 205h-897v112h897v-112z" />
    <glyph glyph-name="uni00B2" unicode="&#xb2;" horiz-adv-x="686" 
d="M436 1356l-203 -223h361v-95h-502l-2 84l246 264q79 88 112 141.5t33 104.5q0 62 -42.5 102t-108.5 40q-97 0 -197 -95l-57 74q121 115 258 115q109 0 179.5 -66t70.5 -170q0 -108 -148 -276z" />
    <glyph glyph-name="uni00B3" unicode="&#xb3;" horiz-adv-x="641" 
d="M297 1026q-131 0 -256 82l47 82q107 -70 207 -70q84 0 132 39.5t48 106.5t-47 105t-137 38h-96v92h88q80 0 128 39t48 100t-45 97.5t-115 36.5q-100 0 -188 -76l-52 71q99 99 248 99q112 0 184 -61t72 -152q0 -68 -39 -119.5t-106 -71.5v-4q75 -17 118.5 -70.5
t43.5 -127.5q0 -103 -79.5 -169.5t-203.5 -66.5z" />
    <glyph glyph-name="acute" unicode="&#xb4;" horiz-adv-x="931" 
d="M215 1270h-104l120 327h158z" />
    <glyph glyph-name="paragraph" unicode="&#xb6;" horiz-adv-x="1196" 
d="M461 1503h635v-112h-156v-1807h-117v1807h-186v-1807h-119v1157h-55q-172 0 -287 109q-113 110 -113 276q0 162 113 269q114 108 285 108z" />
    <glyph glyph-name="middot" unicode="&#xb7;" horiz-adv-x="485" 
d="M258 -33q-42 0 -71 28.5t-29 70.5q0 41 28.5 68.5t71.5 27.5q41 0 69.5 -27.5t28.5 -68.5q0 -42 -28 -70.5t-70 -28.5z" />
    <glyph glyph-name="cedilla" unicode="&#xb8;" horiz-adv-x="634" 
d="M377 -113q87 0 142.5 -46.5t55.5 -129.5q0 -94 -70.5 -156.5t-189.5 -62.5q-102 0 -209 49l35 86q87 -41 168 -41q71 0 116.5 37t45.5 88q0 43 -32 69.5t-93 26.5h-123l-16 35l76 199l102 -2l-63 -156q50 4 55 4z" />
    <glyph glyph-name="uni00B9" unicode="&#xb9;" horiz-adv-x="528" 
d="M49 1632l266 213h78v-807h-104v664l-183 -148z" />
    <glyph glyph-name="ordmasculine" unicode="&#xba;" horiz-adv-x="909" 
d="M96 1141q0 154 103 260t256 106q154 0 254 -106q104 -104 104 -260q0 -154 -104 -258q-103 -103 -254 -103q-150 0 -256 103q-103 106 -103 258zM723 1141q0 119 -78 200q-76 82 -190 82q-117 0 -193 -82q-76 -79 -76 -200q0 -120 76 -199q78 -78 193 -78q112 0 190 78
q78 81 78 199z" />
    <glyph glyph-name="guillemotright" unicode="&#xbb;" horiz-adv-x="1007" 
d="M545 596l-295 -416h-125l295 416l-295 416h125zM911 596l-297 -416h-122l294 416l-294 416h122z" />
    <glyph glyph-name="onequarter" unicode="&#xbc;" horiz-adv-x="1720" 
d="M422 709h-105v665l-182 -147l-57 78l266 213h78v-809zM242 0l1183 1513h117l-1182 -1513h-118zM1534 293h92v-86h-92v-207h-94v207h-385l-23 61l436 543h66v-518zM1440 639l-279 -346h279v346z" />
    <glyph glyph-name="onehalf" unicode="&#xbd;" horiz-adv-x="1675" 
d="M424 709h-105v665l-182 -147l-57 78l266 213h78v-809zM172 0l1184 1513h117l-1180 -1513h-121zM1417 317l-203 -223h361v-94h-502l-2 84l246 264q79 88 112 141.5t33 104.5q0 62 -42.5 101.5t-108.5 39.5q-99 0 -197 -94l-57 74q120 114 258 114q109 0 179.5 -65.5
t70.5 -169.5q0 -109 -148 -277z" />
    <glyph glyph-name="threequarters" unicode="&#xbe;" horiz-adv-x="1662" 
d="M299 793q84 0 132 39t48 106t-47 105t-137 38h-96v93h88q80 0 128 39t48 100t-45 97t-115 36q-100 0 -188 -76l-52 72q98 98 248 98q112 0 184 -61t72 -152q0 -68 -39 -119t-106 -71v-4q75 -17 118.5 -71t43.5 -128q0 -103 -79.5 -169.5t-203.5 -66.5q-131 0 -256 82
l47 82q106 -69 207 -69zM268 0l1184 1513h117l-1180 -1513h-121zM1382 811h66v-518h92v-86h-92v-207h-94v207h-385l-23 61zM1354 639l-279 -346h279v346z" />
    <glyph glyph-name="questiondown" unicode="&#xbf;" horiz-adv-x="999" 
d="M557 1079q43 0 72.5 -28.5t29.5 -69.5t-29.5 -68.5t-72.5 -27.5q-39 0 -67.5 27.5t-28.5 68.5q0 42 28.5 70t67.5 28zM502 725h114v-154q0 -151 -145 -282q-15 -15 -58 -54t-63 -58t-53 -56.5t-48.5 -66t-28.5 -68t-13 -78.5q0 -120 90 -201q88 -82 227 -82
q193 0 340 172l80 -80q-78 -97 -190.5 -151.5t-233.5 -54.5q-181 0 -309 110q-127 109 -127 287q0 86 40.5 167t106.5 142q19 17 72 64t77 71.5t58.5 64.5t49 76.5t14.5 73.5v158z" />
    <glyph glyph-name="Agrave" unicode="&#xc0;" horiz-adv-x="1335" 
d="M598 1956l121 -328h-105l-174 328h158zM1303 0h-138l-180 459h-637l-180 -459h-137l604 1513h67zM944 575l-276 715l-279 -715h555z" />
    <glyph glyph-name="Aacute" unicode="&#xc1;" horiz-adv-x="1335" 
d="M745 1958h158l-174 -328h-104zM1303 0h-138l-180 459h-637l-180 -459h-137l604 1513h67zM944 575l-276 715l-279 -715h555z" />
    <glyph glyph-name="Acircumflex" unicode="&#xc2;" horiz-adv-x="1335" 
d="M856 1628l-188 213l-189 -213h-131l283 318h76l282 -318h-133zM1303 0h-138l-180 459h-637l-180 -459h-137l604 1513h67zM944 575l-276 715l-279 -715h555z" />
    <glyph glyph-name="Atilde" unicode="&#xc3;" horiz-adv-x="1335" 
d="M522 1776q-90 0 -137 -109l-80 37q24 80 84 130t137 50q72 0 152 -57q82 -58 127 -58q42 0 77 31.5t54 77.5l80 -35q-24 -81 -81 -130.5t-134 -49.5q-72 0 -154 55q-82 58 -125 58zM1303 0h-138l-180 459h-637l-180 -459h-137l604 1513h67zM944 575l-276 715l-279 -715
h555z" />
    <glyph glyph-name="Adieresis" unicode="&#xc4;" horiz-adv-x="1335" 
d="M381 1765q0 42 31 73.5t75 31.5t75.5 -31t31.5 -74q0 -47 -31 -77.5t-76 -30.5q-44 0 -75 32t-31 76zM741 1765q0 43 31.5 74t75.5 31t76 -31t32 -74q0 -44 -32 -76t-76 -32q-45 0 -76 30.5t-31 77.5zM1303 0h-138l-180 459h-637l-180 -459h-137l604 1513h67zM944 575
l-276 715l-279 -715h555z" />
    <glyph glyph-name="Aring" unicode="&#xc5;" horiz-adv-x="1335" 
d="M672 1610q-94 0 -161 64.5t-67 156.5q0 93 67 159t161 66q97 0 162 -65q67 -64 67 -160q0 -93 -66.5 -157t-162.5 -64zM772 1933q-41 41 -100.5 41t-100.5 -41t-41 -100t41 -100t100.5 -41t100.5 41q43 41 43 100t-43 100zM1303 0h-138l-180 459h-637l-180 -459h-137
l604 1513h67zM944 575l-276 715l-279 -715h555z" />
    <glyph glyph-name="AE" unicode="&#xc6;" horiz-adv-x="2027" 
d="M1130 702v-583h789v-119h-913v498h-570l-317 -498h-146l981 1513h963v-118h-787v-574h725v-119h-725zM1006 1391l-494 -775h494v775z" />
    <glyph glyph-name="Ccedilla" unicode="&#xc7;" horiz-adv-x="1607" 
d="M883 96q170 0 320 74.5t249 206.5l90 -74q-108 -149 -279 -237t-370 -89l-39 -96q50 4 55 4q87 0 143 -47t56 -129q0 -94 -70.5 -156.5t-189.5 -62.5q-102 0 -209 49l35 86q87 -41 168 -41q71 0 116.5 37t45.5 88q0 43 -32 69.5t-93 26.5h-123l-17 35l54 142
q-296 30 -492 241q-197 212 -197 529q0 344 228 565q229 223 553 223q207 0 385 -94q177 -91 272 -242l-96 -71q-86 131 -236 208.5t-325 77.5q-279 0 -467 -188q-187 -187 -187 -477q0 -285 185 -473q188 -185 467 -185z" />
    <glyph glyph-name="Egrave" unicode="&#xc8;" horiz-adv-x="1230" 
d="M596 1956l121 -328h-105l-174 328h158zM1122 0h-915v1513h911v-118h-786v-570h733v-116h-733v-590h790v-119z" />
    <glyph glyph-name="Eacute" unicode="&#xc9;" horiz-adv-x="1230" 
d="M700 1630h-104l121 328h157zM1122 0h-915v1513h911v-118h-786v-570h733v-116h-733v-590h790v-119z" />
    <glyph glyph-name="Ecircumflex" unicode="&#xca;" horiz-adv-x="1230" 
d="M461 1628h-131l282 318h76l283 -318h-133l-189 213zM1122 0h-915v1513h911v-118h-786v-570h733v-116h-733v-590h790v-119z" />
    <glyph glyph-name="Edieresis" unicode="&#xcb;" horiz-adv-x="1230" 
d="M385 1765q0 42 31.5 73.5t75.5 31.5t75 -31t31 -74q0 -47 -30.5 -77.5t-75.5 -30.5q-44 0 -75.5 32t-31.5 76zM745 1765q0 43 31.5 74t75.5 31t76.5 -31t32.5 -74q0 -44 -32.5 -76t-76.5 -32q-45 0 -76 30.5t-31 77.5zM1122 0h-915v1513h911v-118h-786v-570h733v-116
h-733v-590h790v-119z" />
    <glyph glyph-name="Igrave" unicode="&#xcc;" horiz-adv-x="552" 
d="M215 1958l121 -328h-105l-174 328h158zM223 0v1513h125v-1513h-125z" />
    <glyph glyph-name="Iacute" unicode="&#xcd;" horiz-adv-x="528" 
d="M324 1630h-105l121 328h158zM213 0v1513h125v-1513h-125z" />
    <glyph glyph-name="Icircumflex" unicode="&#xce;" horiz-adv-x="538" 
d="M96 1630h-131l283 318h76l282 -318h-133l-188 213zM223 0v1513h125v-1513h-125z" />
    <glyph glyph-name="Idieresis" unicode="&#xcf;" horiz-adv-x="538" 
d="M102 1655q-45 0 -76.5 30.5t-31.5 77.5q0 43 32 75t76 32q46 0 77.5 -31.5t31.5 -75.5q0 -47 -31 -77.5t-78 -30.5zM360 1763q0 43 33.5 75t77.5 32t77.5 -32t33.5 -75q0 -45 -32 -76.5t-79 -31.5t-79 31.5t-32 76.5zM223 0v1513h125v-1513h-125z" />
    <glyph glyph-name="Eth" unicode="&#xd0;" horiz-adv-x="1585" 
d="M258 1513h520q322 0 508 -204q189 -207 189 -555t-191 -551t-522 -203h-504v702h-248v113h248v698zM383 119h379q275 0 428 172q156 175 156 465q0 288 -154 465q-149 174 -418 174h-391v-580h455v-113h-455v-583z" />
    <glyph glyph-name="Ntilde" unicode="&#xd1;" horiz-adv-x="1576" 
d="M522 1655l-80 37q23 80 84 130t138 50q69 0 149 -57q82 -58 129 -58q42 0 77 31.5t54 77.5l80 -35q-24 -81 -81 -130.5t-134 -49.5q-72 0 -154 55q-80 57 -125 57q-91 0 -137 -108zM1245 270v1243h125v-1513h-65l-973 1231v-1231h-125v1513h55z" />
    <glyph glyph-name="Ograve" unicode="&#xd2;" horiz-adv-x="1761" 
d="M840 1956l121 -328h-105l-174 328h158zM877 -25q-324 0 -549 228q-226 229 -226 551q0 324 228 555t551 231t549 -229q229 -229 229 -553t-229 -553q-227 -230 -553 -230zM881 96q272 0 460 191q189 195 189 469q0 276 -189 471q-186 192 -460 192q-272 0 -463 -194
q-189 -195 -189 -469t189 -469q188 -191 463 -191z" />
    <glyph glyph-name="Oacute" unicode="&#xd3;" horiz-adv-x="1761" 
d="M932 1630h-105l121 328h158zM877 -25q-324 0 -549 228q-226 229 -226 551q0 324 228 555t551 231t549 -229q229 -229 229 -553t-229 -553q-227 -230 -553 -230zM881 96q272 0 460 191q189 195 189 469q0 276 -189 471q-186 192 -460 192q-272 0 -463 -194
q-189 -195 -189 -469t189 -469q188 -191 463 -191z" />
    <glyph glyph-name="Ocircumflex" unicode="&#xd4;" horiz-adv-x="1761" 
d="M690 1628h-131l283 318h76l282 -318h-133l-188 213zM877 -25q-324 0 -549 228q-226 229 -226 551q0 324 228 555t551 231t549 -229q229 -229 229 -553t-229 -553q-227 -230 -553 -230zM881 96q272 0 460 191q189 195 189 469q0 276 -189 471q-186 192 -460 192
q-272 0 -463 -194q-189 -195 -189 -469t189 -469q188 -191 463 -191z" />
    <glyph glyph-name="Otilde" unicode="&#xd5;" horiz-adv-x="1761" 
d="M614 1667l-79 37q24 80 84 130t137 50q71 0 151 -57q82 -58 127 -58q42 0 77 31.5t54 77.5l80 -35q-24 -81 -81 -130.5t-134 -49.5q-71 0 -153 55q-82 58 -125 58q-91 0 -138 -109zM877 -25q-324 0 -549 228q-226 229 -226 551q0 324 228 555t551 231t549 -229
q229 -229 229 -553t-229 -553q-227 -230 -553 -230zM881 96q272 0 460 191q189 195 189 469q0 276 -189 471q-186 192 -460 192q-272 0 -463 -194q-189 -195 -189 -469t189 -469q188 -191 463 -191z" />
    <glyph glyph-name="Odieresis" unicode="&#xd6;" horiz-adv-x="1761" 
d="M600 1765q0 41 32 73t75 32q44 0 75 -31t31 -74q0 -47 -30.5 -77.5t-75.5 -30.5q-44 0 -75.5 32t-31.5 76zM1067 1657q-45 0 -75.5 30.5t-30.5 77.5q0 43 31 74t75 31t76.5 -31t32.5 -74q0 -45 -31 -76.5t-78 -31.5zM877 -25q-324 0 -549 228q-226 229 -226 551
q0 324 228 555t551 231t549 -229q229 -229 229 -553t-229 -553q-227 -230 -553 -230zM881 96q272 0 460 191q189 195 189 469q0 276 -189 471q-186 192 -460 192q-272 0 -463 -194q-189 -195 -189 -469t189 -469q188 -191 463 -191z" />
    <glyph glyph-name="multiply" unicode="&#xd7;" horiz-adv-x="1013" 
d="M582 694l305 -303l-74 -78l-305 305l-305 -305l-74 78l303 303l-301 301l72 76l303 -301l303 303l76 -74z" />
    <glyph glyph-name="Oslash" unicode="&#xd8;" horiz-adv-x="1761" 
d="M1489 1526l-115 -164q135 -111 210 -268.5t75 -335.5q0 -324 -229 -553q-227 -230 -553 -230q-215 0 -402 111l-110 -156l-91 60l113 160q-135 110 -210 267.5t-75 336.5q0 324 228 555t551 231q215 0 407 -115l113 160zM229 756q0 -149 60.5 -281t169.5 -225l758 1075
q-152 94 -336 94q-272 0 -463 -194q-189 -195 -189 -469zM881 96q272 0 460 191q189 195 189 469q0 150 -60 281t-167 225l-756 -1074q151 -92 334 -92z" />
    <glyph glyph-name="Ugrave" unicode="&#xd9;" horiz-adv-x="1402" 
d="M649 1956l121 -328h-104l-174 328h157zM190 492v1021h125v-1001q0 -197 101.5 -305.5t285.5 -108.5q183 0 284 109.5t101 304.5v1001h125v-1021q0 -242 -139 -381q-138 -138 -371 -138q-231 0 -372 138q-140 140 -140 381z" />
    <glyph glyph-name="Uacute" unicode="&#xda;" horiz-adv-x="1402" 
d="M741 1630h-104l121 328h157zM190 492v1021h125v-1001q0 -197 101.5 -305.5t285.5 -108.5q183 0 284 109.5t101 304.5v1001h125v-1021q0 -242 -139 -381q-138 -138 -371 -138q-231 0 -372 138q-140 140 -140 381z" />
    <glyph glyph-name="Ucircumflex" unicode="&#xdb;" horiz-adv-x="1402" 
d="M510 1628h-131l283 318h75l283 -318h-133l-189 213zM190 492v1021h125v-1001q0 -197 101.5 -305.5t285.5 -108.5q183 0 284 109.5t101 304.5v1001h125v-1021q0 -242 -139 -381q-138 -138 -371 -138q-231 0 -372 138q-140 140 -140 381z" />
    <glyph glyph-name="Udieresis" unicode="&#xdc;" horiz-adv-x="1402" 
d="M414 1765q0 42 31 73.5t75 31.5t75.5 -31t31.5 -74q0 -47 -31 -77.5t-76 -30.5q-44 0 -75 32t-31 76zM774 1765q0 43 31.5 74t75.5 31t76 -31t32 -74q0 -44 -32 -76t-76 -32q-45 0 -76 30.5t-31 77.5zM190 492v1021h125v-1001q0 -197 101.5 -305.5t285.5 -108.5
q183 0 284 109.5t101 304.5v1001h125v-1021q0 -242 -139 -381q-138 -138 -371 -138q-231 0 -372 138q-140 140 -140 381z" />
    <glyph glyph-name="Yacute" unicode="&#xdd;" horiz-adv-x="1232" 
d="M662 1630h-105l121 328h158zM1053 1513h137l-512 -913v-600h-125v600l-508 913h137l434 -796z" />
    <glyph glyph-name="Thorn" unicode="&#xde;" horiz-adv-x="1249" 
d="M332 1247h344q236 0 358 -137q125 -137 125 -326q0 -190 -131 -327q-129 -135 -371 -135h-325v-322h-125v1513h125v-266zM332 438h325q176 0 275 99q100 100 100 249q0 148 -96 244q-94 98 -256 98h-348v-690z" />
    <glyph glyph-name="germandbls" unicode="&#xdf;" horiz-adv-x="1267" 
d="M874 805q139 -43 221.5 -150.5t82.5 -251.5q0 -190 -142 -317q-137 -125 -350 -125q-166 0 -274 57l39 111q89 -51 233 -51q163 0 264 94q105 94 105 240q0 150 -117 239q-117 91 -303 94v101q131 0 244 90q110 88 110 227q0 135 -91 221t-234 86q-169 0 -270 -126.5
t-101 -344.5v-1361h-125v1386q0 270 141 414q145 145 361 145q197 0 321 -121q123 -120 123 -293q0 -118 -64 -215.5t-174 -148.5z" />
    <glyph glyph-name="agrave" unicode="&#xe0;" horiz-adv-x="1355" 
d="M608 1599l121 -327h-104l-174 327h157zM1069 885v211h119v-1096h-119v213q-69 -113 -182.5 -176.5t-249.5 -63.5q-233 0 -389 166q-156 169 -156 414q0 240 154 405q156 164 391 164q136 0 249.5 -62t182.5 -175zM643 86q190 0 313 135t123 332q0 192 -123 324
q-124 133 -313 133q-188 0 -309 -133q-119 -131 -119 -328q0 -199 119 -330q121 -133 309 -133z" />
    <glyph glyph-name="aacute" unicode="&#xe1;" horiz-adv-x="1355" 
d="M729 1599h158l-174 -327h-105zM1069 885v211h119v-1096h-119v213q-69 -113 -182.5 -176.5t-249.5 -63.5q-233 0 -389 166q-156 169 -156 414q0 240 154 405q156 164 391 164q136 0 249.5 -62t182.5 -175zM643 86q190 0 313 135t123 332q0 192 -123 324q-124 133 -313 133
q-188 0 -309 -133q-119 -131 -119 -328q0 -199 119 -330q121 -133 309 -133z" />
    <glyph glyph-name="acircumflex" unicode="&#xe2;" horiz-adv-x="1355" 
d="M852 1270l-188 213l-189 -213h-131l283 317h75l283 -317h-133zM1069 885v211h119v-1096h-119v213q-69 -113 -182.5 -176.5t-249.5 -63.5q-233 0 -389 166q-156 169 -156 414q0 240 154 405q156 164 391 164q136 0 249.5 -62t182.5 -175zM643 86q190 0 313 135t123 332
q0 192 -123 324q-124 133 -313 133q-188 0 -309 -133q-119 -131 -119 -328q0 -199 119 -330q121 -133 309 -133z" />
    <glyph glyph-name="atilde" unicode="&#xe3;" horiz-adv-x="1355" 
d="M530 1399q-82 0 -129 -103l-75 35q24 76 80.5 123t128.5 47q65 0 141 -55q80 -53 121 -53q40 0 75.5 30t49.5 72l73 -33q-20 -76 -75.5 -123t-126.5 -47q-65 0 -144 54q-77 53 -119 53zM1069 885v211h119v-1096h-119v213q-69 -113 -182.5 -176.5t-249.5 -63.5
q-233 0 -389 166q-156 169 -156 414q0 240 154 405q156 164 391 164q136 0 249.5 -62t182.5 -175zM643 86q190 0 313 135t123 332q0 192 -123 324q-124 133 -313 133q-188 0 -309 -133q-119 -131 -119 -328q0 -199 119 -330q121 -133 309 -133z" />
    <glyph glyph-name="adieresis" unicode="&#xe4;" horiz-adv-x="1355" 
d="M365 1393q0 43 32.5 75.5t79.5 32.5t79 -32.5t32 -75.5q0 -47 -32 -80t-79 -33t-79.5 33t-32.5 80zM741 1393q0 43 33 75.5t80 32.5t80 -32.5t33 -75.5q0 -47 -33 -80t-80 -33t-80 33t-33 80zM1069 885v211h119v-1096h-119v213q-69 -113 -182.5 -176.5t-249.5 -63.5
q-233 0 -389 166q-156 169 -156 414q0 240 154 405q156 164 391 164q136 0 249.5 -62t182.5 -175zM643 86q190 0 313 135t123 332q0 192 -123 324q-124 133 -313 133q-188 0 -309 -133q-119 -131 -119 -328q0 -199 119 -330q121 -133 309 -133z" />
    <glyph glyph-name="aring" unicode="&#xe5;" horiz-adv-x="1355" 
d="M662 1237q-94 0 -161 64.5t-67 156.5q0 93 67 159t161 66q96 0 161 -65q68 -65 68 -160q0 -93 -66.5 -157t-162.5 -64zM762 1561q-41 41 -100.5 41t-100.5 -41t-41 -100.5t41 -100.5t100.5 -41t100.5 41q43 41 43 100.5t-43 100.5zM1069 885v211h119v-1096h-119v213
q-69 -113 -182.5 -176.5t-249.5 -63.5q-233 0 -389 166q-156 169 -156 414q0 240 154 405q156 164 391 164q136 0 249.5 -62t182.5 -175zM643 86q190 0 313 135t123 332q0 192 -123 324q-124 133 -313 133q-188 0 -309 -133q-119 -131 -119 -328q0 -199 119 -330
q121 -133 309 -133z" />
    <glyph glyph-name="ae" unicode="&#xe6;" horiz-adv-x="2023" 
d="M1935 604q0 -22 -6 -96h-891q11 -188 123.5 -303t298.5 -115q103 0 208 35.5t177 95.5l58 -96q-78 -65 -199.5 -107.5t-247.5 -42.5q-179 0 -303 82t-188 228q-65 -149 -198 -230.5t-298 -81.5q-180 0 -289.5 90.5t-109.5 241.5q0 89 42 154t117 98q134 59 320 59h356
q-17 203 -109 297.5t-266 94.5q-216 0 -354 -111l-59 92q75 60 189.5 96.5t223.5 36.5q155 0 274 -70t173 -206q67 131 188 203.5t279 72.5q213 0 352 -139t139 -379zM1442 1010q-166 0 -275.5 -107.5t-126.5 -286.5h770q-1 181 -103 287.5t-265 106.5zM473 88
q178 0 297 113q122 113 137 307h-358q-356 0 -356 -205q0 -98 77.5 -156.5t202.5 -58.5z" />
    <glyph glyph-name="ccedilla" unicode="&#xe7;" horiz-adv-x="1218" 
d="M653 88q123 0 232.5 63t163.5 164l100 -61q-63 -123 -193 -198.5t-284 -80.5l-39 -92q50 4 55 4q87 0 143 -47t56 -129q0 -94 -70.5 -156.5t-189.5 -62.5q-102 0 -209 49l35 86q87 -41 168 -41q71 0 116 37t45 88q0 43 -32 69.5t-93 26.5h-122l-17 35l53 140
q-215 27 -346 182t-131 383q0 249 160 414q161 161 412 161q162 0 294 -76t195 -206l-100 -58q-56 105 -160.5 166.5t-228.5 61.5q-197 0 -322 -131q-127 -130 -127 -332q0 -201 123 -330t313 -129z" />
    <glyph glyph-name="egrave" unicode="&#xe8;" 
d="M575 1597l121 -327h-104l-174 327h157zM1149 596q0 -22 -6 -96h-922q14 -187 131 -298.5t314 -111.5q107 0 217.5 36t183.5 95l57 -94q-84 -66 -207 -109t-253 -43q-117 0 -213.5 32.5t-161.5 87.5t-110 129.5t-65 156.5t-20 170q0 247 150 410q148 161 395 161
q222 0 365 -143q145 -142 145 -383zM639 1010q-171 0 -285 -109t-133 -289h801q-1 181 -107.5 289.5t-275.5 108.5z" />
    <glyph glyph-name="eacute" unicode="&#xe9;" 
d="M696 1599h158l-174 -327h-105zM1149 596q0 -22 -6 -96h-922q14 -187 131 -298.5t314 -111.5q107 0 217.5 36t183.5 95l57 -94q-84 -66 -207 -109t-253 -43q-117 0 -213.5 32.5t-161.5 87.5t-110 129.5t-65 156.5t-20 170q0 247 150 410q148 161 395 161q222 0 365 -143
q145 -142 145 -383zM639 1010q-171 0 -285 -109t-133 -289h801q-1 181 -107.5 289.5t-275.5 108.5z" />
    <glyph glyph-name="ecircumflex" unicode="&#xea;" 
d="M821 1272l-188 213l-189 -213h-131l283 317h76l282 -317h-133zM1149 596q0 -22 -6 -96h-922q14 -187 131 -298.5t314 -111.5q107 0 217.5 36t183.5 95l57 -94q-84 -66 -207 -109t-253 -43q-117 0 -213.5 32.5t-161.5 87.5t-110 129.5t-65 156.5t-20 170q0 247 150 410
q148 161 395 161q222 0 365 -143q145 -142 145 -383zM639 1010q-171 0 -285 -109t-133 -289h801q-1 181 -107.5 289.5t-275.5 108.5z" />
    <glyph glyph-name="edieresis" unicode="&#xeb;" 
d="M354 1389q0 43 33 75.5t80 32.5t79 -32.5t32 -75.5q0 -47 -32 -80t-79 -33t-80 33t-33 80zM731 1389q0 43 33 75.5t80 32.5t79.5 -32.5t32.5 -75.5q0 -47 -32.5 -80t-79.5 -33t-80 33t-33 80zM1149 596q0 -22 -6 -96h-922q14 -187 131 -298.5t314 -111.5q107 0 217.5 36
t183.5 95l57 -94q-84 -66 -207 -109t-253 -43q-117 0 -213.5 32.5t-161.5 87.5t-110 129.5t-65 156.5t-20 170q0 247 150 410q148 161 395 161q222 0 365 -143q145 -142 145 -383zM639 1010q-171 0 -285 -109t-133 -289h801q-1 181 -107.5 289.5t-275.5 108.5z" />
    <glyph glyph-name="igrave" unicode="&#xec;" horiz-adv-x="456" 
d="M158 1597l121 -327h-105l-174 327h158zM281 1096v-1096h-123v1096h123z" />
    <glyph glyph-name="iacute" unicode="&#xed;" horiz-adv-x="462" 
d="M285 1272h-105l121 327h158zM289 1096v-1096h-123v1096h123z" />
    <glyph glyph-name="icircumflex" unicode="&#xee;" horiz-adv-x="456" 
d="M31 1268h-131l282 317h76l283 -317h-133l-189 213zM281 1096v-1096h-123v1096h123z" />
    <glyph glyph-name="idieresis" unicode="&#xef;" horiz-adv-x="456" 
d="M-80 1393q0 43 33 75.5t80 32.5q46 0 78 -32t32 -76q0 -48 -31.5 -80.5t-78.5 -32.5t-80 33t-33 80zM297 1393q0 43 33 75.5t80 32.5t79.5 -32.5t32.5 -75.5q0 -47 -32.5 -80t-79.5 -33t-80 33t-33 80zM281 1096v-1096h-123v1096h123z" />
    <glyph glyph-name="eth" unicode="&#xf0;" horiz-adv-x="1345" 
d="M1178 1575l-217 -145q274 -342 274 -719q0 -327 -164 -533q-163 -205 -434 -205q-233 0 -389 156q-154 157 -154 387t154 387q153 156 385 156q162 0 291 -83.5t190 -221.5q-9 266 -170 499q-32 49 -82 111l-233 -158l-62 84l226 152q-89 92 -230 203l82 86
q150 -120 248 -224l227 152zM1067 520q0 182 -123 305t-305 123q-186 0 -305 -125q-119 -122 -119 -307q0 -182 119 -307q120 -123 303 -123q185 0 307 125q123 126 123 309z" />
    <glyph glyph-name="ntilde" unicode="&#xf1;" horiz-adv-x="1253" 
d="M371 1292l-76 35q24 76 80.5 123t128.5 47q65 0 141 -55q80 -53 121 -53q40 0 75.5 30t49.5 72l74 -33q-20 -76 -76 -123t-127 -47q-67 0 -144 53q-79 54 -118 54q-82 0 -129 -103zM289 0h-123v1096h119v-193q49 108 147.5 164.5t233.5 56.5q183 0 309 -120
q125 -119 125 -342v-662h-123v639q0 172 -87 271.5t-239 99.5q-144 0 -254 -101q-108 -99 -108 -295v-614z" />
    <glyph glyph-name="ograve" unicode="&#xf2;" horiz-adv-x="1323" 
d="M606 1597l121 -327h-104l-174 327h157zM92 549q0 242 162 407q163 166 408 166q244 0 407 -166q162 -165 162 -407q0 -245 -162 -410q-163 -166 -407 -166q-245 0 -408 166q-162 165 -162 410zM662 86q192 0 319 133q127 136 127 330q0 195 -127 328t-319 133
q-190 0 -320 -136q-127 -133 -127 -325q0 -194 127 -330q130 -133 320 -133z" />
    <glyph glyph-name="oacute" unicode="&#xf3;" horiz-adv-x="1323" 
d="M700 1272h-104l121 327h157zM92 549q0 242 162 407q163 166 408 166q244 0 407 -166q162 -165 162 -407q0 -245 -162 -410q-163 -166 -407 -166q-245 0 -408 166q-162 165 -162 410zM662 86q192 0 319 133q127 136 127 330q0 195 -127 328t-319 133q-190 0 -320 -136
q-127 -133 -127 -325q0 -194 127 -330q130 -133 320 -133z" />
    <glyph glyph-name="ocircumflex" unicode="&#xf4;" horiz-adv-x="1323" 
d="M473 1274h-131l283 317h75l283 -317h-133l-188 213zM92 549q0 242 162 407q163 166 408 166q244 0 407 -166q162 -165 162 -407q0 -245 -162 -410q-163 -166 -407 -166q-245 0 -408 166q-162 165 -162 410zM662 86q192 0 319 133q127 136 127 330q0 195 -127 328
t-319 133q-190 0 -320 -136q-127 -133 -127 -325q0 -194 127 -330q130 -133 320 -133z" />
    <glyph glyph-name="otilde" unicode="&#xf5;" horiz-adv-x="1323" 
d="M399 1290l-75 35q24 76 80 123t128 47q66 0 142 -55q82 -54 121 -54q40 0 75.5 30t49.5 73l73 -33q-20 -76 -75.5 -123t-126.5 -47q-67 0 -144 53q-79 54 -119 54q-82 0 -129 -103zM92 549q0 242 162 407q163 166 408 166q244 0 407 -166q162 -165 162 -407
q0 -245 -162 -410q-163 -166 -407 -166q-245 0 -408 166q-162 165 -162 410zM662 86q192 0 319 133q127 136 127 330q0 195 -127 328t-319 133q-190 0 -320 -136q-127 -133 -127 -325q0 -194 127 -330q130 -133 320 -133z" />
    <glyph glyph-name="odieresis" unicode="&#xf6;" horiz-adv-x="1323" 
d="M362 1393q0 43 33 75.5t80 32.5t79 -32.5t32 -75.5q0 -47 -32 -80t-79 -33t-80 33t-33 80zM739 1393q0 43 33 75.5t80 32.5t80 -32.5t33 -75.5q0 -47 -33 -80t-80 -33t-80 33t-33 80zM92 549q0 242 162 407q163 166 408 166q244 0 407 -166q162 -165 162 -407
q0 -245 -162 -410q-163 -166 -407 -166q-245 0 -408 166q-162 165 -162 410zM662 86q192 0 319 133q127 136 127 330q0 195 -127 328t-319 133q-190 0 -320 -136q-127 -133 -127 -325q0 -194 127 -330q130 -133 320 -133z" />
    <glyph glyph-name="divide" unicode="&#xf7;" horiz-adv-x="1067" 
d="M553 870q-47 0 -80 32t-33 79q0 44 33 75t80 31q45 0 78 -31t33 -75q0 -47 -33 -79t-78 -32zM934 612h-801v113h801v-113zM553 252q-48 0 -80.5 31.5t-32.5 78.5q0 44 33 75.5t80 31.5q45 0 78 -31.5t33 -75.5q0 -46 -33 -78t-78 -32z" />
    <glyph glyph-name="oslash" unicode="&#xf8;" horiz-adv-x="1323" 
d="M1135 1145l-105 -152q201 -171 201 -444q0 -245 -162 -410q-163 -166 -407 -166q-154 0 -287 74l-111 -162l-78 56l111 159q-97 80 -151 197.5t-54 251.5q0 242 162 407q163 166 408 166q158 0 286 -73l103 149zM215 549q0 -212 150 -350l518 753q-101 58 -221 58
q-190 0 -320 -136q-127 -133 -127 -325zM662 86q192 0 319 133q127 136 127 330q0 210 -145 346l-521 -752q96 -57 220 -57z" />
    <glyph glyph-name="ugrave" unicode="&#xf9;" horiz-adv-x="1198" 
d="M553 1599l121 -327h-105l-174 327h158zM598 -27q-203 0 -326 123q-120 126 -120 332v668h122v-666q0 -158 87.5 -250t236.5 -92q153 0 239.5 92t86.5 252v664h123v-668q0 -210 -120 -332.5t-329 -122.5z" />
    <glyph glyph-name="uacute" unicode="&#xfa;" horiz-adv-x="1198" 
d="M643 1272h-104l120 327h158zM598 -27q-203 0 -326 123q-120 126 -120 332v668h122v-666q0 -158 87.5 -250t236.5 -92q153 0 239.5 92t86.5 252v664h123v-668q0 -210 -120 -332.5t-329 -122.5z" />
    <glyph glyph-name="ucircumflex" unicode="&#xfb;" horiz-adv-x="1198" 
d="M412 1268h-131l282 317h76l283 -317h-134l-188 213zM598 -27q-203 0 -326 123q-120 126 -120 332v668h122v-666q0 -158 87.5 -250t236.5 -92q153 0 239.5 92t86.5 252v664h123v-668q0 -210 -120 -332.5t-329 -122.5z" />
    <glyph glyph-name="udieresis" unicode="&#xfc;" horiz-adv-x="1198" 
d="M299 1393q0 43 33 75.5t80 32.5q46 0 78 -32t32 -76q0 -48 -31.5 -80.5t-78.5 -32.5t-80 33t-33 80zM676 1393q0 43 32.5 75.5t79.5 32.5t80 -32.5t33 -75.5q0 -47 -33 -80t-80 -33t-79.5 33t-32.5 80zM598 -27q-203 0 -326 123q-120 126 -120 332v668h122v-666
q0 -158 87.5 -250t236.5 -92q153 0 239.5 92t86.5 252v664h123v-668q0 -210 -120 -332.5t-329 -122.5z" />
    <glyph glyph-name="yacute" unicode="&#xfd;" horiz-adv-x="1087" 
d="M602 1597h158l-174 -327h-105zM561 160l359 936h135l-463 -1178q-82 -210 -166.5 -296.5t-208.5 -86.5q-90 0 -158 39l19 109q70 -33 135 -33q84 0 145 68t117 212l27 70l-467 1096h135z" />
    <glyph glyph-name="thorn" unicode="&#xfe;" horiz-adv-x="1361" 
d="M723 1124q236 0 391 -168q156 -166 156 -407t-156 -408q-156 -166 -391 -166q-136 0 -250.5 62.5t-183.5 175.5v-664h-123v1997h123v-669q72 118 185 182.5t249 64.5zM719 88q186 0 307 133t121 328t-121 328t-307 133q-189 0 -313 -136q-123 -135 -123 -329
q0 -192 123 -324q124 -133 313 -133z" />
    <glyph glyph-name="ydieresis" unicode="&#xff;" horiz-adv-x="1087" 
d="M252 1391q0 43 33 75.5t80 32.5q46 0 78 -32t32 -76q0 -48 -31.5 -80.5t-78.5 -32.5t-80 33t-33 80zM629 1391q0 43 32.5 75.5t79.5 32.5t80 -32.5t33 -75.5q0 -47 -33 -80t-80 -33t-79.5 33t-32.5 80zM561 160l359 936h135l-463 -1178q-82 -210 -166.5 -296.5
t-208.5 -86.5q-90 0 -158 39l19 109q70 -33 135 -33q84 0 145 68t117 212l27 70l-467 1096h135z" />
    <glyph glyph-name="Amacron" unicode="&#x100;" horiz-adv-x="1335" 
d="M328 1792h680v-111l-680 -2v113zM1303 0h-138l-180 459h-637l-180 -459h-137l604 1513h67zM944 575l-276 715l-279 -715h555z" />
    <glyph glyph-name="amacron" unicode="&#x101;" horiz-adv-x="1355" 
d="M354 1458h619v-110l-619 -2v112zM1069 885v211h119v-1096h-119v213q-69 -113 -182.5 -176.5t-249.5 -63.5q-233 0 -389 166q-156 169 -156 414q0 240 154 405q156 164 391 164q136 0 249.5 -62t182.5 -175zM643 86q190 0 313 135t123 332q0 192 -123 324
q-124 133 -313 133q-188 0 -309 -133q-119 -131 -119 -328q0 -199 119 -330q121 -133 309 -133z" />
    <glyph glyph-name="Abreve" unicode="&#x102;" horiz-adv-x="1335" 
d="M338 1944h111q1 -114 59.5 -172t161.5 -58q105 0 163.5 57.5t59.5 172.5h113q-2 -149 -93 -238.5t-243 -89.5t-241 89t-91 239zM1303 0h-138l-180 459h-637l-180 -459h-137l604 1513h67zM944 575l-276 715l-279 -715h555z" />
    <glyph glyph-name="abreve" unicode="&#x103;" horiz-adv-x="1355" 
d="M322 1589h110q1 -114 59.5 -171.5t161.5 -57.5q105 0 164 57.5t60 171.5h112q-2 -149 -93 -238t-243 -89t-240.5 88.5t-90.5 238.5zM1069 885v211h119v-1096h-119v213q-69 -113 -182.5 -176.5t-249.5 -63.5q-233 0 -389 166q-156 169 -156 414q0 240 154 405
q156 164 391 164q136 0 249.5 -62t182.5 -175zM643 86q190 0 313 135t123 332q0 192 -123 324q-124 133 -313 133q-188 0 -309 -133q-119 -131 -119 -328q0 -199 119 -330q121 -133 309 -133z" />
    <glyph glyph-name="Aogonek" unicode="&#x104;" horiz-adv-x="1327" 
d="M1282 -385l49 -84q-85 -61 -182 -61q-98 0 -159.5 60t-61.5 157q0 181 237 313l-180 459h-637l-180 -459h-137l604 1513h67l601 -1513q-123 -55 -195 -135.5t-72 -159.5q0 -56 36.5 -93.5t90.5 -37.5q60 0 119 41zM944 575l-276 715l-279 -715h555z" />
    <glyph glyph-name="aogonek" unicode="&#x105;" horiz-adv-x="1343" 
d="M1169 -385l50 -84q-85 -61 -183 -61t-159.5 60t-61.5 157q0 190 254 321v205q-69 -113 -182.5 -176.5t-249.5 -63.5q-233 0 -389 166q-156 169 -156 414q0 240 154 405q156 164 391 164q136 0 249.5 -62t182.5 -175v211h119v-1096h2q-123 -55 -194.5 -135.5t-71.5 -159.5
q0 -56 36.5 -93.5t90.5 -37.5q59 0 118 41zM643 86q190 0 313 135t123 332q0 192 -123 324q-124 133 -313 133q-188 0 -309 -133q-119 -131 -119 -328q0 -199 119 -330q121 -133 309 -133z" />
    <glyph glyph-name="Cacute" unicode="&#x106;" horiz-adv-x="1607" 
d="M946 1630h-104l121 328h157zM881 -23q-325 0 -551 218t-226 557q0 344 228 565q229 223 553 223q207 0 385 -94q177 -91 272 -242l-96 -71q-86 131 -236 208.5t-325 77.5q-279 0 -467 -188q-187 -187 -187 -477q0 -285 185 -473q188 -185 467 -185q170 0 320 74.5
t249 206.5l90 -74q-111 -151 -284.5 -238.5t-376.5 -87.5z" />
    <glyph glyph-name="cacute" unicode="&#x107;" horiz-adv-x="1218" 
d="M705 1272h-105l121 327h158zM653 -25q-244 0 -401 160q-158 166 -158 412q0 249 160 414q161 161 412 161q162 0 294 -76t195 -206l-100 -58q-56 105 -160.5 166.5t-228.5 61.5q-197 0 -322 -131q-127 -130 -127 -332q0 -201 123 -330t313 -129q123 0 232.5 63t163.5 164
l100 -61q-64 -126 -201 -203q-134 -76 -295 -76z" />
    <glyph glyph-name="Ccircumflex" unicode="&#x108;" horiz-adv-x="1607" 
d="M690 1628h-131l283 318h76l282 -318h-133l-188 213zM881 -23q-325 0 -551 218t-226 557q0 344 228 565q229 223 553 223q207 0 385 -94q177 -91 272 -242l-96 -71q-86 131 -236 208.5t-325 77.5q-279 0 -467 -188q-187 -187 -187 -477q0 -285 185 -473q188 -185 467 -185
q170 0 320 74.5t249 206.5l90 -74q-111 -151 -284.5 -238.5t-376.5 -87.5z" />
    <glyph glyph-name="ccircumflex" unicode="&#x109;" horiz-adv-x="1218" 
d="M469 1272h-131l283 317h75l283 -317h-133l-189 213zM653 -25q-244 0 -401 160q-158 166 -158 412q0 249 160 414q161 161 412 161q162 0 294 -76t195 -206l-100 -58q-56 105 -160.5 166.5t-228.5 61.5q-197 0 -322 -131q-127 -130 -127 -332q0 -201 123 -330t313 -129
q123 0 232.5 63t163.5 164l100 -61q-64 -126 -201 -203q-134 -76 -295 -76z" />
    <glyph glyph-name="Cdotaccent" unicode="&#x10a;" horiz-adv-x="1607" 
d="M881 1655q-45 0 -76 30t-31 74t31.5 74.5t75.5 30.5q43 0 73.5 -30.5t30.5 -74.5t-30.5 -74t-73.5 -30zM881 -23q-325 0 -551 218t-226 557q0 344 228 565q229 223 553 223q207 0 385 -94q177 -91 272 -242l-96 -71q-86 131 -236 208.5t-325 77.5q-279 0 -467 -188
q-187 -187 -187 -477q0 -285 185 -473q188 -185 467 -185q170 0 320 74.5t249 206.5l90 -74q-111 -151 -284.5 -238.5t-376.5 -87.5z" />
    <glyph glyph-name="cdotaccent" unicode="&#x10b;" horiz-adv-x="1218" 
d="M657 1268q-44 0 -75 30t-31 74t31 74.5t75 30.5q43 0 74 -30.5t31 -74.5t-31 -74t-74 -30zM653 -25q-244 0 -401 160q-158 166 -158 412q0 249 160 414q161 161 412 161q162 0 294 -76t195 -206l-100 -58q-56 105 -160.5 166.5t-228.5 61.5q-197 0 -322 -131
q-127 -130 -127 -332q0 -201 123 -330t313 -129q123 0 232.5 63t163.5 164l100 -61q-64 -126 -201 -203q-134 -76 -295 -76z" />
    <glyph glyph-name="Ccaron" unicode="&#x10c;" horiz-adv-x="1607" 
d="M850 1630l-283 318h131l189 -213l188 213h133l-282 -318h-76zM881 -23q-325 0 -551 218t-226 557q0 344 228 565q229 223 553 223q207 0 385 -94q177 -91 272 -242l-96 -71q-86 131 -236 208.5t-325 77.5q-279 0 -467 -188q-187 -187 -187 -477q0 -285 185 -473
q188 -185 467 -185q170 0 320 74.5t249 206.5l90 -74q-111 -151 -284.5 -238.5t-376.5 -87.5z" />
    <glyph glyph-name="ccaron" unicode="&#x10d;" horiz-adv-x="1218" 
d="M618 1274l-282 317h131l188 -213l189 213h133l-283 -317h-76zM653 -25q-244 0 -401 160q-158 166 -158 412q0 249 160 414q161 161 412 161q162 0 294 -76t195 -206l-100 -58q-56 105 -160.5 166.5t-228.5 61.5q-197 0 -322 -131q-127 -130 -127 -332q0 -201 123 -330
t313 -129q123 0 232.5 63t163.5 164l100 -61q-64 -126 -201 -203q-134 -76 -295 -76z" />
    <glyph glyph-name="Dcaron" unicode="&#x10e;" horiz-adv-x="1533" 
d="M647 1630l-282 318h131l188 -213l188 213h134l-283 -318h-76zM711 0h-504v1513h520q322 0 508 -204q188 -206 188 -555t-190 -551q-191 -203 -522 -203zM332 1395v-1276h379q275 0 428 172q155 174 155 465q0 290 -153 465q-149 174 -418 174h-391z" />
    <glyph glyph-name="dcaron" unicode="&#x10f;" horiz-adv-x="1423" 
d="M1315 1276l115 321h143l-156 -321h-102zM1071 881v665h123v-1546h-123v213q-69 -116 -182 -179t-252 -63q-233 0 -389 166q-156 169 -156 410t156 407t389 166q138 0 251 -63t183 -176zM643 86q190 0 313 135t123 330q0 191 -123 323q-125 134 -313 134q-187 0 -309 -134
q-119 -131 -119 -327q0 -197 119 -328q121 -133 309 -133z" />
    <glyph glyph-name="Dcroat" unicode="&#x110;" horiz-adv-x="1585" 
d="M258 1513h520q322 0 508 -204q189 -207 189 -555t-191 -551t-522 -203h-504v702h-248v113h248v698zM383 119h379q275 0 428 172q156 175 156 465q0 288 -154 465q-149 174 -418 174h-391v-580h455v-113h-455v-583z" />
    <glyph glyph-name="dslash" unicode="&#x111;" horiz-adv-x="1361" 
d="M1194 1341h156v-100h-156v-1241h-123v213q-69 -116 -182 -179t-252 -63q-233 0 -389 166q-156 169 -156 410t156 407t389 166q138 0 251 -63t183 -176v360h-373v100h373v205h123v-205zM643 86q190 0 313 135t123 330q0 191 -123 323q-125 134 -313 134q-187 0 -309 -134
q-119 -131 -119 -327q0 -197 119 -328q121 -133 309 -133z" />
    <glyph glyph-name="Emacron" unicode="&#x112;" horiz-adv-x="1230" 
d="M1014 1681l-680 -2v113h680v-111zM1122 0h-915v1513h911v-118h-786v-570h733v-116h-733v-590h790v-119z" />
    <glyph glyph-name="emacron" unicode="&#x113;" 
d="M322 1456h618v-110l-618 -3v113zM1149 596q0 -22 -6 -96h-922q14 -187 131 -298.5t314 -111.5q107 0 217.5 36t183.5 95l57 -94q-84 -66 -207 -109t-253 -43q-117 0 -213.5 32.5t-161.5 87.5t-110 129.5t-65 156.5t-20 170q0 247 150 410q148 161 395 161q222 0 365 -143
q145 -142 145 -383zM639 1010q-171 0 -285 -109t-133 -289h801q-1 181 -107.5 289.5t-275.5 108.5z" />
    <glyph glyph-name="Ebreve" unicode="&#x114;" horiz-adv-x="1230" 
d="M342 1950h111q1 -114 59.5 -172t161.5 -58q105 0 163.5 57.5t59.5 172.5h113q-2 -149 -93 -238.5t-243 -89.5t-241 89t-91 239zM1122 0h-915v1513h911v-118h-786v-570h733v-116h-733v-590h790v-119z" />
    <glyph glyph-name="ebreve" unicode="&#x115;" 
d="M313 1593h111q1 -114 59.5 -171.5t161.5 -57.5q105 0 163.5 57t59.5 172h113q-2 -149 -93 -238t-243 -89t-241 88.5t-91 238.5zM1149 596q0 -22 -6 -96h-922q14 -187 131 -298.5t314 -111.5q107 0 217.5 36t183.5 95l57 -94q-84 -66 -207 -109t-253 -43
q-117 0 -213.5 32.5t-161.5 87.5t-110 129.5t-65 156.5t-20 170q0 247 150 410q148 161 395 161q222 0 365 -143q145 -142 145 -383zM639 1010q-171 0 -285 -109t-133 -289h801q-1 181 -107.5 289.5t-275.5 108.5z" />
    <glyph glyph-name="Edotaccent" unicode="&#x116;" horiz-adv-x="1230" 
d="M668 1655q-45 0 -76 30t-31 74t31.5 74.5t75.5 30.5q43 0 73.5 -30.5t30.5 -74.5t-30.5 -74t-73.5 -30zM1122 0h-915v1513h911v-118h-786v-570h733v-116h-733v-590h790v-119z" />
    <glyph glyph-name="edotaccent" unicode="&#x117;" 
d="M647 1268q-44 0 -75 30t-31 74t31 74.5t75 30.5q43 0 74 -30.5t31 -74.5t-31 -74t-74 -30zM1149 596q0 -22 -6 -96h-922q14 -187 131 -298.5t314 -111.5q107 0 217.5 36t183.5 95l57 -94q-84 -66 -207 -109t-253 -43q-117 0 -213.5 32.5t-161.5 87.5t-110 129.5
t-65 156.5t-20 170q0 247 150 410q148 161 395 161q222 0 365 -143q145 -142 145 -383zM639 1010q-171 0 -285 -109t-133 -289h801q-1 181 -107.5 289.5t-275.5 108.5z" />
    <glyph glyph-name="Eogonek" unicode="&#x118;" horiz-adv-x="1216" 
d="M1104 -385l49 -84q-85 -61 -182 -61q-98 0 -159.5 60t-61.5 157q0 181 237 313h-780v1513h911v-118h-786v-570h733v-116h-733v-590h790v-119h2q-123 -55 -194.5 -135.5t-71.5 -159.5q0 -56 36.5 -93.5t90.5 -37.5q60 0 119 41z" />
    <glyph glyph-name="eogonek" unicode="&#x119;" 
d="M1149 596q0 -22 -6 -96h-922q14 -187 131 -298.5t314 -111.5q107 0 217.5 36t183.5 95l57 -94q-98 -79 -233 -119q-123 -55 -193.5 -134.5t-70.5 -158.5q0 -56 36.5 -93.5t90.5 -37.5q59 0 118 41l50 -84q-85 -61 -183 -61t-159.5 60t-61.5 157q0 159 180 278h-34
q-117 0 -213.5 32.5t-161.5 87.5t-110 129.5t-65 156.5t-20 170q0 247 150 410q148 161 395 161q222 0 365 -143q145 -142 145 -383zM639 1010q-171 0 -285 -109t-133 -289h801q-1 181 -107.5 289.5t-275.5 108.5z" />
    <glyph glyph-name="Ecaron" unicode="&#x11a;" horiz-adv-x="1230" 
d="M623 1630l-283 318h131l188 -213l189 213h133l-283 -318h-75zM1122 0h-915v1513h911v-118h-786v-570h733v-116h-733v-590h790v-119z" />
    <glyph glyph-name="ecaron" unicode="&#x11b;" 
d="M963 1591l-283 -317h-76l-282 317h131l188 -213l188 213h134zM1149 596q0 -22 -6 -96h-922q14 -187 131 -298.5t314 -111.5q107 0 217.5 36t183.5 95l57 -94q-84 -66 -207 -109t-253 -43q-117 0 -213.5 32.5t-161.5 87.5t-110 129.5t-65 156.5t-20 170q0 247 150 410
q148 161 395 161q222 0 365 -143q145 -142 145 -383zM639 1010q-171 0 -285 -109t-133 -289h801q-1 181 -107.5 289.5t-275.5 108.5z" />
    <glyph glyph-name="Gcircumflex" unicode="&#x11c;" horiz-adv-x="1677" 
d="M694 1632h-131l283 318h76l282 -318h-133l-188 213zM877 -23q-334 0 -553 222q-220 223 -220 557q0 341 230 561q229 223 555 223q185 0 358 -78t273 -202l-90 -82q-92 112 -236.5 176.5t-304.5 64.5q-279 0 -469 -190q-189 -189 -189 -473q0 -285 185 -473
q184 -187 463 -187q319 0 563 250v354h-604v117h725v-518q-279 -322 -686 -322z" />
    <glyph glyph-name="gcircumflex" unicode="&#x11d;" horiz-adv-x="1357" 
d="M838 1272l-189 213l-188 -213h-131l282 317h76l283 -317h-133zM1069 899v197h123v-1000q0 -258 -154 -409q-152 -152 -413 -152q-259 0 -471 156l63 98q187 -141 410 -141q204 0 323 117.5t119 318.5v141q-69 -109 -182 -169t-248 -60q-236 0 -391 162q-156 163 -156 401
q0 233 158 399q156 164 391 164q135 0 247 -58.5t181 -164.5zM643 109q189 0 311 131q125 131 125 323q0 190 -125 318q-123 129 -311 129q-187 0 -307 -129q-121 -130 -121 -322q0 -191 121 -321q120 -129 307 -129z" />
    <glyph glyph-name="Gbreve" unicode="&#x11e;" horiz-adv-x="1677" 
d="M551 1948h111q1 -114 59.5 -172t161.5 -58q105 0 163.5 57.5t59.5 172.5h113q-2 -149 -93 -238.5t-243 -89.5t-241 89t-91 239zM877 -23q-334 0 -553 222q-220 223 -220 557q0 341 230 561q229 223 555 223q185 0 358 -78t273 -202l-90 -82q-92 112 -236.5 176.5
t-304.5 64.5q-279 0 -469 -190q-189 -189 -189 -473q0 -285 185 -473q184 -187 463 -187q319 0 563 250v354h-604v117h725v-518q-279 -322 -686 -322z" />
    <glyph glyph-name="gbreve" unicode="&#x11f;" horiz-adv-x="1357" 
d="M299 1589h111q1 -114 59.5 -171.5t161.5 -57.5q105 0 163.5 57t59.5 172h113q-2 -149 -93 -238t-243 -89t-241 88.5t-91 238.5zM1069 899v197h123v-1000q0 -258 -154 -409q-152 -152 -413 -152q-259 0 -471 156l63 98q187 -141 410 -141q204 0 323 117.5t119 318.5v141
q-69 -109 -182 -169t-248 -60q-236 0 -391 162q-156 163 -156 401q0 233 158 399q156 164 391 164q135 0 247 -58.5t181 -164.5zM643 109q189 0 311 131q125 131 125 323q0 190 -125 318q-123 129 -311 129q-187 0 -307 -129q-121 -130 -121 -322q0 -191 121 -321
q120 -129 307 -129z" />
    <glyph glyph-name="Gdotaccent" unicode="&#x120;" horiz-adv-x="1677" 
d="M891 1655q-45 0 -76 30t-31 74t31.5 74.5t75.5 30.5q43 0 73.5 -30.5t30.5 -74.5t-30.5 -74t-73.5 -30zM877 -23q-334 0 -553 222q-220 223 -220 557q0 341 230 561q229 223 555 223q185 0 358 -78t273 -202l-90 -82q-92 112 -236.5 176.5t-304.5 64.5q-279 0 -469 -190
q-189 -189 -189 -473q0 -285 185 -473q184 -187 463 -187q319 0 563 250v354h-604v117h725v-518q-279 -322 -686 -322z" />
    <glyph glyph-name="gdotaccent" unicode="&#x121;" horiz-adv-x="1357" 
d="M647 1272q-44 0 -75 30t-31 74t31 74.5t75 30.5q43 0 74 -30.5t31 -74.5t-31 -74t-74 -30zM1069 899v197h123v-1000q0 -258 -154 -409q-152 -152 -413 -152q-259 0 -471 156l63 98q187 -141 410 -141q204 0 323 117.5t119 318.5v141q-69 -109 -182 -169t-248 -60
q-236 0 -391 162q-156 163 -156 401q0 233 158 399q156 164 391 164q135 0 247 -58.5t181 -164.5zM643 109q189 0 311 131q125 131 125 323q0 190 -125 318q-123 129 -311 129q-187 0 -307 -129q-121 -130 -121 -322q0 -191 121 -321q120 -129 307 -129z" />
    <glyph glyph-name="Gcommaaccent" unicode="&#x122;" horiz-adv-x="1677" 
d="M838 700v117h725v-518q-279 -322 -686 -322q-334 0 -553 222q-220 223 -220 557q0 341 230 561q229 223 555 223q185 0 358 -78t273 -202l-90 -82q-92 112 -236.5 176.5t-304.5 64.5q-279 0 -469 -190q-189 -189 -189 -473q0 -285 185 -473q184 -187 463 -187
q319 0 563 250v354h-604zM885 -84q47 0 78.5 -35t31.5 -86q0 -157 -217 -295l-39 58q135 93 164 174q-13 -8 -37 -8q-35 0 -61.5 26.5t-26.5 63.5q0 43 31.5 72.5t75.5 29.5z" />
    <glyph glyph-name="gcommaaccent" unicode="&#x123;" horiz-adv-x="1357" 
d="M633 1229q-47 0 -79 35t-32 86q0 157 217 295l39 -58q-135 -93 -164 -174q13 8 37 8q35 0 61.5 -26.5t26.5 -63.5q0 -43 -31 -72.5t-75 -29.5zM1069 899v197h123v-1000q0 -258 -154 -409q-152 -152 -413 -152q-259 0 -471 156l63 98q187 -141 410 -141q204 0 323 117.5
t119 318.5v141q-69 -109 -182 -169t-248 -60q-236 0 -391 162q-156 163 -156 401q0 233 158 399q156 164 391 164q135 0 247 -58.5t181 -164.5zM643 109q189 0 311 131q125 131 125 323q0 190 -125 318q-123 129 -311 129q-187 0 -307 -129q-121 -130 -121 -322
q0 -191 121 -321q120 -129 307 -129z" />
    <glyph glyph-name="Hcircumflex" unicode="&#x124;" horiz-adv-x="1509" 
d="M567 1628h-131l283 318h76l282 -318h-133l-188 213zM334 0h-127v1513h127v-700h844v700h125v-1513h-125v694h-844v-694z" />
    <glyph glyph-name="hcircumflex" unicode="&#x125;" horiz-adv-x="1275" 
d="M63 1630h-131l283 318h76l282 -318h-133l-188 213zM313 0h-123v1546h119v-635q49 102 148.5 157.5t230.5 55.5q186 0 309 -120q125 -119 125 -342v-662h-123v641q0 172 -86.5 270.5t-238.5 98.5q-144 0 -252 -99q-109 -100 -109 -295v-616z" />
    <glyph glyph-name="Hbar" unicode="&#x126;" horiz-adv-x="1544" 
d="M1327 1208h174v-112h-174v-1096h-125v694h-844v-694h-127v1096h-176v112h176v305h127v-305h844v305h125v-305zM358 813h844v283h-844v-283z" />
    <glyph glyph-name="hbar" unicode="&#x127;" horiz-adv-x="1275" 
d="M688 1124q186 0 309 -120q125 -119 125 -342v-662h-123v641q0 172 -86.5 270.5t-238.5 98.5q-144 0 -252 -99q-109 -100 -109 -295v-616h-123v1241h-165v100h165v205h119v-205h367v-100h-367v-330q49 102 148.5 157.5t230.5 55.5z" />
    <glyph glyph-name="Itilde" unicode="&#x128;" horiz-adv-x="538" 
d="M16 1683l-79 37q24 81 84 131t137 50q67 0 149 -58q80 -57 129 -57q42 0 77.5 31t53.5 77l80 -34q-24 -81 -81.5 -131t-133.5 -50q-70 0 -153 56q-80 57 -125 57q-91 0 -138 -109zM223 0v1513h125v-1513h-125z" />
    <glyph glyph-name="itilde" unicode="&#x129;" horiz-adv-x="456" 
d="M-35 1294l-76 35q24 76 80.5 123t128.5 47q66 0 142 -55q80 -53 120 -53t75.5 30t49.5 72l74 -33q-20 -76 -76 -123t-127 -47q-66 0 -143 53q-79 54 -119 54q-82 0 -129 -103zM281 1096v-1096h-123v1096h123z" />
    <glyph glyph-name="Imacron" unicode="&#x12a;" horiz-adv-x="538" 
d="M629 1698l-680 -2v112h680v-110zM223 0v1513h125v-1513h-125z" />
    <glyph glyph-name="imacron" unicode="&#x12b;" horiz-adv-x="456" 
d="M532 1348l-618 -2v112h618v-110zM281 1096v-1096h-123v1096h123z" />
    <glyph glyph-name="Ibreve" unicode="&#x12c;" horiz-adv-x="538" 
d="M-47 1946h110q1 -114 60 -172t162 -58q105 0 163.5 57.5t59.5 172.5h113q-2 -149 -93 -238.5t-243 -89.5t-241 89t-91 239zM223 0v1513h125v-1513h-125z" />
    <glyph glyph-name="ibreve" unicode="&#x12d;" horiz-adv-x="456" 
d="M-111 1589h111q1 -114 59.5 -171.5t161.5 -57.5q105 0 163.5 57t59.5 172h113q-2 -149 -93 -238t-243 -89t-241 88.5t-91 238.5zM281 1096v-1096h-123v1096h123z" />
    <glyph glyph-name="Iogonek" unicode="&#x12e;" horiz-adv-x="538" 
d="M328 -385l49 -84q-85 -61 -182 -61q-98 0 -160 60t-62 157q0 189 250 319v1507h125v-1513q-123 -55 -194.5 -135.5t-71.5 -159.5q0 -56 36.5 -93.5t90.5 -37.5q60 0 119 41z" />
    <glyph glyph-name="iogonek" unicode="&#x12f;" horiz-adv-x="456" 
d="M225 1268q-44 0 -75 30t-31 74t31 74.5t75 30.5q43 0 74 -30.5t31 -74.5t-31 -74t-74 -30zM145 -426q60 0 119 41l49 -84q-85 -61 -182 -61q-98 0 -159.5 60t-61.5 157q0 189 250 319v1090h123v-1096h2q-123 -55 -195 -135.5t-72 -159.5q0 -56 36.5 -93.5t90.5 -37.5z
" />
    <glyph glyph-name="Idot" unicode="&#x130;" horiz-adv-x="538" 
d="M293 1653q-45 0 -76 30t-31 74t31.5 74.5t75.5 30.5q43 0 73.5 -30.5t30.5 -74.5t-30.5 -74t-73.5 -30zM227 0v1513h125v-1513h-125z" />
    <glyph glyph-name="dotlessi" unicode="&#x131;" horiz-adv-x="456" 
d="M289 1096v-1096h-123v1096h123z" />
    <glyph glyph-name="IJ" unicode="&#x132;" horiz-adv-x="1617" 
d="M207 0v1513h125v-1513h-125zM975 -25q-258 0 -426 201l84 88q62 -80 152.5 -125t189.5 -45q151 0 245.5 100.5t94.5 270.5v1048h127v-1040q0 -243 -131 -371q-133 -127 -336 -127z" />
    <glyph glyph-name="ij" unicode="&#x133;" horiz-adv-x="1007" 
d="M223 1268q-44 0 -75 30t-31 74t31 74.5t75 30.5q43 0 74 -30.5t31 -74.5t-31 -74t-74 -30zM750 1268q-45 0 -76 30t-31 74t31.5 74.5t75.5 30.5q43 0 73.5 -30.5t30.5 -74.5t-30.5 -74t-73.5 -30zM281 1096v-1096h-123v1096h123zM485 -467q-117 0 -194 47l31 105
q88 -39 155 -39q102 0 155.5 63.5t53.5 181.5v1205h123v-1196q0 -176 -86.5 -271.5t-237.5 -95.5z" />
    <glyph glyph-name="Jcircumflex" unicode="&#x134;" horiz-adv-x="1112" 
d="M684 1628h-131l283 318h75l283 -318h-133l-189 213zM469 -25q-258 0 -426 201l84 88q62 -80 152.5 -125t189.5 -45q151 0 245.5 100.5t94.5 270.5v1048h127v-1040q0 -243 -131 -371q-133 -127 -336 -127z" />
    <glyph glyph-name="jcircumflex" unicode="&#x135;" horiz-adv-x="505" 
d="M86 1268h-131l283 317h75l283 -317h-133l-189 213zM14 -467q-117 0 -194 47l30 105q88 -39 156 -39q102 0 155.5 63.5t53.5 181.5v1205h123v-1196q0 -176 -86.5 -271.5t-237.5 -95.5z" />
    <glyph glyph-name="Kcommaaccent" unicode="&#x136;" horiz-adv-x="1280" 
d="M1239 1513l-606 -714l663 -799h-159l-588 709l-217 -254v-455h-125v1513h125v-884l755 884h152zM719 -51q47 0 78.5 -35t31.5 -86q0 -157 -217 -295l-39 57q135 93 164 174q-13 -8 -37 -8q-35 0 -61.5 26.5t-26.5 63.5q0 43 31.5 73t75.5 30z" />
    <glyph glyph-name="kcommaaccent" unicode="&#x137;" horiz-adv-x="1040" 
d="M1001 1096l-497 -447l545 -649h-160l-471 571l-129 -114v-457h-123v1546h123v-940l547 490h165zM565 -57q47 0 79 -35t32 -86q0 -157 -217 -295l-39 57q135 93 164 174q-13 -8 -37 -8q-35 0 -61.5 26.5t-26.5 63.5q0 43 31 73t75 30z" />
    <glyph glyph-name="kgreenlandic" unicode="&#x138;" horiz-adv-x="1038" 
d="M1047 0h-158l-459 545l-141 -133v-412h-123v1096h123v-537l547 537h165l-487 -469z" />
    <glyph glyph-name="Lacute" unicode="&#x139;" horiz-adv-x="1216" 
d="M332 1630h-105l121 328h158zM1188 0h-971v1513h125v-1392h846v-121z" />
    <glyph glyph-name="lacute" unicode="&#x13a;" horiz-adv-x="448" 
d="M291 1632h-105l121 328h158zM297 1546v-1546h-123v1546h123z" />
    <glyph glyph-name="Lcommaaccent" unicode="&#x13b;" horiz-adv-x="1206" 
d="M332 1513v-1392h846v-121h-971v1513h125zM694 -70q47 0 79 -34.5t32 -85.5q0 -157 -217 -295l-39 57q135 93 164 174q-13 -8 -37 -8q-35 0 -61.5 26.5t-26.5 63.5q0 43 31 72.5t75 29.5z" />
    <glyph glyph-name="lcommaaccent" unicode="&#x13c;" horiz-adv-x="456" 
d="M180 1546h123v-1546h-123v1546zM244 -86q47 0 78.5 -35t31.5 -86q0 -157 -217 -295l-39 58q135 93 164 174q-15 -9 -37 -9q-35 0 -61.5 27t-26.5 64q0 43 31.5 72.5t75.5 29.5z" />
    <glyph glyph-name="Lcaron" unicode="&#x13d;" horiz-adv-x="1214" 
d="M958 1266h-102l115 321h143zM1178 0h-971v1513h125v-1392h846v-121z" />
    <glyph glyph-name="lcaron" unicode="&#x13e;" horiz-adv-x="501" 
d="M506 1280h-103l115 322h144zM289 1546v-1546h-123v1546h123z" />
    <glyph glyph-name="Ldot" unicode="&#x13f;" horiz-adv-x="1210" 
d="M1178 0h-971v1513h125v-1392h846v-121zM879 698q-43 0 -72 29t-29 70t29 68.5t72 27.5q41 0 69.5 -27.5t28.5 -68.5q0 -43 -28.5 -71t-69.5 -28z" />
    <glyph glyph-name="ldot" unicode="&#x140;" horiz-adv-x="614" 
d="M289 1546v-1546h-123v1546h123zM532 633q-43 0 -71.5 28.5t-28.5 69.5t28.5 68.5t71.5 27.5q42 0 70.5 -27.5t28.5 -68.5q0 -42 -28.5 -70t-70.5 -28z" />
    <glyph glyph-name="Lslash" unicode="&#x141;" horiz-adv-x="1232" 
d="M358 707v-586h846v-121h-971v621l-178 -123v129l178 125v761h125v-675l263 182v-131z" />
    <glyph glyph-name="lslash" unicode="&#x142;" horiz-adv-x="581" 
d="M362 887l154 121v-138l-154 -120v-750h-122v653l-144 -112v135l144 112v758h122v-659z" />
    <glyph glyph-name="Nacute" unicode="&#x143;" horiz-adv-x="1576" 
d="M836 1630h-105l121 328h158zM1245 270v1243h125v-1513h-65l-973 1231v-1231h-125v1513h55z" />
    <glyph glyph-name="nacute" unicode="&#x144;" horiz-adv-x="1253" 
d="M672 1272h-105l121 327h158zM289 0h-123v1096h119v-193q49 108 147.5 164.5t233.5 56.5q183 0 309 -120q125 -119 125 -342v-662h-123v639q0 172 -87 271.5t-239 99.5q-144 0 -254 -101q-108 -99 -108 -295v-614z" />
    <glyph glyph-name="Ncommaaccent" unicode="&#x145;" horiz-adv-x="1576" 
d="M1245 270v1243h125v-1513h-65l-973 1231v-1231h-125v1513h55zM807 -66q47 0 79 -34.5t32 -85.5q0 -157 -218 -295l-38 57q133 92 163 174q-13 -8 -37 -8q-35 0 -61.5 26.5t-26.5 63.5q0 43 31.5 72.5t75.5 29.5z" />
    <glyph glyph-name="ncommaaccent" unicode="&#x146;" horiz-adv-x="1253" 
d="M666 1124q183 0 309 -120q125 -119 125 -342v-662h-123v639q0 172 -87 271.5t-239 99.5q-144 0 -254 -101q-108 -99 -108 -295v-614h-123v1096h119v-193q49 108 147.5 164.5t233.5 56.5zM647 -68q47 0 79 -34.5t32 -85.5q0 -157 -217 -295l-39 57q135 93 164 174
q-13 -8 -37 -8q-35 0 -61.5 26.5t-26.5 63.5q0 43 31 72.5t75 29.5z" />
    <glyph glyph-name="Ncaron" unicode="&#x147;" horiz-adv-x="1576" 
d="M770 1630l-283 318h131l189 -213l188 213h133l-282 -318h-76zM1245 270v1243h125v-1513h-65l-973 1231v-1231h-125v1513h55z" />
    <glyph glyph-name="ncaron" unicode="&#x148;" horiz-adv-x="1253" 
d="M600 1272l-283 317h132l188 -213l188 213h133l-282 -317h-76zM289 0h-123v1096h119v-193q49 108 147.5 164.5t233.5 56.5q183 0 309 -120q125 -119 125 -342v-662h-123v639q0 172 -87 271.5t-239 99.5q-144 0 -254 -101q-108 -99 -108 -295v-614z" />
    <glyph glyph-name="napostrophe" unicode="&#x149;" horiz-adv-x="1286" 
d="M53 1280h-102l115 322h143zM324 0h-123v1096h118v-193q49 108 147.5 164.5t233.5 56.5q184 0 310 -120q125 -119 125 -342v-662h-123v639q0 172 -87 271.5t-239 99.5q-144 0 -254 -101q-108 -99 -108 -295v-614z" />
    <glyph glyph-name="Eng" unicode="&#x14a;" horiz-adv-x="1576" 
d="M1245 258v1255h125v-1550q0 -223 -127 -350t-319 -127q-157 0 -310 90l54 105q122 -76 258 -76q144 0 231.5 96t87.5 260v102l-913 1170v-1233h-125v1513h55z" />
    <glyph glyph-name="eng" unicode="&#x14b;" horiz-adv-x="1226" 
d="M653 -461l9 113q290 -30 290 280v730q0 160 -85.5 254t-227.5 94q-135 0 -244 -95q-106 -93 -106 -288v-627h-123v1096h119v-174q50 94 146.5 148t217.5 54q182 0 303 -118q123 -117 123 -332v-715q0 -467 -422 -420z" />
    <glyph glyph-name="Omacron" unicode="&#x14c;" horiz-adv-x="1761" 
d="M1217 1681l-680 -2v113h680v-111zM877 -25q-324 0 -549 228q-226 229 -226 551q0 324 228 555t551 231t549 -229q229 -229 229 -553t-229 -553q-227 -230 -553 -230zM881 96q272 0 460 191q189 195 189 469q0 276 -189 471q-186 192 -460 192q-272 0 -463 -194
q-189 -195 -189 -469t189 -469q188 -191 463 -191z" />
    <glyph glyph-name="omacron" unicode="&#x14d;" horiz-adv-x="1323" 
d="M971 1346l-619 -3v113h619v-110zM92 549q0 242 162 407q163 166 408 166q244 0 407 -166q162 -165 162 -407q0 -245 -162 -410q-163 -166 -407 -166q-245 0 -408 166q-162 165 -162 410zM662 86q192 0 319 133q127 136 127 330q0 195 -127 328t-319 133q-190 0 -320 -136
q-127 -133 -127 -325q0 -194 127 -330q130 -133 320 -133z" />
    <glyph glyph-name="Obreve" unicode="&#x14e;" horiz-adv-x="1761" 
d="M549 1944h110q1 -114 60 -172t162 -58q105 0 163.5 57.5t59.5 172.5h113q-2 -149 -93 -238.5t-243 -89.5t-241 89t-91 239zM877 -25q-324 0 -549 228q-226 229 -226 551q0 324 228 555t551 231t549 -229q229 -229 229 -553t-229 -553q-227 -230 -553 -230zM881 96
q272 0 460 191q189 195 189 469q0 276 -189 471q-186 192 -460 192q-272 0 -463 -194q-189 -195 -189 -469t189 -469q188 -191 463 -191z" />
    <glyph glyph-name="obreve" unicode="&#x14f;" horiz-adv-x="1323" 
d="M334 1589h110q1 -114 60 -171.5t162 -57.5q105 0 163.5 57t59.5 172h112q-2 -149 -92.5 -238t-242.5 -89t-241 88.5t-91 238.5zM92 549q0 242 162 407q163 166 408 166q244 0 407 -166q162 -165 162 -407q0 -245 -162 -410q-163 -166 -407 -166q-245 0 -408 166
q-162 165 -162 410zM662 86q192 0 319 133q127 136 127 330q0 195 -127 328t-319 133q-190 0 -320 -136q-127 -133 -127 -325q0 -194 127 -330q130 -133 320 -133z" />
    <glyph glyph-name="Ohungarumlaut" unicode="&#x150;" horiz-adv-x="1761" 
d="M762 1628h-92l92 328h156zM1077 1628h-94l119 328h155zM877 -25q-324 0 -549 228q-226 229 -226 551q0 324 228 555t551 231t549 -229q229 -229 229 -553t-229 -553q-227 -230 -553 -230zM881 96q272 0 460 191q189 195 189 469q0 276 -189 471q-186 192 -460 192
q-272 0 -463 -194q-189 -195 -189 -469t189 -469q188 -191 463 -191z" />
    <glyph glyph-name="ohungarumlaut" unicode="&#x151;" horiz-adv-x="1323" 
d="M551 1270h-92l92 327h156zM866 1270h-94l119 327h156zM92 549q0 242 162 407q163 166 408 166q244 0 407 -166q162 -165 162 -407q0 -245 -162 -410q-163 -166 -407 -166q-245 0 -408 166q-162 165 -162 410zM662 86q192 0 319 133q127 136 127 330q0 195 -127 328
t-319 133q-190 0 -320 -136q-127 -133 -127 -325q0 -194 127 -330q130 -133 320 -133z" />
    <glyph glyph-name="OE" unicode="&#x152;" horiz-adv-x="1986" 
d="M1087 709v-590h791v-119h-907q-94 -4 -99 -4q-386 0 -573 205q-186 204 -186 553t182 555q185 209 559 209q9 0 23 -1t35 -2t38 -2h924v-118h-787v-570h734v-116h-734zM858 115q19 0 105 4v1276q-86 4 -105 4q-134 0 -240.5 -34.5t-176 -93.5t-115 -142t-65 -174.5
t-19.5 -196.5q0 -107 19 -199t64.5 -175t115 -141.5t176 -93t241.5 -34.5z" />
    <glyph glyph-name="oe" unicode="&#x153;" horiz-adv-x="2187" 
d="M2097 596q0 -22 -6 -96h-891q14 -188 126.5 -299t303.5 -111q104 0 210 35.5t179 95.5l56 -94q-82 -66 -202 -109t-245 -43q-357 0 -495 301q-68 -141 -196.5 -221t-291.5 -80q-239 0 -395 166q-158 169 -158 410q0 236 158 405q155 168 395 168q159 0 289.5 -81.5
t198.5 -219.5q64 141 187 220t286 79q215 0 352 -143q139 -142 139 -383zM1606 1010q-167 0 -277 -108.5t-129 -289.5h774q-1 181 -103 289.5t-265 108.5zM1073 551q0 191 -123 323q-125 134 -305 134t-305 -134q-123 -132 -123 -323q0 -196 123 -328q124 -133 305 -133
t305 133q123 132 123 328z" />
    <glyph glyph-name="Racute" unicode="&#x154;" horiz-adv-x="1267" 
d="M659 1958h158l-174 -328h-104zM1174 0h-152l-387 639h-303v-639h-125v1513h457q232 0 354 -131q125 -128 125 -307q0 -152 -99 -272q-92 -117 -276 -152zM666 1395h-334v-637h303q181 0 280 87.5t99 233.5q0 141 -94.5 228.5t-253.5 87.5z" />
    <glyph glyph-name="racute" unicode="&#x155;" horiz-adv-x="759" 
d="M469 1272h-104l120 327h158zM289 0h-123v1096h117v-176q88 204 317 204q64 0 135 -18l-14 -117q-62 19 -117 19q-147 0 -231 -105t-84 -278v-625z" />
    <glyph glyph-name="Rcommaaccent" unicode="&#x156;" horiz-adv-x="1267" 
d="M768 651l406 -651h-152l-387 639h-303v-639h-125v1513h457q232 0 354 -131q125 -128 125 -307q0 -152 -99 -272q-92 -117 -276 -152zM666 1395h-334v-637h303q181 0 280 87.5t99 233.5q0 141 -94.5 228.5t-253.5 87.5zM659 -53q47 0 79 -35t32 -86q0 -157 -217 -295
l-39 57q135 93 164 174q-13 -8 -37 -8q-35 0 -61.5 26.5t-26.5 63.5q0 43 31 73t75 30z" />
    <glyph glyph-name="rcommaaccent" unicode="&#x157;" horiz-adv-x="774" 
d="M612 1124q66 0 136 -18l-15 -117q-62 19 -117 19q-147 0 -231 -105t-84 -278v-625h-123v1096h117v-176q88 204 317 204zM244 -80q47 0 78.5 -35t31.5 -86q0 -157 -217 -295l-39 58q135 93 164 174q-13 -8 -37 -8q-35 0 -61.5 26.5t-26.5 63.5q0 43 31.5 72.5t75.5 29.5z
" />
    <glyph glyph-name="Rcaron" unicode="&#x158;" horiz-adv-x="1267" 
d="M940 1948l-283 -318h-75l-283 318h131l188 -213l189 213h133zM1174 0h-152l-387 639h-303v-639h-125v1513h457q232 0 354 -131q125 -128 125 -307q0 -152 -99 -272q-92 -117 -276 -152zM666 1395h-334v-637h303q181 0 280 87.5t99 233.5q0 141 -94.5 228.5t-253.5 87.5z
" />
    <glyph glyph-name="rcaron" unicode="&#x159;" horiz-adv-x="768" 
d="M397 1272l-282 317h131l188 -213l189 213h133l-283 -317h-76zM301 0h-123v1096h117v-176q88 204 317 204q66 0 136 -18l-15 -117q-62 19 -117 19q-147 0 -231 -105t-84 -278v-625z" />
    <glyph glyph-name="Sacute" unicode="&#x15a;" horiz-adv-x="1128" 
d="M608 1628h-104l121 328h157zM563 -25q-164 0 -296.5 82t-200.5 234l100 67q58 -126 159.5 -195t233.5 -69q154 0 250 84t96 209q0 85 -48.5 146t-149.5 112q-88 42 -156 72q-121 54 -150 69q-258 129 -258 361q0 170 119 280q119 113 316 113q272 0 428 -225l-95 -76
q-129 184 -331 184q-134 0 -220 -74.5t-86 -195.5q0 -157 183 -252q63 -32 166 -78q116 -51 172 -80q243 -132 243 -352q0 -185 -137 -301q-136 -115 -338 -115z" />
    <glyph glyph-name="sacute" unicode="&#x15b;" horiz-adv-x="905" 
d="M500 1272h-105l121 327h158zM451 -25q-125 0 -227.5 61t-160.5 179l99 61q94 -190 289 -190q108 0 178.5 60.5t70.5 146.5q0 107 -139 178q-36 17 -131 55q-102 44 -131 60q-174 88 -174 256q0 127 92.5 209t243.5 82q225 0 330 -172l-86 -70q-77 133 -246 133
q-101 0 -158 -49t-57 -129q0 -108 118 -166l123 -53q121 -52 146 -64q97 -46 144.5 -108.5t47.5 -153.5q0 -137 -104 -231q-106 -95 -268 -95z" />
    <glyph glyph-name="Scircumflex" unicode="&#x15c;" horiz-adv-x="1128" 
d="M401 1626h-131l283 318h76l282 -318h-133l-188 213zM563 -25q-164 0 -296.5 82t-200.5 234l100 67q58 -126 159.5 -195t233.5 -69q154 0 250 84t96 209q0 85 -48.5 146t-149.5 112q-88 42 -156 72q-121 54 -150 69q-258 129 -258 361q0 170 119 280q119 113 316 113
q272 0 428 -225l-95 -76q-129 184 -331 184q-134 0 -220 -74.5t-86 -195.5q0 -157 183 -252q63 -32 166 -78q116 -51 172 -80q243 -132 243 -352q0 -185 -137 -301q-136 -115 -338 -115z" />
    <glyph glyph-name="scircumflex" unicode="&#x15d;" horiz-adv-x="905" 
d="M268 1272h-131l283 317h76l282 -317h-133l-188 213zM451 -25q-125 0 -227.5 61t-160.5 179l99 61q94 -190 289 -190q108 0 178.5 60.5t70.5 146.5q0 107 -139 178q-36 17 -131 55q-102 44 -131 60q-174 88 -174 256q0 127 92.5 209t243.5 82q225 0 330 -172l-86 -70
q-77 133 -246 133q-101 0 -158 -49t-57 -129q0 -108 118 -166l123 -53q121 -52 146 -64q97 -46 144.5 -108.5t47.5 -153.5q0 -137 -104 -231q-106 -95 -268 -95z" />
    <glyph glyph-name="Scedilla" unicode="&#x15e;" horiz-adv-x="1128" 
d="M1038 391q0 -179 -129 -293t-323 -123l-47 -116q50 4 55 4q87 0 143 -47t56 -129q0 -94 -70.5 -156.5t-190.5 -62.5q-101 0 -208 49l34 86q87 -41 168 -41q71 0 116.5 37t45.5 88q0 43 -32 69.5t-93 26.5h-123l-16 35l61 162q-139 19 -249 98.5t-170 212.5l100 67
q58 -126 159.5 -195t233.5 -69q154 0 250 84t96 209q0 85 -48.5 146t-149.5 112q-88 42 -156 72q-121 54 -150 69q-258 129 -258 361q0 170 119 280q119 113 316 113q272 0 428 -225l-95 -76q-129 184 -331 184q-134 0 -220 -74.5t-86 -195.5q0 -157 183 -252
q63 -32 166 -78q116 -51 172 -80q243 -132 243 -352z" />
    <glyph glyph-name="scedilla" unicode="&#x15f;" horiz-adv-x="905" 
d="M823 301q0 -133 -102 -227q-104 -96 -258 -99l-39 -94q50 4 55 4q87 0 143 -47t56 -129q0 -94 -70.5 -156.5t-189.5 -62.5q-102 0 -209 49l35 86q87 -41 168 -41q71 0 116 37t45 88q0 43 -31.5 69.5t-92.5 26.5h-123l-17 35l56 144q-209 41 -302 231l99 61
q94 -190 289 -190q108 0 178.5 60.5t70.5 146.5q0 107 -139 178q-36 17 -131 55q-102 44 -131 60q-174 88 -174 256q0 127 92.5 209t243.5 82q225 0 330 -172l-86 -70q-77 133 -246 133q-101 0 -158 -49t-57 -129q0 -108 118 -166l123 -53q121 -52 146 -64
q97 -46 144.5 -108.5t47.5 -153.5z" />
    <glyph glyph-name="Scaron" unicode="&#x160;" horiz-adv-x="1128" 
d="M565 1628l-282 318h131l188 -213l189 213h133l-283 -318h-76zM563 -25q-164 0 -296.5 82t-200.5 234l100 67q58 -126 159.5 -195t233.5 -69q154 0 250 84t96 209q0 85 -48.5 146t-149.5 112q-88 42 -156 72q-121 54 -150 69q-258 129 -258 361q0 170 119 280
q119 113 316 113q272 0 428 -225l-95 -76q-129 184 -331 184q-134 0 -220 -74.5t-86 -195.5q0 -157 183 -252q63 -32 166 -78q116 -51 172 -80q243 -132 243 -352q0 -185 -137 -301q-136 -115 -338 -115z" />
    <glyph glyph-name="scaron" unicode="&#x161;" horiz-adv-x="905" 
d="M420 1272l-283 317h131l189 -213l188 213h133l-282 -317h-76zM451 -25q-125 0 -227.5 61t-160.5 179l99 61q94 -190 289 -190q108 0 178.5 60.5t70.5 146.5q0 107 -139 178q-36 17 -131 55q-102 44 -131 60q-174 88 -174 256q0 127 92.5 209t243.5 82q225 0 330 -172
l-86 -70q-77 133 -246 133q-101 0 -158 -49t-57 -129q0 -108 118 -166l123 -53q121 -52 146 -64q97 -46 144.5 -108.5t47.5 -153.5q0 -137 -104 -231q-106 -95 -268 -95z" />
    <glyph glyph-name="Tcaron" unicode="&#x164;" horiz-adv-x="1103" 
d="M516 1630l-283 318h132l188 -213l188 213h133l-282 -318h-76zM489 0v1393h-458v120h1042v-120h-459v-1393h-125z" />
    <glyph glyph-name="tcaron" unicode="&#x165;" horiz-adv-x="856" 
d="M793 1599h143l-156 -321h-102zM561 88q126 0 230 76l51 -94q-121 -95 -291 -95q-162 0 -246 100t-84 283v629h-194v109h196v387h121v-387h451v-109h-451v-633q0 -266 217 -266z" />
    <glyph glyph-name="Tbar" unicode="&#x166;" horiz-adv-x="1175" 
d="M1110 1513v-120h-459v-523h353v-112h-353v-758h-125v758h-350v112h350v523h-458v120h1042z" />
    <glyph glyph-name="tbar" unicode="&#x167;" horiz-adv-x="864" 
d="M803 164l51 -94q-121 -95 -291 -95q-162 0 -246 100t-84 283v248h-192v111h192v270h-194v109h197v387h120v-387h451v-109h-451v-270h447v-111h-447v-252q0 -266 217 -266q126 0 230 76z" />
    <glyph glyph-name="Utilde" unicode="&#x168;" horiz-adv-x="1402" 
d="M434 1659l-80 37q24 80 84 130t137 50q72 0 152 -57q82 -58 127 -58q42 0 77 31.5t54 77.5l80 -35q-24 -81 -81 -130.5t-134 -49.5q-72 0 -154 55q-80 57 -125 57q-91 0 -137 -108zM190 492v1021h125v-1001q0 -197 101.5 -305.5t285.5 -108.5q183 0 284 109.5t101 304.5
v1001h125v-1021q0 -242 -139 -381q-138 -138 -371 -138q-231 0 -372 138q-140 140 -140 381z" />
    <glyph glyph-name="utilde" unicode="&#x169;" horiz-adv-x="1198" 
d="M340 1290l-76 35q24 76 80.5 123t128.5 47q65 0 141 -55q82 -54 121 -54q40 0 75.5 30t49.5 73l74 -33q-20 -76 -76 -123t-127 -47q-66 0 -143 53q-79 54 -119 54q-82 0 -129 -103zM598 -27q-203 0 -326 123q-120 126 -120 332v668h122v-666q0 -158 87.5 -250t236.5 -92
q153 0 239.5 92t86.5 252v664h123v-668q0 -210 -120 -332.5t-329 -122.5z" />
    <glyph glyph-name="Umacron" unicode="&#x16a;" horiz-adv-x="1402" 
d="M1028 1681l-680 -2v113h680v-111zM190 492v1021h125v-1001q0 -197 101.5 -305.5t285.5 -108.5q183 0 284 109.5t101 304.5v1001h125v-1021q0 -242 -139 -381q-138 -138 -371 -138q-231 0 -372 138q-140 140 -140 381z" />
    <glyph glyph-name="umacron" unicode="&#x16b;" horiz-adv-x="1198" 
d="M909 1333l-618 -2v113h618v-111zM598 -27q-203 0 -326 123q-120 126 -120 332v668h122v-666q0 -158 87.5 -250t236.5 -92q153 0 239.5 92t86.5 252v664h123v-668q0 -210 -120 -332.5t-329 -122.5z" />
    <glyph glyph-name="Ubreve" unicode="&#x16c;" horiz-adv-x="1402" 
d="M367 1944h110q1 -114 59.5 -172t161.5 -58q105 0 164 57.5t60 172.5h112q-2 -149 -93 -238.5t-243 -89.5t-240.5 89t-90.5 239zM190 492v1021h125v-1001q0 -197 101.5 -305.5t285.5 -108.5q183 0 284 109.5t101 304.5v1001h125v-1021q0 -242 -139 -381
q-138 -138 -371 -138q-231 0 -372 138q-140 140 -140 381z" />
    <glyph glyph-name="ubreve" unicode="&#x16d;" horiz-adv-x="1198" 
d="M266 1587h111q1 -114 59.5 -171.5t161.5 -57.5q105 0 163.5 57t59.5 172h113q-2 -149 -93 -238t-243 -89t-241 88.5t-91 238.5zM598 -27q-203 0 -326 123q-120 126 -120 332v668h122v-666q0 -158 87.5 -250t236.5 -92q153 0 239.5 92t86.5 252v664h123v-668
q0 -210 -120 -332.5t-329 -122.5z" />
    <glyph glyph-name="Uring" unicode="&#x16e;" horiz-adv-x="1402" 
d="M702 1610q-94 0 -160.5 64.5t-66.5 156.5q0 94 66.5 159.5t160.5 65.5q97 0 162 -65q68 -65 68 -160q0 -92 -66.5 -156.5t-163.5 -64.5zM602 1733q41 -41 100.5 -41t100.5 41q43 41 43 100t-43 100q-41 41 -100.5 41t-100.5 -41t-41 -100t41 -100zM190 492v1021h125
v-1001q0 -197 101.5 -305.5t285.5 -108.5q183 0 284 109.5t101 304.5v1001h125v-1021q0 -242 -139 -381q-138 -138 -371 -138q-231 0 -372 138q-140 140 -140 381z" />
    <glyph glyph-name="uring" unicode="&#x16f;" horiz-adv-x="1198" 
d="M598 1210q-94 0 -160.5 65t-66.5 157q0 94 66.5 159.5t160.5 65.5q96 0 162 -66q67 -64 67 -159q0 -93 -66.5 -157.5t-162.5 -64.5zM498 1333q41 -41 100 -41t100 41q43 41 43 100.5t-43 100.5q-41 41 -100 41t-100 -41t-41 -100.5t41 -100.5zM598 -27q-203 0 -326 123
q-120 126 -120 332v668h122v-666q0 -158 87.5 -250t236.5 -92q153 0 239.5 92t86.5 252v664h123v-668q0 -210 -120 -332.5t-329 -122.5z" />
    <glyph glyph-name="Uhungarumlaut" unicode="&#x170;" horiz-adv-x="1402" 
d="M565 1628h-92l92 328h156zM881 1628h-95l119 328h156zM190 492v1021h125v-1001q0 -197 101.5 -305.5t285.5 -108.5q183 0 284 109.5t101 304.5v1001h125v-1021q0 -242 -139 -381q-138 -138 -371 -138q-231 0 -372 138q-140 140 -140 381z" />
    <glyph glyph-name="uhungarumlaut" unicode="&#x171;" horiz-adv-x="1198" 
d="M463 1270h-92l92 327h155zM778 1270h-94l119 327h155zM598 -27q-203 0 -326 123q-120 126 -120 332v668h122v-666q0 -158 87.5 -250t236.5 -92q153 0 239.5 92t86.5 252v664h123v-668q0 -210 -120 -332.5t-329 -122.5z" />
    <glyph glyph-name="Uogonek" unicode="&#x172;" horiz-adv-x="1402" 
d="M1087 512v1001h125v-1021q0 -182 -81 -308.5t-228 -177.5q-117 -55 -184.5 -134t-67.5 -155q0 -56 36.5 -93.5t90.5 -37.5q60 0 119 41l49 -84q-85 -61 -182 -61q-98 0 -159.5 60t-61.5 157q0 155 174 274h-15q-231 0 -372 138q-140 140 -140 381v1021h125v-1001
q0 -197 101.5 -305.5t285.5 -108.5q183 0 284 109.5t101 304.5z" />
    <glyph glyph-name="uogonek" unicode="&#x173;" horiz-adv-x="1198" 
d="M924 432v664h123v-668q0 -159 -69.5 -269t-199.5 -157q-123 -55 -194.5 -135.5t-71.5 -159.5q0 -56 36.5 -93.5t90.5 -37.5q60 0 119 41l49 -84q-85 -61 -182 -61q-98 0 -160 60t-62 157q0 160 189 284q-203 3 -322 125q-118 124 -118 330v668h122v-666q0 -158 87.5 -250
t236.5 -92q153 0 239.5 92t86.5 252z" />
    <glyph glyph-name="Wcircumflex" unicode="&#x174;" horiz-adv-x="2068" 
d="M846 1628h-131l282 318h76l283 -318h-133l-189 213zM600 0h-61l-506 1513h127l411 -1265l435 1265h55l440 -1263l408 1263h125l-502 -1513h-62l-436 1274z" />
    <glyph glyph-name="wcircumflex" unicode="&#x175;" horiz-adv-x="1667" 
d="M645 1272h-131l283 317h75l283 -317h-133l-188 213zM504 2h-86l-385 1094h127l305 -901l328 901l81 -2l332 -899l299 901h129l-383 -1094h-86l-331 920z" />
    <glyph glyph-name="Ycircumflex" unicode="&#x176;" horiz-adv-x="1232" 
d="M428 1628h-131l283 318h75l283 -318h-133l-189 213zM1053 1513h137l-512 -913v-600h-125v600l-508 913h137l434 -796z" />
    <glyph glyph-name="ycircumflex" unicode="&#x177;" horiz-adv-x="1087" 
d="M741 1268l-188 213l-188 -213h-132l283 317h76l282 -317h-133zM561 160l359 936h135l-463 -1178q-82 -210 -166.5 -296.5t-208.5 -86.5q-90 0 -158 39l19 109q70 -33 135 -33q84 0 145 68t117 212l27 70l-467 1096h135z" />
    <glyph glyph-name="Ydieresis" unicode="&#x178;" horiz-adv-x="1232" 
d="M332 1765q0 42 31 73.5t75 31.5t75.5 -31t31.5 -74q0 -47 -31 -77.5t-76 -30.5q-44 0 -75 32t-31 76zM692 1765q0 43 31.5 74t75.5 31t76 -31t32 -74q0 -44 -32 -76t-76 -32q-45 0 -76 30.5t-31 77.5zM1053 1513h137l-512 -913v-600h-125v600l-508 913h137l434 -796z" />
    <glyph glyph-name="Zacute" unicode="&#x179;" horiz-adv-x="1181" 
d="M655 1630h-104l121 328h157zM1118 0h-1065v76l881 1319h-842v118h1004v-94l-863 -1300h885v-119z" />
    <glyph glyph-name="zacute" unicode="&#x17a;" horiz-adv-x="976" 
d="M522 1272h-104l121 327h157zM885 1006l-668 -897h698v-109h-858v84l676 901h-639v109h791v-88z" />
    <glyph glyph-name="Zdotaccent" unicode="&#x17b;" horiz-adv-x="1181" 
d="M606 1655q-44 0 -75 30t-31 74t31 74.5t75 30.5q43 0 74 -30.5t31 -74.5t-31 -74t-74 -30zM1118 0h-1065v76l881 1319h-842v118h1004v-94l-863 -1300h885v-119z" />
    <glyph glyph-name="zdotaccent" unicode="&#x17c;" horiz-adv-x="976" 
d="M506 1266q-45 0 -76 30t-31 74t31.5 74.5t75.5 30.5q43 0 73.5 -30.5t30.5 -74.5t-30.5 -74t-73.5 -30zM885 1006l-668 -897h698v-109h-858v84l676 901h-639v109h791v-88z" />
    <glyph glyph-name="Zcaron" unicode="&#x17d;" horiz-adv-x="1181" 
d="M575 1630l-282 318h131l188 -213l189 213h133l-283 -318h-76zM1118 0h-1065v76l881 1319h-842v118h1004v-94l-863 -1300h885v-119z" />
    <glyph glyph-name="zcaron" unicode="&#x17e;" horiz-adv-x="976" 
d="M453 1272l-283 317h131l188 -213l189 213h133l-283 -317h-75zM885 1006l-668 -897h698v-109h-858v84l676 901h-639v109h791v-88z" />
    <glyph glyph-name="Scommaaccent" unicode="&#x218;" horiz-adv-x="1128" 
d="M795 743q243 -132 243 -352q0 -185 -137 -301q-136 -115 -338 -115q-164 0 -296.5 82t-200.5 234l100 67q58 -126 159.5 -195t233.5 -69q154 0 250 84t96 209q0 85 -48.5 146t-149.5 112q-88 42 -156 72q-121 54 -150 69q-258 129 -258 361q0 170 119 280
q119 113 316 113q272 0 428 -225l-95 -76q-129 184 -331 184q-134 0 -220 -74.5t-86 -195.5q0 -157 183 -252q63 -32 166 -78q116 -51 172 -80zM567 -102q47 0 79 -35t32 -86q0 -157 -217 -295l-39 57q135 93 164 174q-13 -8 -37 -8q-35 0 -61.5 26.5t-26.5 63.5q0 43 31 73
t75 30z" />
    <glyph glyph-name="scommaaccent" unicode="&#x219;" horiz-adv-x="905" 
d="M631 563q97 -46 144.5 -108.5t47.5 -153.5q0 -137 -104 -231q-106 -95 -268 -95q-125 0 -227.5 61t-160.5 179l99 61q94 -190 289 -190q108 0 178.5 60.5t70.5 146.5q0 107 -139 178q-36 17 -131 55q-102 44 -131 60q-174 88 -174 256q0 127 92.5 209t243.5 82
q225 0 330 -172l-86 -70q-77 133 -246 133q-101 0 -158 -49t-57 -129q0 -108 118 -166l123 -53q121 -52 146 -64zM453 -102q47 0 78.5 -35t31.5 -86q0 -157 -217 -295l-39 57q135 93 164 174q-13 -8 -37 -8q-35 0 -61.5 26.5t-26.5 63.5q0 43 31.5 73t75.5 30z" />
    <glyph glyph-name="uni021A" unicode="&#x21a;" horiz-adv-x="1103" 
d="M31 1393v120h1042v-120h-459v-1393h-125v1393h-458zM553 -68q47 0 79 -34.5t32 -85.5q0 -157 -218 -295l-38 57q133 92 163 174q-13 -8 -36 -8q-35 0 -62 27t-27 63q0 43 31.5 72.5t75.5 29.5z" />
    <glyph glyph-name="uni021B" unicode="&#x21b;" horiz-adv-x="847" 
d="M791 164l51 -94q-121 -95 -291 -95q-162 0 -246 100t-84 283v629h-194v109h196v387h121v-387h451v-109h-451v-633q0 -266 217 -266q126 0 230 76zM535 -123q47 0 78.5 -35t31.5 -86q0 -157 -217 -295l-39 58q135 93 164 174q-13 -8 -37 -8q-35 0 -61.5 26.5t-26.5 63.5
q0 43 31.5 72.5t75.5 29.5z" />
    <glyph glyph-name="uni0237" unicode="&#x237;" horiz-adv-x="505" 
d="M14 -467q-117 0 -194 47l30 105q88 -39 156 -39q102 0 155.5 63.5t53.5 181.5v1205h123v-1196q0 -176 -86.5 -271.5t-237.5 -95.5z" />
    <glyph glyph-name="circumflex" unicode="&#x2c6;" horiz-adv-x="1177" 
d="M236 1282h-132l283 317h76l282 -317h-133l-188 213z" />
    <glyph glyph-name="caron" unicode="&#x2c7;" horiz-adv-x="1124" 
d="M387 1278l-283 317h132l188 -213l188 213h133l-282 -317h-76z" />
    <glyph glyph-name="breve" unicode="&#x2d8;" horiz-adv-x="907" 
d="M106 1597h111q1 -114 59.5 -171.5t161.5 -57.5q105 0 164 57.5t60 171.5h112q-2 -149 -93 -238t-243 -89t-241 88.5t-91 238.5z" />
    <glyph glyph-name="dotaccent" unicode="&#x2d9;" horiz-adv-x="614" 
d="M213 1272q-45 0 -76 30t-31 74t31.5 74.5t75.5 30.5q43 0 73.5 -30.5t30.5 -74.5t-30.5 -74t-73.5 -30z" />
    <glyph glyph-name="ring" unicode="&#x2da;" horiz-adv-x="774" 
d="M334 1239q-94 0 -161 64.5t-67 156.5q0 94 67 160t161 66q96 0 162 -66q67 -64 67 -160q0 -93 -66.5 -157t-162.5 -64zM233 1362q41 -41 100.5 -41t100.5 41q43 41 43 100.5t-43 100.5q-41 41 -100.5 41t-100.5 -41t-41 -100.5t41 -100.5z" />
    <glyph glyph-name="ogonek" unicode="&#x2db;" horiz-adv-x="792" 
d="M461 -385l49 -84q-85 -61 -182 -61q-98 0 -160 60t-62 157q0 208 304 346l71 -33q-123 -55 -194.5 -135.5t-71.5 -159.5q0 -56 36.5 -93.5t90.5 -37.5q60 0 119 41z" />
    <glyph glyph-name="tilde" unicode="&#x2dc;" horiz-adv-x="1103" 
d="M186 1346l-75 34q24 76 80 123t128 47q66 0 142 -55q80 -53 121 -53q40 0 75.5 30t49.5 72l73 -33q-20 -76 -75.5 -123t-126.5 -47q-65 0 -144 54q-77 53 -119 53q-83 0 -129 -102z" />
    <glyph glyph-name="hungarumlaut" unicode="&#x2dd;" horiz-adv-x="1050" 
d="M195 1270h-93l93 327h155zM510 1270h-94l119 327h155z" />
    <glyph glyph-name="uni0394" unicode="&#x394;" horiz-adv-x="1458" 
d="M1417 0h-1378v88l647 1425h88l643 -1425v-88zM729 1341l-545 -1224h1090z" />
    <glyph glyph-name="uni03A9" unicode="&#x3a9;" horiz-adv-x="1726" 
d="M735 0h-604v111h377q-190 109 -289 286q-100 178 -100 387q0 320 217 537q219 219 528 219q311 0 527 -219q217 -217 217 -537q0 -211 -101.5 -389.5t-285.5 -283.5h374v-111h-604v94q235 104 361.5 285t126.5 401q0 270 -176 455q-175 184 -439 184q-265 0 -440 -184
q-176 -185 -176 -455q0 -220 126 -401t361 -285v-94z" />
    <glyph glyph-name="uni03BC" unicode="&#x3bc;" horiz-adv-x="1239" 
d="M948 500v596h123v-1096h-115v197q-46 -107 -142.5 -165.5t-217.5 -58.5q-205 0 -307 170v-589h-123v1542h123v-643q0 -157 86 -263q89 -102 231 -102q131 0 238 96q104 98 104 316z" />
    <glyph glyph-name="pi" unicode="&#x3c0;" horiz-adv-x="1224" 
d="M362 0h-122v987h-189v109h1123v-109h-189v-987h-123v987h-500v-987z" />
    <glyph glyph-name="uni0401" unicode="&#x401;" horiz-adv-x="1230" 
d="M381 1765q0 42 31 73.5t75 31.5t75.5 -31t31.5 -74q0 -47 -31 -77.5t-76 -30.5q-44 0 -75 32t-31 76zM741 1765q0 43 31.5 74t75.5 31t76 -31t32 -74q0 -44 -32 -76t-76 -32q-45 0 -76 30.5t-31 77.5zM1122 0h-915v1513h911v-118h-786v-570h733v-116h-733v-590h790v-119z
" />
    <glyph glyph-name="uni0410" unicode="&#x410;" horiz-adv-x="1335" 
d="M1303 0h-138l-180 459h-637l-180 -459h-137l604 1513h67zM944 575l-276 715l-279 -715h555z" />
    <glyph glyph-name="uni0411" unicode="&#x411;" horiz-adv-x="1298" 
d="M332 909h389q137 0 241 -44t160 -120q103 -137 103 -299q0 -67 -18 -130t-57.5 -121t-97 -101t-143 -68.5t-188.5 -25.5h-514v1513h868v-118h-743v-486zM332 119h368q183 0 289.5 94t106.5 246q0 150 -102.5 241t-278.5 91h-383v-672z" />
    <glyph glyph-name="uni0412" unicode="&#x412;" horiz-adv-x="1353" 
d="M956 819q138 -37 216.5 -144.5t78.5 -244.5q0 -175 -125 -303q-127 -127 -354 -127h-565v1513h545q203 0 309 -112q110 -110 110 -264q0 -110 -59 -198t-156 -120zM739 1395h-407v-527h430q123 0 202.5 77.5t79.5 191.5q0 115 -81 186.5t-224 71.5zM332 119h430
q159 0 260 90q100 90 100 227q0 136 -100 223q-105 91 -262 91h-428v-631z" />
    <glyph glyph-name="uni0413" unicode="&#x413;" horiz-adv-x="1089" 
d="M332 0h-125v1513h852v-118h-727v-1395z" />
    <glyph glyph-name="uni0414" unicode="&#x414;" horiz-adv-x="1488" 
d="M778 1513l516 -1396h140v-424h-129v307h-1123v-307h-129v424h140l520 1396h65zM743 1290l-415 -1173h831z" />
    <glyph glyph-name="uni0415" unicode="&#x415;" horiz-adv-x="1230" 
d="M1122 0h-915v1513h911v-118h-786v-570h733v-116h-733v-590h790v-119z" />
    <glyph glyph-name="uni0416" unicode="&#x416;" horiz-adv-x="1900" 
d="M1860 123l20 -119q-64 -27 -131 -27q-149 0 -252 127q-49 60 -168 277l-29 51q-62 118 -81 148q-68 110 -148 110h-57v-694h-125v694h-60q-62 0 -106 -53q-36 -46 -123 -205q-136 -251 -188 -319q-118 -133 -258 -136q-70 0 -134 27l21 119q53 -21 104 -21q95 0 152 72
q55 66 240 395q83 139 141 176q-47 30 -74.5 59.5t-56.5 80.5l-29 55l-26 66l-25 61q-88 223 -133 281q-53 65 -144 65q-40 0 -96 -20l-33 112q70 31 134 31q153 0 239 -121q47 -63 150 -313q9 -22 10 -27q31 -74 37 -92l37 -68q32 -56 71 -76t115 -28h35v698h125v-698h35
q58 0 95.5 16.5t67.5 57.5q34 46 48 78l49 112q104 263 145 324q84 128 223 137h29q66 0 133 -31l-31 -112q-56 20 -96 20q-98 0 -145 -65q-50 -69 -133 -281l-8 -17q-7 -17 -13 -34q-31 -75 -47 -107q-28 -58 -57 -98q-39 -52 -78 -72q54 -38 133 -170l43 -75
q160 -281 207 -330q59 -62 143 -62q53 0 103 21z" />
    <glyph glyph-name="uni0417" unicode="&#x417;" horiz-adv-x="1200" 
d="M541 -25q-256 0 -492 154l62 104q216 -139 430 -139q182 0 301 90q119 88 119 236q0 132 -95 215.5t-262 83.5h-297v117h228q180 0 284 90q103 92 103 217q0 123 -103 200q-104 78 -252 78q-217 0 -405 -147l-68 94q92 80 220.5 126t258.5 46q214 0 345 -113t131 -284
q0 -121 -67 -212t-198 -134v-6q144 -26 223.5 -129.5t79.5 -247.5q0 -194 -151 -318q-151 -121 -395 -121z" />
    <glyph glyph-name="uni0418" unicode="&#x418;" horiz-adv-x="1576" 
d="M276 0h-69v1513h125v-1259l966 1259h72v-1513h-125v1266z" />
    <glyph glyph-name="uni0419" unicode="&#x419;" horiz-adv-x="1576" 
d="M797 1602q-215 0 -367 186l70 76q135 -158 297 -158t297 158l71 -76q-158 -186 -368 -186zM276 0h-69v1513h125v-1259l966 1259h72v-1513h-125v1266z" />
    <glyph glyph-name="uni041A" unicode="&#x41a;" horiz-adv-x="1280" 
d="M1296 0h-159l-588 709l-217 -254v-455h-125v1513h125v-884l755 884h152l-606 -714z" />
    <glyph glyph-name="uni041B" unicode="&#x41b;" horiz-adv-x="1263" 
d="M174 0h-137l563 1513h68l559 -1513h-140l-452 1276z" />
    <glyph glyph-name="uni041C" unicode="&#x41c;" horiz-adv-x="1851" 
d="M332 0h-125v1513h55l666 -978l659 978h58v-1513h-125v1204l-578 -856h-31l-579 854v-1202z" />
    <glyph glyph-name="uni041D" unicode="&#x41d;" horiz-adv-x="1509" 
d="M334 0h-127v1513h127v-700h844v700h125v-1513h-125v694h-844v-694z" />
    <glyph glyph-name="uni041E" unicode="&#x41e;" horiz-adv-x="1761" 
d="M877 -25q-324 0 -549 228q-226 229 -226 551q0 324 228 555t551 231t549 -229q229 -229 229 -553t-229 -553q-227 -230 -553 -230zM881 96q272 0 460 191q189 195 189 469q0 276 -189 471q-186 192 -460 192q-272 0 -463 -194q-189 -195 -189 -469t189 -469
q188 -191 463 -191z" />
    <glyph glyph-name="uni041F" unicode="&#x41f;" horiz-adv-x="1509" 
d="M334 0h-127v1513h1096v-1513h-125v1395h-844v-1395z" />
    <glyph glyph-name="uni0420" unicode="&#x420;" horiz-adv-x="1224" 
d="M207 1513h467q236 0 358 -137q125 -137 125 -325q0 -191 -131 -328q-129 -135 -371 -135h-323v-588h-125v1513zM332 705h325q170 0 271.5 98t101.5 250q0 151 -95.5 246.5t-254.5 95.5h-348v-690z" />
    <glyph glyph-name="uni0421" unicode="&#x421;" horiz-adv-x="1607" 
d="M881 -23q-325 0 -551 218t-226 557q0 344 228 565q229 223 553 223q207 0 385 -94q177 -91 272 -242l-96 -71q-86 131 -236 208.5t-325 77.5q-279 0 -467 -188q-187 -187 -187 -477q0 -285 185 -473q188 -185 467 -185q170 0 320 74.5t249 206.5l90 -74
q-111 -151 -284.5 -238.5t-376.5 -87.5z" />
    <glyph glyph-name="uni0422" unicode="&#x422;" horiz-adv-x="1103" 
d="M489 0v1393h-458v120h1042v-120h-459v-1393h-125z" />
    <glyph glyph-name="uni0423" unicode="&#x423;" horiz-adv-x="1181" 
d="M240 -25q-66 0 -131 27l12 119q58 -27 112 -27q111 0 189 105q64 87 129 219l16 35l-528 1058h141l453 -917l397 917h141l-512 -1144q-72 -161 -155 -263q-107 -129 -264 -129z" />
    <glyph glyph-name="uni0424" unicode="&#x424;" horiz-adv-x="1859" 
d="M991 14v-178h-125v178q-331 15 -551 226q-215 209 -215 518q0 312 215 518q219 210 551 225v176h125v-176q335 -15 551 -225q217 -205 217 -518q0 -312 -217 -520q-218 -209 -551 -224zM991 1382v-1251q282 15 461 188q178 175 178 439t-178 436q-176 173 -461 188z
M866 131v1251q-279 -15 -460 -190q-179 -173 -179 -434q0 -260 179 -436q182 -176 460 -191z" />
    <glyph glyph-name="uni0425" unicode="&#x425;" horiz-adv-x="1210" 
d="M176 0h-151l507 770l-485 743h148l411 -641l414 641h151l-491 -743l502 -770h-148l-428 662z" />
    <glyph glyph-name="uni0426" unicode="&#x426;" horiz-adv-x="1435" 
d="M1348 -307h-129v307h-1012v1513h129v-1394h735v1394h129v-1394h148v-426z" />
    <glyph glyph-name="uni0427" unicode="&#x427;" horiz-adv-x="1353" 
d="M1020 698v815h127v-1513h-127v569q-198 -88 -414 -88q-237 0 -365 124.5t-128 352.5v555h125v-526q0 -192 90 -286.5t280 -94.5q217 0 412 92z" />
    <glyph glyph-name="uni0428" unicode="&#x428;" horiz-adv-x="2199" 
d="M1993 0h-1786v1513h129v-1394h698v1394h129v-1394h701v1394h129v-1513z" />
    <glyph glyph-name="uni0429" unicode="&#x429;" horiz-adv-x="2226" 
d="M2138 -307h-129v307h-1802v1513h129v-1394h698v1394h129v-1394h701v1394h129v-1394h145v-426z" />
    <glyph glyph-name="uni042A" unicode="&#x42a;" horiz-adv-x="1484" 
d="M889 987q233 0 377 -135q147 -132 147 -367q0 -200 -129 -344q-129 -141 -383 -141h-506v1395h-362v118h487v-608q165 82 369 82zM520 119h361q201 0 301 106q102 108 102 271q0 175 -108 272.5t-295 97.5q-210 0 -361 -86v-661z" />
    <glyph glyph-name="uni042B" unicode="&#x42b;" horiz-adv-x="1798" 
d="M348 930h389q137 0 241.5 -45t160.5 -121q102 -139 102 -305q0 -185 -127 -324q-126 -135 -377 -135h-514v1513h125v-583zM1466 0v1513h125v-1513h-125zM348 119h369q183 0 289 96t106 254q0 156 -102 250t-279 94h-383v-694z" />
    <glyph glyph-name="uni042C" unicode="&#x42c;" horiz-adv-x="1296" 
d="M700 987q233 0 377 -135q148 -133 148 -367q0 -200 -129 -344q-129 -141 -383 -141h-506v1513h125v-608q165 82 368 82zM332 119h360q201 0 301 106q103 109 103 271q0 175 -108.5 272.5t-295.5 97.5q-209 0 -360 -86v-661z" />
    <glyph glyph-name="uni042D" unicode="&#x42d;" horiz-adv-x="1617" 
d="M733 1540q325 0 551 -223q229 -219 229 -565q0 -340 -225 -557q-226 -218 -551 -218q-203 0 -376.5 87.5t-284.5 238.5l90 74q99 -132 249 -206.5t320 -74.5q266 0 447 166q181 169 202 432h-907v117h907q-21 268 -204 436q-184 172 -447 172q-175 0 -325 -77.5
t-236 -208.5l-96 71q95 151 272 242q178 94 385 94z" />
    <glyph glyph-name="uni042E" unicode="&#x42e;" horiz-adv-x="2217" 
d="M1337 1540q323 0 549 -229q230 -230 230 -553t-230 -553q-227 -230 -553 -230q-309 0 -526 205q-219 207 -246 506h-229v-686h-125v1513h125v-708h229q18 311 242 522q227 213 534 213zM1337 96q273 0 461 191q189 195 189 469q0 276 -189 471q-186 192 -461 192
q-272 0 -463 -194q-188 -194 -188 -469t188 -469q188 -191 463 -191z" />
    <glyph glyph-name="uni042F" unicode="&#x42f;" horiz-adv-x="1286" 
d="M635 1513h444v-1513h-125v623q-126 -27 -315 -27h-31l-368 -596h-152l387 612q-173 37 -260.5 154.5t-87.5 288.5q0 193 129 325q130 133 379 133zM651 715q187 0 303 22v658h-311q-185 0 -286 -89t-101 -249q0 -342 395 -342z" />
    <glyph glyph-name="uni0430" unicode="&#x430;" horiz-adv-x="1355" 
d="M1069 885v211h119v-1096h-119v213q-69 -113 -182.5 -176.5t-249.5 -63.5q-233 0 -389 166q-156 169 -156 414q0 240 154 405q156 164 391 164q136 0 249.5 -62t182.5 -175zM643 86q190 0 313 135t123 332q0 192 -123 324q-124 133 -313 133q-188 0 -309 -133
q-119 -131 -119 -328q0 -199 119 -330q121 -133 309 -133z" />
    <glyph glyph-name="uni0431" unicode="&#x431;" horiz-adv-x="1345" 
d="M717 1073q214 0 373 -147q161 -145 161 -400q0 -237 -155 -395t-398 -158q-122 0 -220.5 41.5t-165 112t-111 167t-64.5 202t-20 221.5q0 348 116 506q115 161 379 217l88 16l101 21l84 28q56 19 104 50t109 83l49 -112q-60 -60 -148 -103q-73 -36 -133 -53
q-73 -18 -172 -37q-130 -26 -199.5 -55t-129.5 -88t-90.5 -159t-41.5 -263q43 107 129 178q152 127 355 127zM700 86q183 0 304 127q122 125 122 313q0 189 -118 310q-119 125 -297 125q-184 0 -314 -121q-127 -121 -127 -303q0 -188 123 -320q122 -131 307 -131z" />
    <glyph glyph-name="uni0432" unicode="&#x432;" 
d="M827 836q134 -24 224 -131q92 -109 92 -273q0 -197 -133 -330q-132 -129 -361 -129q-247 0 -375.5 156.5t-128.5 437.5v424q0 260 134 426q135 164 376 164q192 0 308 -113q116 -110 116 -290q0 -115 -68 -210.5t-184 -131.5zM657 1468q-179 0 -284 -128t-105 -373v-93
h350q149 0 244 89q96 90 96 219q0 128 -82.5 207t-218.5 79zM653 86q168 0 267.5 97.5t99.5 254.5q0 152 -99 238t-270 86h-383v-193q0 -242 103 -362.5t282 -120.5z" />
    <glyph glyph-name="uni0433" unicode="&#x433;" horiz-adv-x="995" 
d="M483 -27q-185 0 -295 76t-110 221q0 104 65.5 177.5t171.5 111.5q29 10 73 24.5t76 24.5t72 24.5t69 28t58.5 32.5t47.5 38.5t29.5 46t11.5 56.5q0 81 -69 128.5t-194 47.5q-160 0 -333 -66l-31 105q177 73 369 73q163 0 278 -71t115 -211q0 -99 -66 -167.5t-172 -103.5
q-26 -9 -72.5 -23t-76.5 -23.5t-72 -25t-69 -29.5t-57.5 -35t-48 -43t-29 -51t-11.5 -63q0 -93 71 -141.5t203 -48.5q209 0 396 100l41 -104q-213 -109 -441 -109z" />
    <glyph glyph-name="uni0434" unicode="&#x434;" horiz-adv-x="1357" 
d="M1069 899v197h123v-983q0 -281 -157 -430.5t-441 -149.5q-191 0 -404 78l29 106q201 -71 373 -71q229 0 353 115.5t124 336.5v127q-69 -109 -182 -169t-248 -60q-236 0 -391 162q-156 163 -156 401q0 233 158 399q156 164 391 164q135 0 247 -58.5t181 -164.5zM643 109
q189 0 311 131q125 131 125 323q0 190 -125 318q-123 129 -311 129q-187 0 -307 -129q-121 -130 -121 -322q0 -191 121 -321q120 -129 307 -129z" />
    <glyph glyph-name="uni0435" unicode="&#x435;" 
d="M1149 596q0 -22 -6 -96h-922q14 -187 131 -298.5t314 -111.5q107 0 217.5 36t183.5 95l57 -94q-84 -66 -207 -109t-253 -43q-117 0 -213.5 32.5t-161.5 87.5t-110 129.5t-65 156.5t-20 170q0 247 150 410q148 161 395 161q222 0 365 -143q145 -142 145 -383zM639 1010
q-171 0 -285 -109t-133 -289h801q-1 181 -107.5 289.5t-275.5 108.5z" />
    <glyph glyph-name="uni0436" unicode="&#x436;" horiz-adv-x="1681" 
d="M1638 102l17 -98q-61 -22 -119 -22q-94 0 -178 51q-34 27 -66 71q-36 51 -55 82l-61 111q-59 107 -103 149.5t-104 42.5h-70v-493h-117v493h-69q-60 0 -104 -42.5t-103 -149.5q-71 -123 -78 -135q-23 -39 -70 -92q-43 -49 -92.5 -68.5t-120.5 -19.5q-57 0 -118 22l16 98
q43 -14 94 -14q74 0 115 41q38 38 139 205q44 71 53 88q47 83 113 117q-47 21 -82 59q-23 26 -39 54t-23 45.5t-28 70.5q-53 150 -90 195q-38 47 -123 47q-28 0 -88 -13l-25 97q50 20 119 20q137 0 195 -67q62 -71 125 -246q43 -113 88 -158t143 -45h53v498h117v-498h53
q64 0 105.5 21.5t69 62.5t57.5 119q64 179 123 246q58 67 196 67q67 0 117 -20l-23 -97q-60 13 -88 13q-85 0 -123 -47q-37 -45 -90 -195q-9 -25 -39 -94q-19 -39 -55 -77.5t-78 -57.5q66 -34 113 -117q139 -234 172 -275q56 -56 135 -59q51 0 94 14z" />
    <glyph glyph-name="uni0437" unicode="&#x437;" horiz-adv-x="1105" 
d="M510 -465q-247 0 -465 162l57 94q192 -143 402 -143q175 0 284 92q109 89 109 240q0 138 -92 225.5t-254 87.5h-289v113h199q185 0 295 96q106 93 106 225q0 125 -96 203q-95 80 -244 80q-207 0 -379 -152l-69 86q93 82 213.5 130t244.5 48q200 0 324 -112
q129 -114 129 -283q0 -123 -72 -218.5t-204 -139.5v-7q144 -26 227.5 -135t83.5 -256q0 -190 -141 -313t-369 -123z" />
    <glyph glyph-name="uni0438" unicode="&#x438;" horiz-adv-x="1265" 
d="M977 1096h123v-1096h-117v199q-48 -100 -159.5 -163t-245.5 -63q-193 0 -308.5 115t-115.5 336v672h122v-668q0 -164 80.5 -252t229.5 -88q159 0 274 100q117 102 117 308v600z" />
    <glyph glyph-name="uni0439" unicode="&#x439;" horiz-adv-x="1265" 
d="M637 1182q-207 0 -350 180l65 72q129 -152 285 -152t285 152l69 -72q-152 -180 -354 -180zM977 1096h123v-1096h-117v199q-48 -100 -159.5 -163t-245.5 -63q-193 0 -308.5 115t-115.5 336v672h122v-668q0 -164 80.5 -252t229.5 -88q159 0 274 100q117 102 117 308v600z
" />
    <glyph glyph-name="uni043A" unicode="&#x43a;" horiz-adv-x="1040" 
d="M1049 0h-160l-471 571l-129 -114v-457h-123v1546h123v-940l547 490h165l-497 -447z" />
    <glyph glyph-name="uni043B" unicode="&#x43b;" horiz-adv-x="1118" 
d="M164 0h-133l495 1096h70l491 -1096h-135l-391 895z" />
    <glyph glyph-name="uni043C" unicode="&#x43c;" horiz-adv-x="1548" 
d="M289 0h-123v1096h67l543 -705l539 705h67v-1096h-122v838l-467 -613h-33l-471 611v-836z" />
    <glyph glyph-name="uni043D" unicode="&#x43d;" horiz-adv-x="1218" 
d="M930 621v475h123v-1096h-123v512h-641v-512h-123v1096h123v-475h641z" />
    <glyph glyph-name="uni043E" unicode="&#x43e;" horiz-adv-x="1323" 
d="M92 549q0 242 162 407q163 166 408 166q244 0 407 -166q162 -165 162 -407q0 -245 -162 -410q-163 -166 -407 -166q-245 0 -408 166q-162 165 -162 410zM662 86q192 0 319 133q127 136 127 330q0 195 -127 328t-319 133q-190 0 -320 -136q-127 -133 -127 -325
q0 -194 127 -330q130 -133 320 -133z" />
    <glyph glyph-name="uni043F" unicode="&#x43f;" horiz-adv-x="1253" 
d="M289 0h-123v1096h119v-193q49 108 147.5 164.5t233.5 56.5q183 0 309 -120q125 -119 125 -342v-662h-123v639q0 172 -87 271.5t-239 99.5q-144 0 -254 -101q-108 -99 -108 -295v-614z" />
    <glyph glyph-name="uni0440" unicode="&#x440;" horiz-adv-x="1363" 
d="M727 1124q234 0 389 -168q156 -166 156 -407t-156 -408q-156 -166 -389 -166q-140 0 -254.5 64t-183.5 180v-670h-123v1547h123v-224q70 119 184 185.5t254 66.5zM721 88q186 0 307 133t121 328t-121 328t-307 133q-189 0 -313 -136q-123 -135 -123 -329q0 -192 123 -324
q124 -133 313 -133z" />
    <glyph glyph-name="uni0441" unicode="&#x441;" horiz-adv-x="1218" 
d="M653 -25q-244 0 -401 160q-158 166 -158 412q0 249 160 414q161 161 412 161q162 0 294 -76t195 -206l-100 -58q-56 105 -160.5 166.5t-228.5 61.5q-197 0 -322 -131q-127 -130 -127 -332q0 -201 123 -330t313 -129q123 0 232.5 63t163.5 164l100 -61q-64 -126 -201 -203
q-134 -76 -295 -76z" />
    <glyph glyph-name="uni0442" unicode="&#x442;" horiz-adv-x="1953" 
d="M1382 1124q185 0 301 -116q119 -116 119 -326v-682h-123v672q0 157 -81.5 247.5t-219.5 90.5q-127 0 -231 -90q-100 -87 -100 -265v-655h-123v657q0 161 -81 257t-218 96q-131 0 -236 -97q-100 -93 -100 -297v-616h-123v1096h121v-185q44 100 136.5 156.5t209.5 56.5
q121 0 217 -62t139 -175q50 113 156 175t237 62z" />
    <glyph glyph-name="uni0443" unicode="&#x443;" horiz-adv-x="1087" 
d="M557 160l358 936h136l-463 -1178q-82 -210 -166.5 -296.5t-208.5 -86.5q-90 0 -158 39l19 109q70 -33 135 -33q84 0 145 68t117 212l27 70l-467 1096h135z" />
    <glyph glyph-name="uni0444" unicode="&#x444;" horiz-adv-x="1619" 
d="M1528 547q0 -256 -180 -408q-182 -153 -482 -162v-434h-114v434q-302 6 -482 160q-178 156 -178 412q0 257 180 412t480 161v424h114v-424q300 -9 480 -164q182 -156 182 -411zM211 551q0 -213 145.5 -337t395.5 -130v930q-251 -6 -396 -129.5t-145 -333.5zM866 1014
v-930q249 5 396 129t147 338q0 210 -145 333.5t-398 129.5z" />
    <glyph glyph-name="uni0445" unicode="&#x445;" horiz-adv-x="972" 
d="M559 559l377 -559h-143l-308 461l-309 -461h-147l387 565l-357 531h146l284 -434l293 434h146z" />
    <glyph glyph-name="uni0446" unicode="&#x446;" horiz-adv-x="1343" 
d="M1100 1096v-852q0 -99 52 -131.5t181 -32.5v-449h-116v351q-102 0 -167 57t-65 162q-45 -99 -160 -164q-113 -64 -247 -64q-193 0 -308.5 115t-115.5 336v672h122v-668q0 -164 80.5 -252t229.5 -88q159 0 274 100q117 102 117 308v600h123z" />
    <glyph glyph-name="uni0447" unicode="&#x447;" horiz-adv-x="1120" 
d="M829 522v574h123v-1096h-123v408q-168 -58 -329 -58q-410 0 -410 412v334h123v-322q0 -161 71.5 -236t223.5 -75q167 0 321 59z" />
    <glyph glyph-name="uni0448" unicode="&#x448;" horiz-adv-x="1953" 
d="M1665 496v600h123v-1096h-117v199q-43 -100 -145 -163t-223 -63q-127 0 -221.5 63t-131.5 181q-46 -114 -154.5 -179t-240.5 -65q-175 0 -289 111q-112 112 -112 348v664h122v-652q0 -176 73.5 -266t215.5 -90t242 100q102 102 102 308v600h123v-668q0 -161 76 -250.5
t213 -89.5q140 0 242 102t102 306z" />
    <glyph glyph-name="uni0449" unicode="&#x449;" horiz-adv-x="2025" 
d="M1788 1096v-852q0 -100 51 -132t180 -32v-449h-116v351q-101 0 -165 54.5t-65 156.5q-41 -98 -144.5 -159t-230.5 -61t-219 62t-129 182q-46 -116 -154 -180t-241 -64q-175 0 -289 111q-112 112 -112 348v664h122v-652q0 -176 73.5 -266t215.5 -90t242 100
q102 102 102 308v600h123v-668q0 -161 76 -250.5t211 -89.5q140 0 242 102q104 101 104 306v600h123z" />
    <glyph glyph-name="uni044A" unicode="&#x44a;" horiz-adv-x="1290" 
d="M772 856q196 0 320 -127q125 -125 125 -319q0 -187 -121 -314q-120 -123 -330 -123q-105 0 -190.5 34.5t-135.5 88.5q-66 82 -93.5 183t-24.5 198v504h-293v115h415v-353q137 113 328 113zM766 86q151 0 239.5 91t88.5 239q0 147 -89.5 237t-240.5 90q-199 0 -320 -133
v-153q0 -53 8.5 -102t31.5 -99t58 -87t92.5 -60t131.5 -23z" />
    <glyph glyph-name="uni044B" unicode="&#x44b;" horiz-adv-x="1501" 
d="M289 690h346q90 0 162 -22t116.5 -56.5t74 -81t41 -92.5t11.5 -94q0 -142 -102 -244q-100 -100 -303 -100h-469v1096h123v-406zM1210 0v1096h123v-1096h-123zM289 109h329q145 0 222.5 65t77.5 176q0 102 -76 166t-209 64h-344v-471z" />
    <glyph glyph-name="uni044C" unicode="&#x44c;" horiz-adv-x="1118" 
d="M600 856q195 0 322 -127q125 -125 125 -319q0 -187 -121 -314q-120 -123 -332 -123q-106 0 -191.5 34.5t-132.5 88.5q-66 82 -93.5 183t-24.5 198v619h122v-351q141 111 326 111zM596 86q147 0 236.5 92.5t89.5 237.5q0 147 -89.5 237t-238.5 90q-198 0 -320 -131v-155
q0 -53 8.5 -101.5t31 -99t57.5 -87t93 -60t132 -23.5z" />
    <glyph glyph-name="uni044D" unicode="&#x44d;" horiz-adv-x="1226" 
d="M567 1122q247 0 404 -161q162 -162 162 -414q0 -246 -158 -412q-157 -160 -397 -160q-163 0 -297.5 75.5t-202.5 203.5l100 61q55 -100 164.5 -163.5t235.5 -63.5q173 0 292 113q123 117 138 293h-580v112h578q-18 179 -142 291q-122 113 -299 113q-127 0 -231.5 -62
t-159.5 -166l-102 58q63 130 196.5 206t298.5 76z" />
    <glyph glyph-name="uni044E" unicode="&#x44e;" horiz-adv-x="1699" 
d="M1038 1122q245 0 408 -166q162 -165 162 -407q0 -245 -162 -410q-163 -166 -408 -166q-232 0 -391 150q-158 152 -176 375h-182v-498h-123v1546h123v-940h182q21 221 178 369q159 147 389 147zM1485 549q0 193 -129 325q-127 136 -318 136q-189 0 -319 -136
q-127 -133 -127 -325q0 -194 127 -330q130 -133 319 -133q191 0 318 133q129 135 129 330z" />
    <glyph glyph-name="uni044F" unicode="&#x44f;" horiz-adv-x="1110" 
d="M535 1096h407v-1096h-123v444q-120 -18 -291 -18h-16l-291 -426h-143l307 440q-132 30 -201 115.5t-69 204.5q0 149 109 242.5t311 93.5zM547 532q153 0 272 17v438h-284q-143 0 -221 -58.5t-78 -166.5q0 -230 311 -230z" />
    <glyph glyph-name="uni0451" unicode="&#x451;" 
d="M348 1335q0 43 33 76t80 33q46 0 78 -32.5t32 -76.5q0 -47 -31.5 -79.5t-78.5 -32.5t-80 32.5t-33 79.5zM725 1335q0 43 33 76t80 33q46 0 79 -33t33 -76q0 -47 -32.5 -79.5t-79.5 -32.5t-80 32.5t-33 79.5zM1149 596q0 -22 -6 -96h-922q14 -187 131 -298.5t314 -111.5
q107 0 217.5 36t183.5 95l57 -94q-84 -66 -207 -109t-253 -43q-117 0 -213.5 32.5t-161.5 87.5t-110 129.5t-65 156.5t-20 170q0 247 150 410q148 161 395 161q222 0 365 -143q145 -142 145 -383zM639 1010q-171 0 -285 -109t-133 -289h801q-1 181 -107.5 289.5
t-275.5 108.5z" />
    <glyph glyph-name="Wgrave" unicode="&#x1e80;" horiz-adv-x="2068" 
d="M971 1956l121 -328h-105l-174 328h158zM600 0h-61l-506 1513h127l411 -1265l435 1265h55l440 -1263l408 1263h125l-502 -1513h-62l-436 1274z" />
    <glyph glyph-name="wgrave" unicode="&#x1e81;" horiz-adv-x="1667" 
d="M772 1597l121 -327h-105l-174 327h158zM504 2h-86l-385 1094h127l305 -901l328 901l81 -2l332 -899l299 901h129l-383 -1094h-86l-331 920z" />
    <glyph glyph-name="Wacute" unicode="&#x1e82;" horiz-adv-x="2068" 
d="M1102 1630h-105l121 328h158zM600 0h-61l-506 1513h127l411 -1265l435 1265h55l440 -1263l408 1263h125l-502 -1513h-62l-436 1274z" />
    <glyph glyph-name="wacute" unicode="&#x1e83;" horiz-adv-x="1667" 
d="M889 1272h-105l121 327h158zM504 2h-86l-385 1094h127l305 -901l328 901l81 -2l332 -899l299 901h129l-383 -1094h-86l-331 920z" />
    <glyph glyph-name="Wdieresis" unicode="&#x1e84;" horiz-adv-x="2068" 
d="M748 1765q0 41 32 73t74 32q44 0 75.5 -31t31.5 -74q0 -47 -31 -77.5t-76 -30.5q-44 0 -75 32t-31 76zM1214 1657q-45 0 -75.5 30.5t-30.5 77.5q0 43 31 74t75 31t76.5 -31t32.5 -74q0 -45 -31 -76.5t-78 -31.5zM600 0h-61l-506 1513h127l411 -1265l435 1265h55
l440 -1263l408 1263h125l-502 -1513h-62l-436 1274z" />
    <glyph glyph-name="wdieresis" unicode="&#x1e85;" horiz-adv-x="1667" 
d="M532 1393q0 43 33 75.5t80 32.5t79 -32.5t32 -75.5q0 -47 -32 -80t-79 -33t-80 33t-33 80zM909 1393q0 43 33 75.5t80 32.5t80 -32.5t33 -75.5q0 -47 -33 -80t-80 -33t-80 33t-33 80zM504 2h-86l-385 1094h127l305 -901l328 901l81 -2l332 -899l299 901h129l-383 -1094
h-86l-331 920z" />
    <glyph glyph-name="Ygrave" unicode="&#x1ef2;" horiz-adv-x="1232" 
d="M555 1956l121 -328h-105l-174 328h158zM1053 1513h137l-512 -913v-600h-125v600l-508 913h137l434 -796z" />
    <glyph glyph-name="ygrave" unicode="&#x1ef3;" horiz-adv-x="1087" 
d="M506 1599l121 -327h-105l-174 327h158zM561 160l359 936h135l-463 -1178q-82 -210 -166.5 -296.5t-208.5 -86.5q-90 0 -158 39l19 109q70 -33 135 -33q84 0 145 68t117 212l27 70l-467 1096h135z" />
    <glyph glyph-name="uni2009" unicode="&#x2009;" horiz-adv-x="159" 
 />
    <glyph glyph-name="endash" unicode="&#x2013;" horiz-adv-x="1429" 
d="M1286 510h-1141v115h1141v-115z" />
    <glyph glyph-name="emdash" unicode="&#x2014;" horiz-adv-x="2082" 
d="M1939 510h-1794v115h1794v-115z" />
    <glyph glyph-name="quoteleft" unicode="&#x2018;" horiz-adv-x="450" 
d="M231 1325q35 0 61.5 -26.5t26.5 -63.5q0 -43 -31 -71.5t-75 -28.5q-48 0 -78.5 33t-30.5 87q0 156 215 291l39 -57q-130 -87 -161 -172q13 8 34 8z" />
    <glyph glyph-name="quoteright" unicode="&#x2019;" horiz-adv-x="446" 
d="M254 1540q47 0 77.5 -35t30.5 -86q0 -156 -215 -291l-38 56q133 93 161 172q-16 -8 -34 -8q-36 0 -62.5 27t-26.5 65q0 41 31.5 70.5t75.5 29.5z" />
    <glyph glyph-name="quotesinglbase" unicode="&#x201a;" horiz-adv-x="458" 
d="M238 162q47 0 77.5 -35t30.5 -86q0 -156 -215 -291l-39 55q135 94 162 172q-16 -8 -35 -8q-36 0 -62 27t-26 65q0 41 31.5 71t75.5 30z" />
    <glyph glyph-name="quotedblleft" unicode="&#x201c;" horiz-adv-x="858" 
d="M340 1546l39 -57q-132 -88 -162 -172q13 8 35 8q35 0 61.5 -26.5t26.5 -63.5q0 -42 -31 -71t-76 -29q-48 0 -78 33t-30 87q0 156 215 291zM655 1325q35 0 61.5 -26.5t26.5 -63.5q0 -43 -31 -71.5t-75 -28.5q-48 0 -78.5 33t-30.5 87q0 156 215 291l39 -57
q-130 -87 -161 -172q13 8 34 8z" />
    <glyph glyph-name="quotedblright" unicode="&#x201d;" horiz-adv-x="845" 
d="M236 1544q47 0 77.5 -33.5t30.5 -87.5q0 -155 -215 -290l-39 57q132 88 162 172q-13 -8 -35 -8q-35 0 -61.5 26.5t-26.5 63.5q0 42 31 71t76 29zM637 1544q47 0 77.5 -33.5t30.5 -87.5q0 -155 -215 -290l-38 57q130 87 161 172q-13 -8 -35 -8q-35 0 -61.5 26.5
t-26.5 63.5q0 42 31 71t76 29z" />
    <glyph glyph-name="quotedblbase" unicode="&#x201e;" horiz-adv-x="851" 
d="M215 158q48 0 78.5 -33.5t30.5 -87.5q0 -156 -215 -291l-39 57q130 87 161 172q-13 -8 -34 -8q-35 0 -61.5 26.5t-26.5 63.5q0 43 31 72t75 29zM616 158q48 0 78.5 -33.5t30.5 -87.5q0 -156 -215 -291l-39 57q132 88 162 172q-13 -8 -35 -8q-35 0 -61.5 26.5t-26.5 63.5
q0 43 31 72t75 29z" />
    <glyph glyph-name="dagger" unicode="&#x2020;" horiz-adv-x="983" 
d="M549 1016h356v-109h-356v-1272h-115v1272h-358v109h358v723h115v-723z" />
    <glyph glyph-name="daggerdbl" unicode="&#x2021;" horiz-adv-x="983" 
d="M907 1085v-108h-358v-580h358v-108h-358v-654h-115v654h-358v108h358v580h-358v108h358v654h115v-654h358z" />
    <glyph glyph-name="bullet" unicode="&#x2022;" horiz-adv-x="755" 
d="M516 584q-57 -56 -139 -56t-139 56q-57 57 -57 139t57 139q57 60 139 60t139 -60q57 -57 57 -139t-57 -139z" />
    <glyph glyph-name="ellipsis" unicode="&#x2026;" horiz-adv-x="1288" 
d="M240 -33q-43 0 -72 29t-29 70t29 68.5t72 27.5q41 0 69.5 -27.5t28.5 -68.5q0 -42 -28 -70.5t-70 -28.5zM659 -33q-43 0 -71.5 28.5t-28.5 70.5q0 41 28.5 68.5t71.5 27.5q42 0 70.5 -27.5t28.5 -68.5q0 -42 -28.5 -70.5t-70.5 -28.5zM1079 -33q-43 0 -71.5 28.5
t-28.5 70.5q0 41 28.5 68.5t71.5 27.5q42 0 70.5 -27.5t28.5 -68.5q0 -42 -28.5 -70.5t-70.5 -28.5z" />
    <glyph glyph-name="perthousand" unicode="&#x2030;" horiz-adv-x="2654" 
d="M451 797q-153 0 -267 108q-110 107 -110 262q0 156 110 263q113 110 267 110q156 0 266 -110q110 -107 110 -263q0 -155 -110 -262q-111 -108 -266 -108zM377 0h-131l1151 1513h133zM258 975q80 -80 193 -80t190 80q80 80 80 192q0 113 -80 193q-77 80 -190 80t-193 -80
q-78 -81 -78 -193q0 -111 78 -192zM1602 84q-112 -109 -267 -109q-154 0 -266 109q-111 108 -111 262t111 262q111 111 266 111q156 0 267 -111q110 -107 110 -262t-110 -262zM2214 -25q-153 0 -268 109q-111 108 -111 262t111 262q114 111 268 111q153 0 264 -111
q113 -107 113 -262t-113 -262q-112 -109 -264 -109zM1065 346q0 -111 78 -192q80 -80 192 -80q113 0 191 78q80 80 80 194q0 115 -80 195q-77 80 -191 80q-112 0 -192 -80q-78 -81 -78 -195zM2214 621q-113 0 -193 -80q-77 -80 -77 -195q0 -112 77 -192q80 -80 193 -80
t190 80q80 80 80 192q0 113 -80 193q-79 82 -190 82z" />
    <glyph glyph-name="guilsinglleft" unicode="&#x2039;" horiz-adv-x="641" 
d="M516 180h-123l-297 416l297 416h123l-295 -416z" />
    <glyph glyph-name="guilsinglright" unicode="&#x203a;" horiz-adv-x="641" 
d="M545 596l-297 -416h-123l295 416l-295 416h123z" />
    <glyph glyph-name="fraction" unicode="&#x2044;" horiz-adv-x="350" 
d="M-352 0h-121l1184 1513h116z" />
    <glyph glyph-name="uni2070" unicode="&#x2070;" horiz-adv-x="753" 
d="M559 1092q-75 -66 -182 -66q-104 0 -179 62.5t-106 158.5q-27 99 -29 200t30.5 199t101.5 156q75 66 182 66q104 0 179 -62.5t106 -158.5q30 -95 32 -198t-32 -201t-103 -156zM221 1214q52 -88 156 -88q101 0 153 88q54 91 54 234q0 140 -54 231q-52 88 -153 88
q-104 0 -156 -88q-51 -86 -51 -231q0 -148 51 -234z" />
    <glyph glyph-name="uni2074" unicode="&#x2074;" horiz-adv-x="710" 
d="M535 1331h92v-86h-92v-207h-95v207h-385l-22 62l436 542h66v-518zM440 1677l-278 -346h278v346z" />
    <glyph glyph-name="uni2075" unicode="&#x2075;" horiz-adv-x="671" 
d="M336 1554q118 0 193 -71.5t75 -186.5q0 -119 -82 -194.5t-211 -75.5q-138 0 -260 96l49 80q110 -84 207 -84q86 0 139.5 50t53.5 128q0 75 -49 123.5t-127 48.5q-98 0 -166 -77l-64 43l45 411h412v-90h-336l-27 -239q63 38 148 38z" />
    <glyph glyph-name="uni2076" unicode="&#x2076;" horiz-adv-x="706" 
d="M362 1026q-146 0 -226.5 108t-80.5 285q0 187 88 318t260 131q126 0 215 -68l-43 -74q-77 56 -165 56q-133 0 -197 -113q-64 -110 -61 -252q23 66 86 106t143 40q116 0 192 -75t76 -190q0 -117 -81.5 -194.5t-205.5 -77.5zM367 1112q78 0 131 53.5t53 132.5
q0 78 -53 129.5t-131 51.5q-79 0 -134 -53t-55 -130q0 -76 55 -130t134 -54z" />
    <glyph glyph-name="uni2077" unicode="&#x2077;" horiz-adv-x="602" 
d="M49 1755v90h516v-65l-323 -742h-107l318 717h-404z" />
    <glyph glyph-name="uni2078" unicode="&#x2078;" horiz-adv-x="737" 
d="M70 1257q0 73 46.5 129.5t127.5 81.5v2q-140 59 -140 185q0 93 74.5 153t190.5 60q117 0 191.5 -60t74.5 -153q0 -61 -37.5 -110t-105.5 -75v-2q82 -25 130 -82t48 -129q0 -99 -84.5 -165t-216.5 -66t-215.5 66t-83.5 165zM369 1511q56 -3 96.5 23t56 63t7.5 78.5
t-42 67.5q-45 39 -118 39t-119.5 -38.5t-46.5 -96.5t44.5 -97t121.5 -39zM565 1268q0 66 -51.5 110.5t-144.5 44.5q-94 0 -145.5 -43t-51.5 -112q0 -67 55.5 -110.5t141.5 -43.5t141 43t55 111z" />
    <glyph glyph-name="uni2079" unicode="&#x2079;" horiz-adv-x="722" 
d="M315 1026q-124 0 -213 68l41 73q76 -55 170 -55q129 0 187 107q62 109 59 260h-2q-23 -66 -85 -107t-140 -41q-116 0 -190 73.5t-74 188.5q0 119 79.5 197t202.5 78q144 0 222.5 -108t78.5 -290q0 -186 -84 -317q-83 -127 -252 -127zM346 1413q57 -4 103 29.5t66.5 82
t12 105.5t-50.5 96q-53 56 -131 56t-129 -52.5t-51 -134.5q0 -78 51 -130t129 -52z" />
    <glyph glyph-name="uni2080" unicode="&#x2080;" horiz-adv-x="753" 
d="M559 -264q-75 -66 -182 -66q-104 0 -179 63t-106 161q-27 97 -29 197.5t30.5 199t101.5 155.5q75 66 182 66q104 0 179 -62t106 -159q30 -95 32 -198t-32 -201t-103 -156zM221 -139q53 -90 156 -90q100 0 153 90q54 91 54 231q0 141 -54 232q-52 88 -153 88
q-104 0 -156 -88q-51 -86 -51 -232q0 -145 51 -231z" />
    <glyph glyph-name="uni2081" unicode="&#x2081;" horiz-adv-x="528" 
d="M49 276l266 213h78v-806h-104v663l-183 -147z" />
    <glyph glyph-name="uni2082" unicode="&#x2082;" horiz-adv-x="686" 
d="M436 0l-203 -223h361v-94h-502l-2 84l246 264q79 88 112 141t33 104q0 62 -42.5 102t-108.5 40q-99 0 -197 -94l-57 73q121 115 258 115q109 0 179.5 -66t70.5 -170q0 -108 -148 -276z" />
    <glyph glyph-name="uni2083" unicode="&#x2083;" horiz-adv-x="641" 
d="M297 -330q-131 0 -256 82l47 82q107 -70 207 -70q84 0 132 39.5t48 106.5t-47 105t-137 38h-96v92h88q80 0 128 39.5t48 100.5t-45 97t-115 36q-100 0 -188 -76l-52 72q98 98 248 98q112 0 184 -61t72 -152q0 -68 -39 -119t-106 -71v-5q75 -17 118.5 -70.5t43.5 -127.5
q0 -103 -79.5 -169.5t-203.5 -66.5z" />
    <glyph glyph-name="uni2084" unicode="&#x2084;" horiz-adv-x="710" 
d="M535 -25h92v-86h-92v-206h-95v206h-385l-22 62l436 543h66v-519zM440 322l-278 -347h278v347z" />
    <glyph glyph-name="uni2085" unicode="&#x2085;" horiz-adv-x="671" 
d="M336 199q118 0 193 -71.5t75 -186.5q0 -119 -82 -195t-211 -76q-137 0 -260 97l49 79q110 -84 207 -84q86 0 139.5 50.5t53.5 128.5q0 75 -49 123.5t-127 48.5q-97 0 -166 -78l-64 43l45 411h412v-90h-336l-27 -239q65 39 148 39z" />
    <glyph glyph-name="uni2086" unicode="&#x2086;" horiz-adv-x="706" 
d="M362 -330q-146 0 -226.5 108t-80.5 285q0 187 88 318t260 131q126 0 215 -68l-43 -73q-76 55 -165 55q-133 0 -197 -113q-64 -110 -61 -252q23 66 86 106t143 40q116 0 192 -74.5t76 -189.5q0 -117 -81.5 -195t-205.5 -78zM367 -244q78 0 131 54t53 133q0 78 -53 129
t-131 51q-79 0 -134 -52.5t-55 -129.5q0 -76 55 -130.5t134 -54.5z" />
    <glyph glyph-name="uni2087" unicode="&#x2087;" horiz-adv-x="602" 
d="M49 399v90h516v-65l-323 -741h-107l318 716h-404z" />
    <glyph glyph-name="uni2088" unicode="&#x2088;" horiz-adv-x="737" 
d="M70 -98q0 73 46.5 129.5t127.5 81.5v2q-140 59 -140 184q0 93 74.5 153t190.5 60q117 0 191.5 -60t74.5 -153q0 -61 -37.5 -109.5t-105.5 -74.5v-2q82 -25 130 -82t48 -129q0 -99 -84.5 -165.5t-216.5 -66.5t-215.5 66t-83.5 166zM369 156q56 -3 96.5 22.5t56 62.5
t7.5 78.5t-42 67.5q-45 39 -118 39t-119.5 -38.5t-46.5 -96.5t44.5 -96.5t121.5 -38.5zM565 -88q0 66 -51.5 111t-144.5 45q-94 0 -145.5 -43.5t-51.5 -112.5q0 -67 55.5 -110.5t141.5 -43.5t141 43t55 111z" />
    <glyph glyph-name="uni2089" unicode="&#x2089;" horiz-adv-x="722" 
d="M315 -330q-124 0 -213 68l41 74q77 -56 170 -56q128 0 187 109q62 109 59 258h-2q-23 -66 -85 -107t-140 -41q-116 0 -190 74t-74 189q0 119 79.5 196.5t202.5 77.5q145 0 223 -108t78 -289q0 -188 -84 -316q-83 -129 -252 -129zM346 57q57 -4 103 29.5t66.5 82.5t12 106
t-50.5 96q-52 55 -131 55q-78 0 -129 -52.5t-51 -133.5q0 -78 51 -130.5t129 -52.5z" />
    <glyph glyph-name="Euro" unicode="&#x20ac;" horiz-adv-x="1507" 
d="M975 1425q-213 0 -375 -131q-160 -126 -219 -340h858l-45 -110h-836q-4 -78 -4 -88q0 -54 6 -103h770l-40 -110h-705q62 -200 221 -326q158 -125 367 -125q195 0 375 101l22 -115q-180 -101 -399 -101q-254 0 -453 156q-197 156 -262 410h-184l39 110h125q-7 58 -7 103
q0 10 4 88h-149l43 110h125q58 260 258 424q198 162 461 162q264 0 459 -139l-58 -101q-177 125 -397 125z" />
    <glyph glyph-name="trademark" unicode="&#x2122;" horiz-adv-x="1628" 
d="M295 1430h-223v83h542v-83h-221v-633h-98v633zM1071 1055l334 458h47v-716h-90v520l-270 -377h-39l-269 377v-520h-90v716h49z" />
    <glyph glyph-name="estimated" unicode="&#x212e;" horiz-adv-x="1976" 
d="M1004 -35q-378 0 -639 225t-261 560q0 336 261 561q260 227 639 227q375 0 634 -223q265 -226 265 -576v-43q0 -10 -15 -10h-1405v-471q0 -5 9 -8q213 -148 512 -148q212 0 387.5 76t279.5 215l72 -59q-124 -153 -318.5 -239.5t-420.5 -86.5zM483 1286v-498h1041v500
q0 5 -6 8q-218 150 -514 150q-300 0 -517 -150q-4 -4 -4 -10z" />
    <glyph glyph-name="uni2150" unicode="&#x2150;" horiz-adv-x="1724" 
d="M434 709h-104v665l-183 -147l-57 78l266 213h78v-809zM229 0l1184 1513h117l-1182 -1513h-119zM1124 717v90h516v-66l-323 -741h-107l318 717h-404z" />
    <glyph glyph-name="uni2151" unicode="&#x2151;" horiz-adv-x="1728" 
d="M424 709h-105v665l-182 -147l-57 78l266 213h78v-809zM213 0l1184 1513h116l-1181 -1513h-119zM1331 829q145 0 223 -108t78 -289q0 -186 -84 -317q-83 -127 -252 -127q-125 0 -213 67l41 74q76 -55 170 -55q130 0 187 106q62 109 59 260h-2q-23 -66 -85 -106.5
t-140 -40.5q-116 0 -190 73.5t-74 188.5q0 119 79.5 196.5t202.5 77.5zM1327 375q57 -4 103 29.5t66.5 82t12 105.5t-50.5 96q-52 55 -131 55q-78 0 -129 -52.5t-51 -133.5q0 -78 51 -130t129 -52z" />
    <glyph glyph-name="uni2153" unicode="&#x2153;" horiz-adv-x="1693" 
d="M424 709h-105v665l-182 -147l-57 78l266 213h78v-809zM176 0l1184 1513h117l-1182 -1513h-119zM1434 428v-4q75 -17 118 -71t43 -128q0 -103 -79 -169t-203 -66q-131 0 -256 82l47 82q107 -70 207 -70q84 0 132 39t48 106q0 68 -47 106t-137 38h-97v92h88q80 0 128.5 39
t48.5 100t-45 97t-115 36q-102 0 -189 -75l-51 71q98 98 248 98q112 0 184 -61t72 -152q0 -68 -39 -119t-106 -71z" />
    <glyph glyph-name="uni2154" unicode="&#x2154;" horiz-adv-x="1691" 
d="M240 805h360v-94h-502l-2 84l246 264q79 88 112 141.5t33 104.5q0 62 -42.5 101.5t-108.5 39.5q-99 0 -197 -94l-57 73q121 115 258 115q109 0 179.5 -65.5t70.5 -169.5q0 -109 -148 -277zM244 0l1183 1513h117l-1182 -1513h-118zM1401 424v-4q75 -17 118.5 -71
t43.5 -128q0 -103 -79.5 -169t-203.5 -66q-131 0 -256 82l47 82q107 -70 207 -70q84 0 132 39t48 106q0 68 -47 106t-137 38h-96v92h88q80 0 128 39t48 100t-45 97t-115 36q-100 0 -188 -76l-52 72q98 98 248 98q112 0 184 -61t72 -152q0 -68 -39 -119t-106 -71z" />
    <glyph glyph-name="uni2155" unicode="&#x2155;" horiz-adv-x="1712" 
d="M422 709h-105v665l-182 -147l-57 78l266 213h78v-809zM180 0l1184 1513h117l-1182 -1513h-119zM1368 516q118 0 193 -71.5t75 -186.5q0 -119 -82 -194.5t-211 -75.5q-138 0 -260 96l50 80q110 -84 206 -84q86 0 139.5 50t53.5 128q0 75 -49 123.5t-127 48.5
q-97 0 -166 -78l-64 43l45 412h412v-90h-336l-26 -240q65 39 147 39z" />
    <glyph glyph-name="uni2156" unicode="&#x2156;" horiz-adv-x="1697" 
d="M240 805h360v-94h-502l-2 84l246 264q79 88 112 141.5t33 104.5q0 62 -42.5 101.5t-108.5 39.5q-99 0 -197 -94l-57 73q121 115 258 115q109 0 179.5 -65.5t70.5 -169.5q0 -109 -148 -277zM246 0l1184 1513h116l-1179 -1513h-121zM1321 516q118 0 193 -71.5t75 -186.5
q0 -119 -82 -194.5t-211 -75.5q-138 0 -260 96l49 80q110 -84 207 -84q86 0 139.5 50t53.5 128q0 75 -49 123.5t-127 48.5q-97 0 -166 -78l-64 43l45 412h412v-90h-336l-26 -240q65 39 147 39z" />
    <glyph glyph-name="uni2157" unicode="&#x2157;" horiz-adv-x="1675" 
d="M303 793q84 0 132 39t48 106t-47 105t-137 38h-96v93h88q80 0 128 39t48 100t-45 97t-115 36q-100 0 -188 -76l-51 72q98 98 247 98q112 0 184 -61t72 -152q0 -68 -39 -119t-106 -71v-4q75 -17 118.5 -71t43.5 -128q0 -103 -79.5 -169.5t-203.5 -66.5q-131 0 -256 82
l47 82q106 -69 207 -69zM217 0l1184 1513h117l-1182 -1513h-119zM1296 516q118 0 193.5 -71.5t75.5 -186.5q0 -119 -82 -194.5t-211 -75.5q-138 0 -260 96l49 80q110 -84 207 -84q86 0 139 50t53 128q0 75 -49 123.5t-127 48.5q-97 0 -166 -78l-63 43l45 412h411v-90h-335
l-27 -240q65 39 147 39z" />
    <glyph glyph-name="uni2158" unicode="&#x2158;" horiz-adv-x="1755" 
d="M547 711h-94v207h-385l-23 61l436 543h66v-518h92v-86h-92v-207zM283 0l1183 1513h117l-1180 -1513h-120zM453 1350l-279 -346h279v346zM1360 516q118 0 193 -71.5t75 -186.5q0 -119 -82 -194.5t-211 -75.5q-138 0 -260 96l49 80q110 -84 207 -84q86 0 139.5 50t53.5 128
q0 75 -49 123.5t-127 48.5q-97 0 -166 -78l-64 43l45 412h412v-90h-336l-27 -240q65 39 148 39z" />
    <glyph glyph-name="uni2159" unicode="&#x2159;" horiz-adv-x="1718" 
d="M422 709h-105v665l-182 -147l-57 78l266 213h78v-809zM186 0l1184 1513h117l-1180 -1513h-121zM1358 516q118 0 193 -71.5t75 -186.5q0 -119 -82 -194.5t-211 -75.5q-138 0 -260 96l49 80q110 -84 207 -84q86 0 139.5 50t53.5 128q0 75 -49 123.5t-127 48.5
q-97 0 -166 -78l-64 43l45 412h412v-90h-336l-27 -240q65 39 148 39z" />
    <glyph glyph-name="uni215A" unicode="&#x215a;" horiz-adv-x="1736" 
d="M311 791q86 0 139.5 50t53.5 128q0 75 -49 123.5t-127 48.5q-97 0 -166 -78l-64 43l45 412h412v-91h-336l-26 -239q65 39 147 39q118 0 193 -71.5t75 -186.5q0 -119 -82 -195t-211 -76q-137 0 -260 97l49 79q109 -83 207 -83zM221 0l1184 1513h119l-1182 -1513h-121z
M1346 524q116 0 192 -74.5t76 -189.5q0 -117 -81.5 -194.5t-205.5 -77.5q-146 0 -226.5 108t-80.5 285q0 186 88 317t260 131q127 0 215 -67l-43 -74q-76 55 -166 55q-133 0 -196 -112q-65 -112 -62 -252q23 66 86.5 105.5t143.5 39.5zM1331 74q78 0 131.5 53.5t53.5 132.5
q0 78 -53 129t-132 51t-133.5 -52.5t-54.5 -129.5q0 -76 54.5 -130t133.5 -54z" />
    <glyph glyph-name="oneeighth" unicode="&#x215b;" horiz-adv-x="1761" 
d="M424 709h-105v665l-182 -147l-57 78l266 213h78v-809zM236 0l1183 1513h117l-1182 -1513h-118zM1481 432v-2q82 -25 130 -82t48 -129q0 -99 -84.5 -165t-216.5 -66t-215.5 66t-83.5 165q0 73 46.5 129.5t127.5 81.5v2q-139 59 -139 184q0 93 74 153t190 60
q117 0 191.5 -60t74.5 -153q0 -61 -37.5 -109.5t-105.5 -74.5zM1192 608q0 -58 44.5 -96.5t121.5 -38.5q56 -3 97 23t56 63t7.5 78.5t-41.5 67.5q-44 38 -119 38q-73 0 -119.5 -38.5t-46.5 -96.5zM1554 229q0 66 -51.5 111t-144.5 45q-94 0 -145.5 -43.5t-51.5 -112.5
q0 -67 55.5 -110t141.5 -43t141 43t55 110z" />
    <glyph glyph-name="threeeighths" unicode="&#x215c;" horiz-adv-x="1759" 
d="M301 698q-131 0 -256 82l47 82q106 -69 207 -69q84 0 132 39t48 106t-47 105t-137 38h-96v93h88q80 0 128 39t48 100t-45 97t-115 36q-100 0 -188 -76l-52 72q98 98 248 98q112 0 184 -61t72 -152q0 -68 -39 -119t-106 -71v-4q75 -17 118.5 -71t43.5 -128
q0 -103 -79.5 -169.5t-203.5 -66.5zM360 0h-120l1183 1513h117zM1059 219q0 73 46.5 129.5t127.5 81.5v2q-139 59 -139 184q0 93 74 153t190 60q117 0 191.5 -60t74.5 -153q0 -61 -37.5 -109.5t-105.5 -74.5v-2q82 -25 130 -82t48 -129q0 -99 -84.5 -165t-216.5 -66
t-215.5 66t-83.5 165zM1358 473q56 -3 97 23t56 63t7.5 78.5t-41.5 67.5q-44 38 -119 38q-73 0 -119.5 -38.5t-46.5 -96.5t44.5 -96.5t121.5 -38.5zM1554 229q0 66 -51.5 111t-144.5 45q-94 0 -145.5 -43.5t-51.5 -112.5q0 -67 55.5 -110t141.5 -43t141 43t55 110z" />
    <glyph glyph-name="fiveeighths" unicode="&#x215d;" horiz-adv-x="1755" 
d="M309 791q86 0 139.5 50t53.5 128q0 75 -49 123.5t-127 48.5q-97 0 -166 -78l-64 43l45 412h412v-91h-336l-27 -239q65 39 148 39q118 0 193 -71.5t75 -186.5q0 -119 -82 -195t-211 -76q-137 0 -260 97l49 79q109 -83 207 -83zM236 0l1183 1513h117l-1182 -1513h-118z
M1477 432v-2q82 -25 130 -82t48 -129q0 -99 -84.5 -165t-216.5 -66t-215.5 66t-83.5 165q0 73 46.5 129.5t127.5 81.5v2q-139 59 -139 184q0 93 74 153t190 60q117 0 191.5 -60t74.5 -153q0 -61 -37.5 -109.5t-105.5 -74.5zM1188 608q0 -58 44.5 -96.5t121.5 -38.5
q56 -3 97 23t56 63t7.5 78.5t-41.5 67.5q-44 38 -119 38q-73 0 -119.5 -38.5t-46.5 -96.5zM1550 229q0 66 -51.5 111t-144.5 45q-94 0 -145.5 -43.5t-51.5 -112.5q0 -67 55.5 -110t141.5 -43t141 43t55 110z" />
    <glyph glyph-name="seveneighths" unicode="&#x215e;" horiz-adv-x="1642" 
d="M256 711h-106l317 716h-404v91h517v-66zM111 0l1183 1513h117l-1180 -1513h-120zM1362 432v-2q82 -25 130 -82t48 -129q0 -99 -84.5 -165t-216.5 -66t-215.5 66t-83.5 165q0 73 46.5 129.5t127.5 81.5v2q-139 59 -139 184q0 93 74 153t190 60q117 0 191.5 -60t74.5 -153
q0 -61 -37.5 -109.5t-105.5 -74.5zM1073 608q0 -58 44.5 -96.5t121.5 -38.5q56 -3 97 23t56 63t7.5 78.5t-41.5 67.5q-44 38 -119 38q-73 0 -119.5 -38.5t-46.5 -96.5zM1436 229q0 66 -52 111t-145 45q-94 0 -145.5 -43.5t-51.5 -112.5q0 -67 55.5 -110t141.5 -43t141.5 43
t55.5 110z" />
    <glyph glyph-name="partialdiff" unicode="&#x2202;" horiz-adv-x="1277" 
d="M610 -27q-221 0 -368 150q-148 151 -148 375q0 219 146 368q144 150 358 150q156 0 283 -86t174 -228q-11 254 -161 476.5t-417 373.5l78 84q156 -86 303 -241q90 -93 154 -197q70 -107 113.5 -251.5t43.5 -291.5q0 -296 -157 -491q-156 -191 -402 -191zM604 84
q172 0 287 121q115 124 115 295q0 168 -117 288q-113 119 -285 119q-167 0 -280 -119q-111 -117 -111 -288q0 -175 111 -295q112 -121 280 -121z" />
    <glyph glyph-name="product" unicode="&#x220f;" horiz-adv-x="1447" 
d="M74 1473h1300v-121h-219v-1594h-127v1594h-608v-1594h-125v1594h-221v121z" />
    <glyph glyph-name="summation" unicode="&#x2211;" horiz-adv-x="1261" 
d="M1190 -367h-1100v113l463 825l-463 830v112h1100v-122h-952l452 -820l-452 -815h952v-123z" />
    <glyph glyph-name="minus" unicode="&#x2212;" horiz-adv-x="1200" 
d="M1049 637h-897v115h897v-115z" />
    <glyph glyph-name="radical" unicode="&#x221a;" horiz-adv-x="1366" 
d="M696 -242h-100l-377 885h-223v117h311l338 -807l617 1702h135z" />
    <glyph glyph-name="infinity" unicode="&#x221e;" horiz-adv-x="1855" 
d="M1386 1128q148 0 256 -108q107 -107 107 -260q0 -158 -111 -266q-112 -109 -258 -109q-116 0 -221 71t-239 220l-113 -117q-46 -42 -100 -86q-112 -90 -240 -90q-147 0 -256 109q-105 108 -105 262q0 157 109 266q111 108 266 108q105 0 197 -63q95 -65 244 -236
q158 169 258 232q101 67 206 67zM465 487q87 0 170 59t217 206q-148 165 -227 217q-76 55 -144 55q-111 0 -188 -80q-76 -76 -76 -192q0 -111 72 -189q73 -76 176 -76zM1378 489q105 0 183 78q77 80 77 195q0 113 -73 186q-70 76 -181 76q-83 0 -159 -55q-78 -54 -234 -217
q124 -138 212 -200.5t175 -62.5z" />
    <glyph glyph-name="integral" unicode="&#x222b;" horiz-adv-x="854" 
d="M166 -430q-124 0 -213 65l45 95q70 -49 160 -49q96 0 151.5 72t55.5 206v1350q0 181 87 280t230 99q119 0 219 -68l-49 -94q-74 51 -164 51q-95 0 -149 -68t-54 -200v-1350q0 -181 -89.5 -285t-229.5 -104z" />
    <glyph glyph-name="approxequal" unicode="&#x2248;" horiz-adv-x="1306" 
d="M877 813q-87 0 -215 70q-126 69 -191 69q-72 0 -123 -30t-108 -101l-82 60q117 182 317 182q90 0 221 -70q129 -69 187 -69q66 0 109.5 26.5t94.5 93.5l82 -63q-110 -168 -292 -168zM881 449q-89 0 -215 69q-128 70 -191 70q-72 0 -123 -30t-108 -101l-82 59
q117 182 317 182q92 0 221 -69q131 -70 187 -70q66 0 110 26.5t95 94.5l82 -64q-109 -167 -293 -167z" />
    <glyph glyph-name="notequal" unicode="&#x2260;" horiz-adv-x="1200" 
d="M1049 903v-112h-344l-115 -240h459v-113h-512l-117 -248h-111l119 248h-276v113h329l113 240h-442v112h495l119 248h108l-116 -248h291z" />
    <glyph glyph-name="lessequal" unicode="&#x2264;" horiz-adv-x="1214" 
d="M1047 522v-129l-908 432v66l908 432v-131l-728 -334zM1047 258v-113h-918v113h918z" />
    <glyph glyph-name="greaterequal" unicode="&#x2265;" horiz-adv-x="1214" 
d="M1075 825l-907 -432v129l727 336l-727 334v131l907 -432v-66zM1085 145h-917v113h917v-113z" />
    <glyph glyph-name="lozenge" unicode="&#x25ca;" horiz-adv-x="1433" 
d="M760 -86h-86l-608 856l608 852h86l608 -852zM207 772l510 -725l510 725l-510 719z" />
    <glyph glyph-name="NULL" horiz-adv-x="0" 
 />
    <glyph glyph-name="Euro.osf" horiz-adv-x="1124" 
d="M858 420h-565q45 -157 167 -248.5t294 -91.5q174 0 327 100v-110q-143 -93 -329 -93q-218 0 -375 121q-153 120 -203 322h-151l36 96h99q-4 66 -4 74q0 51 2 65h-123l37 99h102q52 202 209 329q158 125 371 125q226 0 378 -125l-55 -88q-132 111 -319 111
q-166 0 -291 -98q-124 -93 -172 -254h694l-41 -99h-672q-7 -63 0 -139h623z" />
    <glyph glyph-name="I_J.loclNLD" horiz-adv-x="1632" 
d="M207 0v1513h125v-1513h-125zM975 -25q-258 0 -426 201l84 88q62 -80 152.5 -125t189.5 -45q151 0 245.5 100.5t94.5 270.5v1048h127v-1040q0 -243 -131 -371q-133 -127 -336 -127z" />
    <glyph glyph-name="Iacute_J.loclNLD" horiz-adv-x="1624" 
d="M330 1630h-105l121 328h158zM1432 1630h-105l121 328h158zM213 0v1513h125v-1513h-125zM981 -25q-258 0 -426 201l84 88q62 -80 152.5 -125t189.5 -45q151 0 245.5 100.5t94.5 270.5v1048h127v-1040q0 -243 -131 -371q-133 -127 -336 -127z" />
    <glyph glyph-name="J.loclNLD" horiz-adv-x="1112" 
d="M920 1630h-105l121 328h158zM469 -25q-258 0 -426 201l84 88q62 -80 152.5 -125t189.5 -45q151 0 245.5 100.5t94.5 270.5v1048h127v-1040q0 -243 -131 -371q-133 -127 -336 -127z" />
    <glyph glyph-name="Jacute" horiz-adv-x="1112" 
d="M924 1630h-105l121 328h158zM469 -25q-258 0 -426 201l84 88q62 -80 152.5 -125t189.5 -45q151 0 245.5 100.5t94.5 270.5v1048h127v-1040q0 -243 -131 -371q-133 -127 -336 -127z" />
    <glyph glyph-name="_1" horiz-adv-x="0" 
 />
    <glyph glyph-name="a.ss02" horiz-adv-x="1130" 
d="M526 1122q201 0 326 -116q127 -115 127 -342v-664h-119v184q-58 -102 -162.5 -159.5t-238.5 -57.5q-177 0 -285 99q-104 101 -104 251q0 152 115.5 242t326.5 90q268 0 348 25q-4 164 -92 250t-244 86q-193 0 -338 -109l-63 92q65 56 176 92.5t227 36.5zM465 82
q177 0 285 123t108 315v39q-79 -20 -295 -20q-185 0 -275.5 -51.5t-90.5 -172.5q0 -108 73 -170.5t195 -62.5z" />
    <glyph glyph-name="aacute.ss02" horiz-adv-x="1130" 
d="M590 1599h158l-175 -327h-104zM526 1122q201 0 326 -116q127 -115 127 -342v-664h-119v184q-58 -102 -162.5 -159.5t-238.5 -57.5q-177 0 -285 99q-104 101 -104 251q0 152 115.5 242t326.5 90q268 0 348 25q-4 164 -92 250t-244 86q-193 0 -338 -109l-63 92
q65 56 176 92.5t227 36.5zM465 82q177 0 285 123t108 315v39q-79 -20 -295 -20q-185 0 -275.5 -51.5t-90.5 -172.5q0 -108 73 -170.5t195 -62.5z" />
    <glyph glyph-name="abreve.ss02" horiz-adv-x="1130" 
d="M213 1589h111q1 -114 59.5 -171.5t161.5 -57.5q105 0 163.5 57t59.5 172h113q-2 -149 -93 -238t-243 -89t-241 88.5t-91 238.5zM526 1122q201 0 326 -116q127 -115 127 -342v-664h-119v184q-58 -102 -162.5 -159.5t-238.5 -57.5q-177 0 -285 99q-104 101 -104 251
q0 152 115.5 242t326.5 90q268 0 348 25q-4 164 -92 250t-244 86q-193 0 -338 -109l-63 92q65 56 176 92.5t227 36.5zM465 82q177 0 285 123t108 315v39q-79 -20 -295 -20q-185 0 -275.5 -51.5t-90.5 -172.5q0 -108 73 -170.5t195 -62.5z" />
    <glyph glyph-name="acircumflex.ss02" horiz-adv-x="1130" 
d="M733 1270l-188 213l-189 -213h-131l283 317h76l282 -317h-133zM526 1122q201 0 326 -116q127 -115 127 -342v-664h-119v184q-58 -102 -162.5 -159.5t-238.5 -57.5q-177 0 -285 99q-104 101 -104 251q0 152 115.5 242t326.5 90q268 0 348 25q-4 164 -92 250t-244 86
q-193 0 -338 -109l-63 92q65 56 176 92.5t227 36.5zM465 82q177 0 285 123t108 315v39q-79 -20 -295 -20q-185 0 -275.5 -51.5t-90.5 -172.5q0 -108 73 -170.5t195 -62.5z" />
    <glyph glyph-name="acute.case" horiz-adv-x="634" 
d="M215 1630h-104l120 328h158z" />
    <glyph glyph-name="adieresis.ss02" horiz-adv-x="1130" 
d="M250 1393q0 43 32.5 75.5t79.5 32.5q46 0 78.5 -32.5t32.5 -75.5q0 -47 -32 -80t-79 -33t-79.5 33t-32.5 80zM627 1393q0 43 32.5 75.5t79.5 32.5t80 -32.5t33 -75.5q0 -47 -33 -80t-80 -33t-79.5 33t-32.5 80zM526 1122q201 0 326 -116q127 -115 127 -342v-664h-119v184
q-58 -102 -162.5 -159.5t-238.5 -57.5q-177 0 -285 99q-104 101 -104 251q0 152 115.5 242t326.5 90q268 0 348 25q-4 164 -92 250t-244 86q-193 0 -338 -109l-63 92q65 56 176 92.5t227 36.5zM465 82q177 0 285 123t108 315v39q-79 -20 -295 -20q-185 0 -275.5 -51.5
t-90.5 -172.5q0 -108 73 -170.5t195 -62.5z" />
    <glyph glyph-name="agrave.ss02" horiz-adv-x="1130" 
d="M498 1599l120 -327h-104l-174 327h158zM526 1122q201 0 326 -116q127 -115 127 -342v-664h-119v184q-58 -102 -162.5 -159.5t-238.5 -57.5q-177 0 -285 99q-104 101 -104 251q0 152 115.5 242t326.5 90q268 0 348 25q-4 164 -92 250t-244 86q-193 0 -338 -109l-63 92
q65 56 176 92.5t227 36.5zM465 82q177 0 285 123t108 315v39q-79 -20 -295 -20q-185 0 -275.5 -51.5t-90.5 -172.5q0 -108 73 -170.5t195 -62.5z" />
    <glyph glyph-name="amacron.ss02" horiz-adv-x="1130" 
d="M231 1458h619v-110l-619 -2v112zM526 1122q201 0 326 -116q127 -115 127 -342v-664h-119v184q-58 -102 -162.5 -159.5t-238.5 -57.5q-177 0 -285 99q-104 101 -104 251q0 152 115.5 242t326.5 90q268 0 348 25q-4 164 -92 250t-244 86q-193 0 -338 -109l-63 92
q65 56 176 92.5t227 36.5zM465 82q177 0 285 123t108 315v39q-79 -20 -295 -20q-185 0 -275.5 -51.5t-90.5 -172.5q0 -108 73 -170.5t195 -62.5z" />
    <glyph glyph-name="aogonek.ss02" horiz-adv-x="1132" 
d="M961 -385l49 -84q-85 -61 -183 -61t-159.5 60t-61.5 157q0 190 254 321v176q-58 -102 -162.5 -159.5t-238.5 -57.5q-177 0 -285 99q-104 101 -104 251q0 152 115.5 242t326.5 90q268 0 348 25q-4 164 -92 250t-244 86q-193 0 -338 -109l-63 92q65 56 176 92.5t227 36.5
q201 0 326 -116q127 -115 127 -342v-664h2q-123 -55 -194.5 -135.5t-71.5 -159.5q0 -56 36.5 -93.5t90.5 -37.5q60 0 119 41zM465 82q177 0 285 123t108 315v39q-79 -20 -295 -20q-185 0 -275.5 -51.5t-90.5 -172.5q0 -108 73 -170.5t195 -62.5z" />
    <glyph glyph-name="aring.ss02" horiz-adv-x="1130" 
d="M549 1237q-94 0 -160.5 64.5t-66.5 156.5q0 94 66.5 159.5t160.5 65.5q97 0 162 -65q67 -64 67 -160q0 -93 -66.5 -157t-162.5 -64zM649 1561q-41 41 -100 41t-100 -41t-41 -100.5t41 -100.5t100 -41t100 41q43 41 43 100.5t-43 100.5zM526 1122q201 0 326 -116
q127 -115 127 -342v-664h-119v184q-58 -102 -162.5 -159.5t-238.5 -57.5q-177 0 -285 99q-104 101 -104 251q0 152 115.5 242t326.5 90q268 0 348 25q-4 164 -92 250t-244 86q-193 0 -338 -109l-63 92q65 56 176 92.5t227 36.5zM465 82q177 0 285 123t108 315v39
q-79 -20 -295 -20q-185 0 -275.5 -51.5t-90.5 -172.5q0 -108 73 -170.5t195 -62.5z" />
    <glyph glyph-name="at.case" horiz-adv-x="1966" 
d="M1268 1020v123h108v-572q0 -78 38 -121.5t99 -43.5q113 0 189 122q78 125 78 299q0 296 -230 510q-229 215 -542 215q-332 0 -562 -239q-231 -237 -231 -578q0 -340 240 -577q239 -236 587 -236q164 0 317.5 57t266.5 160l62 -82q-114 -107 -288.5 -173t-365.5 -66
q-126 -3 -248 29.5t-225.5 92.5t-190.5 146t-147.5 187.5t-93 220t-29.5 239.5q-4 182 68 354t194.5 298t292.5 201t351 71q364 0 624 -248t260 -586q0 -220 -114 -370q-115 -148 -273 -148q-91 0 -152 50.5t-75 127.5q-54 -85 -140 -131.5t-190 -46.5q-170 0 -287 123
q-114 126 -114 307q0 187 119 312q121 127 292 127q95 0 178.5 -42t133.5 -112zM961 406q129 0 219 96t90 235q0 144 -88 238q-90 96 -217 96q-130 0 -220 -96t-90 -238t86 -237q85 -94 220 -94z" />
    <glyph glyph-name="atilde.ss02" horiz-adv-x="1130" 
d="M428 1399q-82 0 -129 -103l-76 35q24 76 80.5 123t128.5 47q65 0 141 -55q80 -53 121 -53q40 0 75.5 30t49.5 72l74 -33q-20 -76 -76 -123t-127 -47q-64 0 -143 54q-77 53 -119 53zM526 1122q201 0 326 -116q127 -115 127 -342v-664h-119v184q-58 -102 -162.5 -159.5
t-238.5 -57.5q-177 0 -285 99q-104 101 -104 251q0 152 115.5 242t326.5 90q268 0 348 25q-4 164 -92 250t-244 86q-193 0 -338 -109l-63 92q65 56 176 92.5t227 36.5zM465 82q177 0 285 123t108 315v39q-79 -20 -295 -20q-185 0 -275.5 -51.5t-90.5 -172.5
q0 -108 73 -170.5t195 -62.5z" />
    <glyph glyph-name="backslash.case" horiz-adv-x="1054" 
d="M166 1513l833 -1513h-114l-834 1513h115z" />
    <glyph glyph-name="braceleft.case" horiz-adv-x="710" 
d="M676 1698h-74q-229 0 -229 -246q0 -78 6 -242q8 -145 8 -211q0 -95 -46 -163t-126 -101q172 -70 172 -264q0 -68 -8 -213q-6 -164 -6 -240q0 -245 229 -245h74v-105h-80q-342 0 -342 357q0 84 6 247q8 145 8 205q0 99 -55 150t-158 65v86q213 35 213 215q0 58 -8 203
q-6 164 -6 252q0 176 87 265t255 89h80v-104z" />
    <glyph glyph-name="braceright.case" horiz-adv-x="712" 
d="M442 993q0 -180 215 -215v-86q-215 -35 -215 -215q0 -14 7 -205q8 -145 8 -247q0 -357 -342 -357h-78v105h74q117 0 172 60t55 185q0 95 -8 240q-6 164 -6 213q0 197 174 264q-174 70 -174 264q0 47 6 211q8 145 8 242q0 125 -55.5 185.5t-171.5 60.5h-74v104h78
q168 0 255 -89t87 -265q0 -107 -8 -252q-7 -191 -7 -203z" />
    <glyph glyph-name="bracketleft.case" horiz-adv-x="755" 
d="M727 -322h-520v2126h520v-104h-395v-1917h395v-105z" />
    <glyph glyph-name="bracketright.case" horiz-adv-x="755" 
d="M549 -322h-520v105h395v1917h-395v104h520v-2126z" />
    <glyph glyph-name="breve.case" horiz-adv-x="903" 
d="M106 1958h111q1 -114 59.5 -171.5t161.5 -57.5q105 0 164 57.5t60 171.5h112q-2 -149 -93 -238.5t-243 -89.5t-241 89t-91 239z" />
    <glyph glyph-name="brevecombcy" horiz-adv-x="0" 
d="M-446 1241q-215 0 -367 186l70 76q135 -158 296.5 -158t296.5 158l72 -76q-158 -186 -368 -186z" />
    <glyph glyph-name="caron.alt" horiz-adv-x="612" 
d="M182 1280h-102l115 322h143z" />
    <glyph glyph-name="caron.case" horiz-adv-x="976" 
d="M446 1622l-282 317h131l188 -213l189 213h133l-283 -317h-76z" />
    <glyph glyph-name="cedilla.case" horiz-adv-x="634" 
d="M377 -113q87 0 142.5 -46.5t55.5 -129.5q0 -94 -70.5 -156.5t-189.5 -62.5q-102 0 -209 49l35 86q87 -41 168 -41q71 0 116.5 37t45.5 88q0 43 -32 69.5t-93 26.5h-123l-16 35l76 199l102 -2l-63 -156q50 4 55 4z" />
    <glyph glyph-name="circumflex.case" horiz-adv-x="978" 
d="M236 1634h-132l283 318h76l282 -318h-133l-188 213z" />
    <glyph glyph-name="colon.case" horiz-adv-x="501" 
d="M252 940q-43 0 -71.5 28.5t-28.5 69.5t28.5 69t71.5 28q41 0 69.5 -28t28.5 -69q0 -42 -28 -70t-70 -28zM252 293q-43 0 -71.5 28.5t-28.5 69.5t28.5 68.5t71.5 27.5q41 0 69.5 -27.5t28.5 -68.5q0 -42 -28 -70t-70 -28z" />
    <glyph glyph-name="comma.ss03" horiz-adv-x="364" 
d="M31 -358l143 571h121l-178 -571h-86z" />
    <glyph glyph-name="commaccent" horiz-adv-x="464" 
d="M258 -145q47 0 79 -35t32 -86q0 -157 -217 -295l-39 57q133 92 163 174q-13 -8 -36 -8q-35 0 -61.5 26.5t-26.5 63.5q0 43 31 73t75 30z" />
    <glyph glyph-name="commaccent.case" horiz-adv-x="333" 
d="M258 -145q47 0 79 -35t32 -86q0 -157 -217 -295l-39 57q133 92 163 174q-13 -8 -36 -8q-35 0 -61.5 26.5t-26.5 63.5q0 43 31 73t75 30z" />
    <glyph glyph-name="dieresis.case" horiz-adv-x="802" 
d="M111 1782q0 42 31 73t75 31t75.5 -30.5t31.5 -73.5q0 -47 -31 -78t-76 -31q-44 0 -75 32t-31 77zM471 1782q0 43 31.5 73.5t75.5 30.5t76 -30.5t32 -73.5q0 -44 -32 -76.5t-76 -32.5q-45 0 -76 31t-31 78z" />
    <glyph glyph-name="dollar.osf" horiz-adv-x="972" 
d="M918 311q0 -136 -103 -225q-105 -91 -258 -106v-228h-111v225q-131 11 -235.5 76t-159.5 176l94 66q106 -207 349 -207q133 0 216 62t83 159q0 61 -41.5 105.5t-130.5 83.5q-5 2 -138 55l-139 55q-221 102 -221 289q0 124 90.5 209t241.5 98v213h114v-215
q200 -21 320 -174l-86 -74q-114 144 -297 144q-117 0 -189.5 -53.5t-72.5 -143.5q0 -119 157 -190q68 -31 158 -66q101 -38 148 -59q211 -94 211 -275z" />
    <glyph glyph-name="dotaccent.case" horiz-adv-x="618" 
d="M213 1673q-44 0 -75.5 30.5t-31.5 74.5t31 74t76 30q43 0 73.5 -30t30.5 -74t-30.5 -74.5t-73.5 -30.5z" />
    <glyph glyph-name="eight.dnom" horiz-adv-x="737" 
d="M70 219q0 73 46.5 129.5t127.5 81.5v2q-140 59 -140 184q0 93 74.5 153t190.5 60q117 0 191.5 -60t74.5 -153q0 -61 -37.5 -109.5t-105.5 -74.5v-2q82 -25 130 -82t48 -129q0 -99 -84.5 -165t-216.5 -66t-215.5 66t-83.5 165zM369 473q56 -3 96.5 23t56 63t7.5 78.5
t-42 67.5q-44 38 -118 38q-73 0 -119.5 -38.5t-46.5 -96.5t44.5 -96.5t121.5 -38.5zM565 229q0 66 -51.5 111t-144.5 45q-94 0 -145.5 -43.5t-51.5 -112.5q0 -67 55.5 -110t141.5 -43t141 43t55 110z" />
    <glyph glyph-name="eight.lf" horiz-adv-x="1247" 
d="M625 -25q-229 0 -373 123q-143 122 -143 305q0 138 84 246.5t229 149.5v4q-122 50 -188 143.5t-66 204.5q0 164 127 276q128 113 330 113q200 0 325 -113q127 -112 127 -276q0 -113 -67 -207.5t-187 -140.5v-6q146 -41 231 -149t85 -245q0 -180 -146 -305
q-144 -123 -368 -123zM623 852q159 0 247 88t88 205q0 119 -94 201q-93 84 -239 84q-148 0 -244 -84q-92 -83 -92 -201q0 -117 88 -205t246 -88zM1016 416q0 133 -101 227q-101 98 -290 98q-192 0 -293 -98q-103 -95 -103 -229q0 -140 111 -234q115 -92 285 -92
q171 0 280 92q111 94 111 236z" />
    <glyph glyph-name="eight.num" horiz-adv-x="737" 
d="M70 930q0 73 46.5 129.5t127.5 81.5v2q-140 59 -140 184q0 93 74.5 153t190.5 60q117 0 191.5 -60t74.5 -153q0 -61 -37.5 -109.5t-105.5 -74.5v-2q82 -25 130 -82t48 -129q0 -99 -84.5 -165.5t-216.5 -66.5t-215.5 66t-83.5 166zM369 1184q56 -3 96.5 22.5t56 62.5
t7.5 78.5t-42 67.5q-45 39 -118 39t-119.5 -38.5t-46.5 -96.5t44.5 -96.5t121.5 -38.5zM565 940q0 66 -51.5 111t-144.5 45q-94 0 -145.5 -43.5t-51.5 -112.5q0 -67 55.5 -110.5t141.5 -43.5t141 43t55 111z" />
    <glyph glyph-name="eight.osf" horiz-adv-x="1234" 
d="M102 387q0 130 85 233.5t229 141.5v4q-122 48 -188 137.5t-66 194.5q0 157 127 266q127 106 329 106t326 -106q127 -109 127 -264q0 -107 -66.5 -197.5t-187.5 -136.5v-6q146 -36 231 -139t85 -234q0 -173 -146 -295q-144 -117 -369 -117q-226 0 -370 117
q-146 122 -146 295zM616 815q158 0 248 84q88 82 88 195q0 114 -94 190q-92 80 -240 80t-243 -80q-92 -77 -92 -190t88 -195q90 -84 245 -84zM1010 397q0 126 -101 217q-101 93 -291 93q-188 0 -292 -93q-103 -92 -103 -219q0 -133 111 -221q113 -88 284 -88q174 0 281 88
q111 88 111 223z" />
    <glyph glyph-name="eight.tf" horiz-adv-x="1171" 
d="M586 -25q-229 0 -373 123q-143 122 -143 305q0 138 84 246.5t229 149.5v4q-122 50 -188 143.5t-66 204.5q0 164 127 276q128 113 330 113q200 0 325 -113q127 -112 127 -276q0 -113 -67 -207.5t-187 -140.5v-6q146 -41 231 -149t85 -245q0 -180 -146 -305
q-144 -123 -368 -123zM584 852q159 0 247 88q89 89 89 205q0 118 -95 201q-93 84 -239 84q-148 0 -244 -84q-92 -83 -92 -201q0 -117 88 -205t246 -88zM977 416q0 134 -100 227q-101 98 -291 98q-192 0 -293 -98q-103 -95 -103 -229q0 -140 111 -234q115 -92 285 -92
q171 0 280 92q111 94 111 236z" />
    <glyph glyph-name="eight_fraction_nine" horiz-adv-x="1687" 
d="M63 930q0 72 47 129t128 82v2q-140 59 -140 184q0 93 74 153t190 60q117 0 192 -60t75 -153q0 -60 -38 -109t-106 -75v-2q82 -25 130.5 -82t48.5 -129q0 -99 -85 -165.5t-217 -66.5t-215.5 66t-83.5 166zM324 0h-121l1183 1513h119zM362 1184q56 -3 97 22.5t56 62.5
t7.5 78.5t-41.5 67.5q-45 39 -119 39q-73 0 -119 -38.5t-46 -96.5t44 -96.5t121 -38.5zM559 940q0 66 -52 111t-145 45q-94 0 -145 -43.5t-51 -112.5q0 -68 55 -111t141 -43t141.5 43.5t55.5 110.5zM1253 -12q-125 0 -213 67l41 74q76 -55 170 -55q130 0 187 106
q62 109 59 260h-2q-23 -66 -85 -106.5t-140 -40.5q-116 0 -190 73.5t-74 188.5q0 119 79.5 196.5t202.5 77.5q145 0 223 -108t78 -289q0 -186 -84 -317q-83 -127 -252 -127zM1284 375q57 -4 103 29.5t66.5 82t12 105.5t-50.5 96q-52 55 -131 55q-78 0 -129 -52.5t-51 -133.5
q0 -78 51 -130t129 -52z" />
    <glyph glyph-name="emdash.case" horiz-adv-x="2099" 
d="M1948 696h-1794v119h1794v-119z" />
    <glyph glyph-name="endash.case" horiz-adv-x="1445" 
d="M1294 696h-1140v119h1140v-119z" />
    <glyph glyph-name="exclamdown.case" horiz-adv-x="538" 
d="M293 1550q42 0 70 -28t28 -70q0 -41 -28.5 -68.5t-69.5 -27.5q-43 0 -71.5 27.5t-28.5 68.5t28.5 69.5t71.5 28.5zM225 6l6 1184h117l8 -1184h-131z" />
    <glyph glyph-name="five.dnom" horiz-adv-x="671" 
d="M336 516q118 0 193 -71.5t75 -186.5q0 -119 -82 -194.5t-211 -75.5q-138 0 -260 96l49 80q110 -84 207 -84q86 0 139.5 50t53.5 128q0 75 -49 123.5t-127 48.5q-97 0 -166 -78l-64 43l45 412h412v-90h-336l-27 -240q65 39 148 39z" />
    <glyph glyph-name="five.lf" horiz-adv-x="1144" 
d="M575 971q207 0 345 -135q137 -134 137 -355q0 -224 -148 -366q-146 -140 -368 -140q-247 0 -455 187l68 94q182 -164 383 -164q170 0 282 109q111 108 111 280q0 168 -103 271q-102 102 -262 102q-191 0 -321 -160l-90 45l77 774h723v-112h-618l-57 -531q119 101 296 101
z" />
    <glyph glyph-name="five.num" horiz-adv-x="671" 
d="M336 1227q118 0 193 -71.5t75 -186.5q0 -119 -82 -195t-211 -76q-137 0 -260 97l49 79q109 -83 207 -83q86 0 139.5 50t53.5 128q0 75 -49 123.5t-127 48.5q-97 0 -166 -78l-64 43l45 412h412v-91h-336l-27 -239q65 39 148 39z" />
    <glyph glyph-name="five.osf" horiz-adv-x="1099" 
d="M553 682q204 0 338 -125q137 -122 137 -324q0 -205 -145 -335q-144 -129 -365 -129q-245 0 -450 172l65 88q181 -150 381 -150q172 0 279 101q108 99 108 253q0 149 -102 244q-101 94 -258 94q-191 0 -316 -143l-90 41l76 709h717v-109h-615l-55 -479q118 92 295 92z" />
    <glyph glyph-name="five.tf" horiz-adv-x="1171" 
d="M590 971q206 0 344 -135q137 -134 137 -355q0 -225 -147 -366q-146 -140 -369 -140q-247 0 -455 187l68 94q182 -164 383 -164q171 0 283 109q110 107 110 280q0 169 -102 271t-262 102q-192 0 -322 -160l-90 45l78 774h723v-112h-619l-57 -531q119 101 297 101z" />
    <glyph glyph-name="five_fraction_nine" horiz-adv-x="1683" 
d="M313 791q86 0 139.5 50t53.5 128q0 75 -49 123.5t-127 48.5q-97 0 -166 -78l-64 43l45 412h412v-91h-336l-26 -239q65 39 147 39q118 0 193 -71.5t75 -186.5q0 -119 -82 -195t-211 -76q-137 0 -260 97l49 79q109 -83 207 -83zM199 0l1183 1513h117l-1182 -1513h-118z
M1284 829q145 0 223 -108t78 -289q0 -186 -84 -317q-83 -127 -252 -127q-125 0 -213 67l41 74q76 -55 170 -55q130 0 187 106q62 109 59 260h-2q-23 -66 -85 -106.5t-140 -40.5q-116 0 -190.5 73.5t-74.5 188.5q0 119 80 196.5t203 77.5zM1280 375q57 -4 103 29.5t66.5 82
t12 105.5t-50.5 96q-52 55 -131 55q-78 0 -129 -52.5t-51 -133.5q0 -78 51 -130t129 -52z" />
    <glyph glyph-name="five_fraction_seven" horiz-adv-x="1699" 
d="M322 791q86 0 139 50t53 128q0 75 -49 123.5t-127 48.5q-97 0 -166 -78l-63 43l45 412h411v-91h-336l-26 -239q65 39 147 39q118 0 193 -71.5t75 -186.5q0 -119 -81.5 -195t-210.5 -76q-137 0 -260 97l49 79q109 -83 207 -83zM225 0l1184 1513h117l-1180 -1513h-121z
M1098 717v90h516v-66l-324 -741h-106l317 717h-403z" />
    <glyph glyph-name="four.dnom" horiz-adv-x="710" 
d="M535 293h92v-86h-92v-207h-95v207h-385l-22 61l436 543h66v-518zM440 639l-278 -346h278v346z" />
    <glyph glyph-name="four.lf" horiz-adv-x="1159" 
d="M905 518h170v-115h-170v-403h-125v403h-731l-20 78l800 1032h76v-995zM780 1266l-581 -748h581v748z" />
    <glyph glyph-name="four.num" horiz-adv-x="710" 
d="M535 1004h92v-86h-92v-207h-95v207h-385l-22 61l436 543h66v-518zM440 1350l-278 -346h278v346z" />
    <glyph glyph-name="four.osf" horiz-adv-x="1165" 
d="M913 252h172v-107h-172v-346h-122v346h-723l-21 74l793 965h73v-932zM791 950l-574 -698h574v698z" />
    <glyph glyph-name="four.tf" horiz-adv-x="1171" 
d="M932 518h170v-115h-170v-403h-125v403h-731l-21 78l801 1032h76v-995zM807 1266l-582 -748h582v748z" />
    <glyph glyph-name="four_fraction_nine" horiz-adv-x="1798" 
d="M545 711h-94v207h-385l-23 61l436 543h66v-518h92v-86h-92v-207zM293 0l1184 1513h116l-1179 -1513h-121zM451 1350l-279 -346h279v346zM1382 829q145 0 223 -108t78 -289q0 -186 -84 -317q-83 -127 -251 -127q-125 0 -213 67l41 74q76 -55 170 -55q129 0 186 106
q62 109 59 260h-2q-23 -66 -85 -106.5t-140 -40.5q-116 0 -190 73.5t-74 188.5q0 119 79.5 196.5t202.5 77.5zM1378 375q57 -4 103 29.5t66.5 82t12 105.5t-50.5 96q-52 55 -131 55q-78 0 -129 -52.5t-51 -133.5q0 -78 51 -130t129 -52z" />
    <glyph glyph-name="four_fraction_seven" horiz-adv-x="1728" 
d="M547 711h-94v207h-385l-23 61l436 543h66v-518h92v-86h-92v-207zM264 0l1184 1513h119l-1182 -1513h-121zM453 1350l-279 -346h279v346zM1120 717v90h516v-66l-323 -741h-107l318 717h-404z" />
    <glyph glyph-name="grave.case" horiz-adv-x="602" 
d="M260 1958l121 -328h-105l-174 328h158z" />
    <glyph glyph-name="guillemotleft.case" horiz-adv-x="1030" 
d="M528 342h-122l-297 416l297 416h122l-297 -416zM893 342h-123l-295 416l295 416h123l-295 -416z" />
    <glyph glyph-name="guillemotright.case" horiz-adv-x="1030" 
d="M557 758l-295 -416h-125l295 416l-295 416h125zM924 758l-297 -416h-123l295 416l-295 416h123z" />
    <glyph glyph-name="guilsinglleft.case" horiz-adv-x="665" 
d="M528 342h-122l-297 416l297 416h122l-297 -416z" />
    <glyph glyph-name="guilsinglright.case" horiz-adv-x="665" 
d="M557 758l-297 -416h-123l295 416l-295 416h123z" />
    <glyph glyph-name="hungarumlaut.case" horiz-adv-x="1028" 
d="M195 1630h-93l93 328h155zM510 1630h-94l119 328h155z" />
    <glyph glyph-name="hyphen.case" horiz-adv-x="1087" 
d="M936 696h-782v119h782v-119z" />
    <glyph glyph-name="i.loclTRK" horiz-adv-x="456" 
d="M225 1268q-44 0 -75 30t-31 74t31 74.5t75 30.5q43 0 74 -30.5t31 -74.5t-31 -74t-74 -30zM281 1096v-1096h-123v1096h123z" />
    <glyph glyph-name="i_j.loclNLD" horiz-adv-x="1026" 
d="M223 1268q-44 0 -75 30t-31 74t31 74.5t75 30.5q43 0 74 -30.5t31 -74.5t-31 -74t-74 -30zM750 1268q-45 0 -76 30t-31 74t31.5 74.5t75.5 30.5q43 0 73.5 -30.5t30.5 -74.5t-30.5 -74t-73.5 -30zM281 1096v-1096h-123v1096h123zM485 -467q-117 0 -194 47l31 105
q88 -39 155 -39q102 0 155.5 63.5t53.5 181.5v1205h123v-1196q0 -176 -86.5 -271.5t-237.5 -95.5z" />
    <glyph glyph-name="iacute_j.loclNLD" horiz-adv-x="976" 
d="M285 1272h-105l121 327h158zM805 1272h-105l121 327h158zM289 1096v-1096h-123v1096h123zM485 -467q-117 0 -194 47l31 105q88 -39 155 -39q102 0 155.5 63.5t53.5 181.5v1205h123v-1196q0 -176 -86.5 -271.5t-237.5 -95.5z" />
    <glyph glyph-name="j.loclNLD" horiz-adv-x="505" 
d="M279 1268q-45 0 -76 30t-31 74t31.5 74.5t75.5 30.5q43 0 73.5 -30.5t30.5 -74.5t-30.5 -74t-73.5 -30zM14 -467q-117 0 -194 47l30 105q88 -39 156 -39q102 0 155.5 63.5t53.5 181.5v1205h123v-1196q0 -176 -86.5 -271.5t-237.5 -95.5z" />
    <glyph glyph-name="jacute" horiz-adv-x="505" 
d="M328 1272h-105l121 327h158zM14 -467q-117 0 -194 47l30 105q88 -39 156 -39q102 0 155.5 63.5t53.5 181.5v1205h123v-1196q0 -176 -86.5 -271.5t-237.5 -95.5z" />
    <glyph glyph-name="macron.case" horiz-adv-x="970" 
d="M784 1720l-680 -2v113h680v-111z" />
    <glyph glyph-name="nine.dnom" horiz-adv-x="722" 
d="M315 -12q-125 0 -213 67l41 74q76 -55 170 -55q130 0 187 106q62 109 59 260h-2q-23 -66 -85 -106.5t-140 -40.5q-116 0 -190 73.5t-74 188.5q0 119 79.5 196.5t202.5 77.5q145 0 223 -108t78 -289q0 -186 -84 -317q-83 -127 -252 -127zM346 375q57 -4 103 29.5t66.5 82
t12 105.5t-50.5 96q-52 55 -131 55q-78 0 -129 -52.5t-51 -133.5q0 -78 51 -130t129 -52z" />
    <glyph glyph-name="nine.lf" horiz-adv-x="1228" 
d="M535 -20q-224 0 -369 124l55 97q133 -109 309 -109q107 0 190.5 46t135.5 121t85 176.5t44.5 205.5t7.5 215h-6q-35 -134 -156 -223q-119 -88 -270 -88q-197 0 -336 139q-135 138 -135 350q0 216 139 361t357 145q256 0 391 -205q135 -203 135 -530q0 -130 -20 -248
t-65 -224.5t-111 -184t-164 -123t-217 -45.5zM575 657q152 0 263 111q112 112 112 270q0 156 -108 273q-107 116 -267 116q-153 0 -256 -112q-104 -110 -104 -279q0 -164 102 -272q104 -107 258 -107z" />
    <glyph glyph-name="nine.num" horiz-adv-x="722" 
d="M315 698q-124 0 -213 68l41 74q77 -56 170 -56q129 0 187 107q62 109 59 260h-2q-23 -66 -85 -106.5t-140 -40.5q-116 0 -190 73.5t-74 188.5q0 119 79.5 196.5t202.5 77.5q145 0 223 -108t78 -289q0 -187 -84 -318q-83 -127 -252 -127zM346 1085q57 -4 103 29.5
t66.5 82.5t12 106t-50.5 96q-52 55 -131 55q-78 0 -129 -52.5t-51 -133.5q0 -78 51 -130.5t129 -52.5z" />
    <glyph glyph-name="nine.osf" horiz-adv-x="1187" 
d="M514 -229q-220 0 -364 114l55 97q136 -103 305 -103q127 0 223.5 61.5t147.5 168.5q97 199 88 473h-6q-34 -119 -156 -203q-121 -80 -266 -80q-200 0 -332 129q-133 130 -133 326q0 207 137 338q139 133 352 133q255 0 387 -191q135 -188 135 -495q0 -121 -20 -231
t-64.5 -209t-110 -171t-162.5 -114.5t-216 -42.5zM555 408q149 0 260 102t111 248q0 141 -109 250q-106 106 -260 106q-151 0 -256 -102q-102 -102 -102 -256q0 -148 102 -250q101 -98 254 -98z" />
    <glyph glyph-name="nine.tf" horiz-adv-x="1171" 
d="M506 -20q-224 0 -369 124l56 97q133 -109 309 -109q107 0 190.5 46t135.5 121t85 176.5t44.5 205.5t7.5 215h-7q-35 -135 -155 -223q-119 -88 -271 -88q-196 0 -335 139q-136 139 -136 350q0 215 140 361q139 145 356 145q256 0 391 -205q135 -203 135 -530
q0 -130 -20 -248t-65 -224.5t-111 -184t-164 -123t-217 -45.5zM547 657q151 0 262 111q113 113 113 270q0 155 -109 273q-107 116 -266 116q-153 0 -256 -112q-105 -111 -105 -279q0 -163 103 -272q104 -107 258 -107z" />
    <glyph glyph-name="ogonek.case" horiz-adv-x="661" 
d="M461 -385l49 -84q-85 -61 -182 -61q-98 0 -160 60t-62 157q0 208 304 346l71 -33q-123 -55 -194.5 -135.5t-71.5 -159.5q0 -56 36.5 -93.5t90.5 -37.5q60 0 119 41z" />
    <glyph glyph-name="one.dnom" horiz-adv-x="528" 
d="M49 594l266 213h78v-809h-104v666l-183 -148z" />
    <glyph glyph-name="one.lf" horiz-adv-x="755" 
d="M18 1147l433 366h98v-1513h-127v1337l-330 -278z" />
    <glyph glyph-name="one.num" horiz-adv-x="528" 
d="M49 1305l266 213h78v-807h-104v663l-183 -147z" />
    <glyph glyph-name="one.numalt" horiz-adv-x="671" 
d="M76 1305l266 213h78v-809h-105v665l-182 -147z" />
    <glyph glyph-name="one.osf" horiz-adv-x="894" 
d="M575 1188v-1079h293v-109h-800v109h387v923l-373 -250l-66 97l461 309h98z" />
    <glyph glyph-name="one.tf" horiz-adv-x="1171" 
d="M707 1513v-1398h337v-117h-817v117h353v1222l-330 -278l-74 88l432 366h99z" />
    <glyph glyph-name="parenleft.case" horiz-adv-x="763" 
d="M750 -221l-56 -94q-286 157 -442 432q-156 276 -156 620q0 348 156 621q157 278 442 434l56 -96q-254 -153 -390.5 -400.5t-136.5 -558.5t136.5 -558t390.5 -400z" />
    <glyph glyph-name="parenright.case" horiz-adv-x="763" 
d="M68 -315l-54 94q254 152 389.5 399t135.5 559q0 313 -135.5 559.5t-389.5 399.5l54 96q285 -156 442 -434q158 -276 158 -621q0 -340 -158 -620q-156 -275 -442 -432z" />
    <glyph glyph-name="periodcentered.case" horiz-adv-x="483" 
d="M242 651q-43 0 -72 29t-29 70t29 68.5t72 27.5q41 0 69.5 -27.5t28.5 -68.5q0 -42 -28 -70.5t-70 -28.5z" />
    <glyph glyph-name="questiondown.case" horiz-adv-x="1015" 
d="M569 1550q43 0 73 -28.5t30 -69.5t-30 -68.5t-73 -27.5q-39 0 -67.5 27.5t-28.5 68.5q0 42 28.5 70t67.5 28zM514 1196h115v-154q0 -150 -146 -282q-15 -15 -58 -54t-63 -58t-53 -56.5t-48.5 -66t-28.5 -68t-13 -78.5q0 -119 90 -203q89 -80 228 -80q193 0 340 172
l79 -80q-78 -97 -190.5 -151.5t-233.5 -54.5q-180 0 -309 108q-127 112 -127 289q0 86 41 167t107 142q20 18 60.5 54.5t63.5 57.5t54.5 54.5t49 60t30 59t12.5 64.5v158z" />
    <glyph glyph-name="quotedblbase.ss03" horiz-adv-x="827" 
d="M66 -299l143 571h121l-178 -571h-86zM500 -299l143 571h121l-178 -571h-86z" />
    <glyph glyph-name="quotedblleft.ss03" horiz-adv-x="833" 
d="M367 1696l-144 -572h-121l179 572h86zM803 1696l-144 -572h-120l178 572h86z" />
    <glyph glyph-name="quotedblright.ss03" horiz-adv-x="845" 
d="M109 1126l143 572h121l-178 -572h-86zM545 1126l143 572h121l-178 -572h-86z" />
    <glyph glyph-name="quoteleft.ss03" horiz-adv-x="450" 
d="M369 1696l-144 -572h-121l179 572h86z" />
    <glyph glyph-name="quoteright.ss03" horiz-adv-x="446" 
d="M115 1126l143 572h121l-178 -572h-86z" />
    <glyph glyph-name="quotesinglbase.ss03" horiz-adv-x="458" 
d="M57 -299l144 571h121l-179 -571h-86z" />
    <glyph glyph-name="ring.case" horiz-adv-x="655" 
d="M334 1602q-94 0 -161 64.5t-67 156.5q0 93 67 159t161 66q96 0 162 -66q67 -64 67 -159q0 -93 -66.5 -157t-162.5 -64zM233 1724q41 -41 100.5 -41t100.5 41q43 41 43 100.5t-43 100.5q-41 41 -100.5 41t-100.5 -41t-41 -100.5t41 -100.5z" />
    <glyph glyph-name="semicolon.case" horiz-adv-x="552" 
d="M291 940q-63 -4 -89 48.5t0 104.5t89 46q43 0 72.5 -28.5t29.5 -70.5q0 -43 -29.5 -71.5t-72.5 -28.5zM289 512q47 0 77.5 -35t30.5 -86q0 -156 -215 -291l-39 56q135 94 162 172q-18 -9 -35 -9q-35 0 -61.5 28t-26.5 65q0 41 31.5 70.5t75.5 29.5z" />
    <glyph glyph-name="semicolon.case.ss03" horiz-adv-x="552" 
d="M291 940q-63 -4 -89 48.5t0 104.5t89 46q43 0 72.5 -28.5t29.5 -70.5q0 -43 -29.5 -71.5t-72.5 -28.5zM78 -240l143 572h121l-178 -572h-86z" />
    <glyph glyph-name="semicolon.ss03" horiz-adv-x="507" 
d="M279 750q-63 -4 -89 48.5t0 104t89 45.5q43 0 72.5 -28t29.5 -70q0 -43 -29.5 -71.5t-72.5 -28.5zM74 -358l143 571h121l-178 -571h-86z" />
    <glyph glyph-name="seven.dnom" horiz-adv-x="602" 
d="M49 717v90h516v-66l-323 -741h-107l318 717h-404z" />
    <glyph glyph-name="seven.lf" horiz-adv-x="997" 
d="M39 1401v112h922v-77l-605 -1436h-135l602 1401h-784z" />
    <glyph glyph-name="seven.num" horiz-adv-x="602" 
d="M49 1427v91h516v-66l-323 -741h-107l318 716h-404z" />
    <glyph glyph-name="seven.osf" horiz-adv-x="987" 
d="M29 1067v111h921v-76l-590 -1301h-137l588 1266h-782z" />
    <glyph glyph-name="seven.tf" horiz-adv-x="1171" 
d="M127 1401v112h960v-77l-679 -1436h-138l676 1401h-819z" />
    <glyph glyph-name="seven_fraction_nine" horiz-adv-x="1619" 
d="M254 711h-107l318 716h-404v91h517v-66zM84 0l1184 1513h116l-1181 -1513h-119zM1217 829q145 0 223 -108t78 -289q0 -186 -84 -317q-83 -127 -252 -127q-125 0 -213 67l41 74q76 -55 170 -55q129 0 186 106q62 109 59 260h-2q-23 -66 -85 -106.5t-140 -40.5
q-116 0 -190 73.5t-74 188.5q0 119 80 196.5t203 77.5zM1212 375q57 -4 103 29.5t66.5 82t12 105.5t-50.5 96q-52 55 -131 55q-78 0 -129 -52.5t-51 -133.5q0 -78 51 -130t129 -52z" />
    <glyph glyph-name="six.dnom" horiz-adv-x="706" 
d="M362 -12q-146 0 -226.5 108t-80.5 285q0 186 88 317t260 131q127 0 215 -67l-43 -74q-76 55 -165 55q-134 0 -197 -112q-64 -110 -61 -252q23 66 86 105.5t143 39.5q116 0 192 -74.5t76 -189.5q0 -117 -81.5 -194.5t-205.5 -77.5zM367 74q78 0 131 53.5t53 132.5
q0 78 -53 129t-131 51q-79 0 -134 -52.5t-55 -129.5q0 -76 55 -130t134 -54z" />
    <glyph glyph-name="six.lf" horiz-adv-x="1230" 
d="M645 -18q-256 0 -393 204t-137 527q-1 159 35.5 304.5t107 263.5t187.5 188.5t264 70.5q215 0 364 -125l-57 -94q-130 106 -301 106q-127 0 -227.5 -69.5t-155.5 -188.5q-107 -228 -94 -501h6q35 134 153 221q119 88 271 88q200 0 336 -139q135 -138 135 -353
q0 -214 -140 -360q-137 -143 -354 -143zM653 96q151 0 256 111q107 113 107 278q0 163 -105 271q-102 108 -256 108t-266 -112q-110 -110 -110 -269q0 -155 108 -272q109 -115 266 -115z" />
    <glyph glyph-name="six.num" horiz-adv-x="706" 
d="M362 698q-146 0 -226.5 108.5t-80.5 285.5q0 186 88 317t260 131q127 0 215 -67l-43 -74q-76 55 -165 55q-133 0 -197 -113q-64 -110 -61 -251q23 66 86 105.5t143 39.5q116 0 192 -74.5t76 -189.5q0 -117 -81.5 -195t-205.5 -78zM367 784q78 0 131 54t53 133
q0 78 -53 129t-131 51q-79 0 -134 -52.5t-55 -129.5q0 -76 55 -130.5t134 -54.5z" />
    <glyph glyph-name="six.osf" horiz-adv-x="1222" 
d="M637 -18q-255 0 -393 196t-138 502q0 201 60 381q60 172 201 291q136 118 333 118q218 0 365 -118l-59 -92q-132 102 -299 102q-89 0 -163.5 -31.5t-126.5 -87t-91 -126t-60.5 -152.5t-30.5 -163t-6 -161l7 -2q36 130 153 211q122 84 270 84q201 0 336 -135
q135 -132 135 -336q0 -205 -139 -344q-137 -137 -354 -137zM645 94q151 0 256 105q105 108 105 264q0 155 -103 258q-102 102 -256 102t-266 -106q-111 -105 -111 -256q0 -146 109 -258q109 -109 266 -109z" />
    <glyph glyph-name="six.tf" horiz-adv-x="1171" 
d="M614 -18q-256 0 -393 204t-137 527q-1 159 35.5 304.5t107 263.5t187.5 188.5t264 70.5q215 0 364 -125l-57 -94q-130 106 -301 106q-127 0 -227.5 -69.5t-155.5 -188.5q-107 -228 -94 -501h6q35 133 154 221t270 88q200 0 336 -139q135 -138 135 -353t-139 -360
q-137 -143 -355 -143zM623 96q151 0 256 111q106 112 106 278q0 164 -104 271q-102 108 -256 108q-155 0 -267 -112q-110 -110 -110 -269q0 -155 108 -272q109 -115 267 -115z" />
    <glyph glyph-name="six_fraction_seven" horiz-adv-x="1710" 
d="M645 971q0 -117 -81.5 -195t-205.5 -78q-146 0 -226.5 108.5t-80.5 285.5q0 186 88 317t260 131q127 0 215 -67l-43 -74q-76 55 -165 55q-133 0 -197 -113q-65 -112 -62 -251q23 66 86.5 105.5t143.5 39.5q116 0 192 -74.5t76 -189.5zM227 0l1184 1513h117l-1180 -1513
h-121zM174 969q0 -76 54.5 -130.5t133.5 -54.5q78 0 131.5 54t53.5 133q0 78 -53 129t-132 51t-133.5 -52.5t-54.5 -129.5zM1110 717v90h516v-66l-323 -741h-107l317 717h-403z" />
    <glyph glyph-name="slash.case" horiz-adv-x="1054" 
d="M170 0h-115l834 1513h115z" />
    <glyph glyph-name="sterling.osf" horiz-adv-x="935" 
d="M231 109h682v-109h-843v82q79 52 128.5 138t49.5 177q0 69 -37 156h-150v98h107q-41 96 -41 178q0 166 111 271q109 103 286 106q119 2 216.5 -53.5t152.5 -157.5l-90 -55q-92 164 -279 164q-123 0 -199.5 -75t-76.5 -198q0 -81 45 -180h493v-98h-450q31 -79 31 -150
q0 -173 -136 -294z" />
    <glyph glyph-name="three.dnom" horiz-adv-x="641" 
d="M297 -12q-131 0 -256 82l47 82q107 -70 207 -70q84 0 132 39t48 106q0 68 -47 106t-137 38h-96v92h88q80 0 128 39t48 100t-45 97t-115 36q-100 0 -188 -76l-52 72q98 98 248 98q112 0 184 -61t72 -152q0 -68 -39 -119t-106 -71v-4q75 -17 118.5 -71t43.5 -128
q0 -103 -79.5 -169t-203.5 -66z" />
    <glyph glyph-name="three.lf" horiz-adv-x="1110" 
d="M502 -25q-240 0 -441 154l64 100q183 -137 377 -137q163 0 262.5 88t99.5 228q0 141 -95.5 225t-276.5 84h-162v112h149q173 0 264 91t91 213q0 129 -89.5 209.5t-230.5 80.5q-205 0 -354 -149l-70 86q75 82 191 131t237 49q199 0 320 -115q123 -114 123 -282
q0 -127 -71.5 -224.5t-187.5 -134.5v-8q133 -31 211 -130.5t78 -239.5q0 -188 -137 -310q-136 -121 -352 -121z" />
    <glyph glyph-name="three.num" horiz-adv-x="641" 
d="M297 698q-131 0 -256 82l47 82q106 -69 207 -69q84 0 132 39t48 106t-47 105t-137 38h-96v93h88q80 0 128 39t48 100t-45 97t-115 36q-100 0 -188 -76l-52 72q98 98 248 98q112 0 184 -61t72 -152q0 -68 -39 -119t-106 -71v-4q75 -17 118.5 -71t43.5 -128
q0 -103 -79.5 -169.5t-203.5 -66.5z" />
    <glyph glyph-name="three.osf" horiz-adv-x="1062" 
d="M477 -225q-236 0 -434 139l63 94q182 -123 371 -123q159 0 258 80t99 205q0 127 -95 204t-270 77h-162v108h150q163 0 254.5 78t91.5 194q0 118 -88.5 191.5t-225.5 73.5q-200 0 -350 -138l-67 82q74 76 188 121t234 45q197 0 315 -106q121 -106 121 -258
q0 -115 -70 -202.5t-186 -123.5v-8q133 -26 210 -118t77 -220q0 -171 -136 -283q-133 -112 -348 -112z" />
    <glyph glyph-name="three.tf" horiz-adv-x="1171" 
d="M520 -25q-239 0 -440 154l63 100q183 -137 377 -137q163 0 263 88t100 228q0 141 -96 225t-277 84h-162v112h150q173 0 264 91q90 90 90 213q0 129 -89.5 209.5t-230.5 80.5q-205 0 -354 -149l-69 86q75 82 191 131t237 49q198 0 319 -115q123 -114 123 -282
q0 -127 -71 -224.5t-187 -134.5v-8q133 -31 211 -130.5t78 -239.5q0 -187 -138 -310q-136 -121 -352 -121z" />
    <glyph glyph-name="three_fraction_seven" horiz-adv-x="1753" 
d="M311 793q84 0 132.5 39.5t48.5 105.5q0 67 -47 105t-138 38h-96v93h88q80 0 128 39t48 100t-45 97t-115 36q-100 0 -188 -76l-51 72q98 98 248 98q112 0 184 -61t72 -152q0 -68 -39.5 -118.5t-106.5 -71.5v-4q75 -17 118.5 -71t43.5 -128q0 -103 -79.5 -169.5
t-203.5 -66.5q-131 0 -256 82l47 82q106 -69 207 -69zM244 0l1183 1513h117l-1182 -1513h-118zM1155 717v90h516v-66l-323 -741h-107l318 717h-404z" />
    <glyph glyph-name="tilde.case" horiz-adv-x="1097" 
d="M176 1696l-80 37q24 80 84 130t137 50q70 0 152 -58q80 -57 127 -57q42 0 77 31.5t54 77.5l80 -35q-24 -81 -81 -130.5t-134 -49.5q-72 0 -154 55q-80 57 -125 57q-91 0 -137 -108z" />
    <glyph glyph-name="two.dnom" horiz-adv-x="686" 
d="M436 317l-203 -223h361v-94h-502l-2 84l246 264q79 88 112 141.5t33 104.5q0 62 -42.5 101.5t-108.5 39.5q-99 0 -197 -94l-57 74q120 114 258 114q109 0 179.5 -65.5t70.5 -169.5q0 -109 -148 -277z" />
    <glyph glyph-name="two.lf" horiz-adv-x="1101" 
d="M672 561l-391 -446h720v-117h-895v108l437 492q164 187 233 297q76 116 76 231q0 129 -89.5 213t-230.5 84q-204 0 -378 -180l-78 86q205 211 459 211q193 0 315 -119q125 -116 125 -303q0 -104 -64 -229q-69 -135 -239 -328z" />
    <glyph glyph-name="two.num" horiz-adv-x="686" 
d="M436 1028l-203 -223h361v-94h-502l-2 84l246 264q79 88 112 141.5t33 104.5q0 62 -42.5 101.5t-108.5 39.5q-99 0 -197 -94l-57 73q121 115 258 115q109 0 179.5 -65.5t70.5 -169.5q0 -109 -148 -277z" />
    <glyph glyph-name="two.osf" horiz-adv-x="1042" 
d="M623 408l-334 -302h655v-108h-835v102l428 385q55 48 102 95q34 34 80 86q82 100 82 198q0 100 -78.5 164t-200.5 64q-180 0 -375 -183l-71 90q213 207 448 207q170 0 283 -98q115 -95 115 -246q0 -95 -64 -196q-67 -106 -235 -258z" />
    <glyph glyph-name="two.tf" horiz-adv-x="1171" 
d="M707 561l-392 -446h721v-117h-895v108l437 492q164 187 233 297q76 116 76 231q0 129 -89.5 213t-230.5 84q-205 0 -379 -180l-77 86q205 211 458 211q194 0 316 -119q125 -116 125 -303q0 -104 -64 -229q-69 -135 -239 -328z" />
    <glyph glyph-name="two_fraction_nine" horiz-adv-x="1734" 
d="M240 805h360v-94h-502l-2 84l246 264q79 88 112 141.5t33 104.5q0 62 -42.5 101.5t-108.5 39.5q-99 0 -197 -94l-57 73q121 115 258 115q109 0 179.5 -65.5t70.5 -169.5q0 -109 -148 -277zM248 0l1184 1513h118l-1181 -1513h-121zM1335 829q145 0 223 -108t78 -289
q0 -186 -84 -317q-83 -127 -252 -127q-125 0 -213 67l41 74q76 -55 170 -55q130 0 187 106q62 109 59 260h-2q-23 -66 -85 -106.5t-140 -40.5q-116 0 -190 73.5t-74 188.5q0 119 79.5 196.5t202.5 77.5zM1331 375q57 -4 103 29.5t66.5 82t12 105.5t-50.5 96q-52 55 -131 55
q-78 0 -129 -52.5t-51 -133.5q0 -78 51 -130t129 -52z" />
    <glyph glyph-name="two_fraction_seven" horiz-adv-x="1734" 
d="M248 805h360v-94h-502l-2 84l246 264q80 89 113 142t33 104q0 61 -43 101t-109 40q-99 0 -197 -94l-57 73q121 115 258 115q109 0 179.5 -65.5t70.5 -169.5q0 -111 -147 -277zM268 0l1184 1513h117l-1180 -1513h-121zM1133 717v90h516v-66l-324 -741h-106l317 717h-403z
" />
    <glyph glyph-name="uni0414.ss01" horiz-adv-x="1474" 
d="M1233 1513v-1394h160v-426h-129v307h-1088v-307h-129v426h123q82 125 135 352q54 236 103 700l36 342h789zM324 119h780v1276h-537l-18 -187q-55 -500 -103 -721q-53 -244 -122 -368z" />
    <glyph glyph-name="uni0416.ss01" horiz-adv-x="1714" 
d="M1729 0h-160l-637 707h-12v-707h-125v707h-11l-639 -707h-157l700 784l-645 729h152l600 -669v669h125v-669l602 669h151l-647 -727z" />
    <glyph glyph-name="uni041B.ss01" horiz-adv-x="1423" 
d="M113 -6q-55 0 -88 10l-7 125q52 -10 74 -10q129 0 217 162q83 150 127 437.5t76 794.5h705v-1513h-127v1391h-461q-14 -264 -31 -439q-17 -172 -57 -366q-39 -202 -107 -344q-117 -248 -321 -248z" />
    <glyph glyph-name="uni0424.ss01" horiz-adv-x="1880" 
d="M1004 76v-240h-125v240q-357 9 -572 194q-213 186 -213 488q0 303 213 489q214 184 572 193v237h125v-237q350 -9 565 -197q217 -184 217 -485t-217 -488q-215 -185 -565 -194zM223 758q0 -256 178 -406t478 -159v1128q-301 -9 -478 -158q-178 -150 -178 -405zM1004 1321
v-1128q292 9 473 161q180 149 180 404q0 254 -180 403q-180 151 -473 160z" />
    <glyph glyph-name="uni042A.ss01" horiz-adv-x="1495" 
d="M535 930h389q137 0 241 -45t160 -121q102 -139 102 -305q0 -185 -127 -324q-126 -135 -376 -135h-514v1395h-377v118h502v-583zM535 119h368q183 0 289 96t106 254q0 156 -102 250t-278 94h-383v-694z" />
    <glyph glyph-name="uni042C.ss01" horiz-adv-x="1292" 
d="M332 930h389q137 0 241 -45t160 -121q103 -140 103 -305q0 -185 -127 -324q-126 -135 -377 -135h-514v1513h125v-583zM332 119h368q184 0 290 96.5t106 253.5q0 156 -102 250t-279 94h-383v-694z" />
    <glyph glyph-name="uni0431.ss01" horiz-adv-x="1337" 
d="M709 1073q215 0 374 -147q160 -148 160 -402q0 -232 -156 -391q-154 -160 -393 -160q-150 0 -266 62.5t-184 171.5q-129 213 -129 485q0 192 47 338q50 147 119 221q74 84 184 140q112 60 213 88l240 65q154 43 231 76v-123q-83 -33 -221 -74l-211 -55q-99 -25 -180 -65
q-96 -47 -154 -105q-60 -60 -103.5 -169.5t-54.5 -252.5q63 153 199 223q139 74 285 74zM694 86q182 0 303 127q123 126 123 313q0 186 -121 310q-119 125 -297 125q-184 0 -311 -121t-127 -303q0 -187 121 -320q122 -131 309 -131z" />
    <glyph glyph-name="uni0432.ss01" horiz-adv-x="1136" 
d="M827 600q101 -26 158 -104t57 -179q0 -128 -92 -223q-91 -94 -258 -94h-526v1096h481q159 0 247.5 -78.5t88.5 -194.5q0 -78 -42 -138t-114 -85zM653 985h-366v-344h391q84 0 135 50.5t51 125.5q0 76 -55 122t-156 46zM287 111h399q105 0 169.5 59t64.5 152
q0 94 -62.5 152t-169.5 58h-401v-421z" />
    <glyph glyph-name="uni0433.ss01" horiz-adv-x="847" 
d="M166 1096h655v-109h-532v-987h-123v1096z" />
    <glyph glyph-name="uni0434.ss01" horiz-adv-x="1228" 
d="M1028 1096v-987h125v-355h-123v244h-878v-244h-121v355h116q62 89 103 247q38 149 80 478l35 262h663zM473 983l-14 -123q-68 -573 -174 -751h622v874h-434z" />
    <glyph glyph-name="uni0436.ss01" horiz-adv-x="1415" 
d="M1415 0h-149l-492 504l-10 6v-510h-113v502l-12 -10l-4 4l-485 -496h-150l559 575l-528 521h141l479 -463v463h113v-463l479 463h141l-526 -521z" />
    <glyph glyph-name="uni0437.ss01" horiz-adv-x="1001" 
d="M461 -25q-211 0 -406 115l49 98q178 -102 353 -102q147 0 237 61.5t90 161.5q0 92 -73.5 145.5t-206.5 53.5h-246v110h176q150 0 234 58t84 149q0 85 -77 135t-200 50q-178 0 -334 -105l-57 90q171 127 395 127q170 0 283 -84q110 -82 110 -207q0 -87 -58 -154t-163 -99
v-5q119 -18 187.5 -94.5t68.5 -181.5q0 -143 -125 -231q-126 -91 -321 -91z" />
    <glyph glyph-name="uni0438.ss01" horiz-adv-x="1292" 
d="M238 0h-72v1096h121v-885l766 885h71v-1096h-118v887z" />
    <glyph glyph-name="uni0439.ss01" horiz-adv-x="1292" 
d="M657 1178q-207 0 -350 180l66 72q129 -152 284.5 -152t284.5 152l70 -72q-152 -180 -355 -180zM238 0h-72v1096h121v-885l766 885h71v-1096h-118v887z" />
    <glyph glyph-name="uni043A.ss01" horiz-adv-x="1040" 
d="M1047 0h-158l-459 545l-141 -133v-412h-123v1096h123v-537l547 537h165l-487 -469z" />
    <glyph glyph-name="uni043B.ss01" horiz-adv-x="1210" 
d="M125 -6q-48 0 -72 8l-24 100q46 -6 67 -6q107 0 178 109q69 104 107 309.5t70 581.5h593v-1096h-122v989h-363q-23 -223 -35 -311q-12 -108 -49 -262q-34 -154 -88 -248q-94 -174 -262 -174z" />
    <glyph glyph-name="uni043F.ss01" horiz-adv-x="1208" 
d="M166 1096h874v-1096h-122v987h-629v-987h-123v1096z" />
    <glyph glyph-name="uni0442.ss01" horiz-adv-x="966" 
d="M29 1096h909v-109h-393v-987h-123v987h-393v109z" />
    <glyph glyph-name="uni0444.ss01" horiz-adv-x="1619" 
d="M1528 547q0 -256 -180 -408q-182 -153 -482 -162v-294h-114v294q-302 6 -482 160q-178 156 -178 412q0 257 180 412t480 161v293h114v-293q300 -9 480 -164q182 -156 182 -411zM211 551q0 -213 145.5 -337t395.5 -130v930q-251 -6 -396 -129.5t-145 -333.5zM866 1014
v-930q249 5 396 129t147 338q0 210 -145 333.5t-398 129.5z" />
    <glyph glyph-name="uni0446.ss01" horiz-adv-x="1251" 
d="M1204 -369h-125v369h-913v1112h127v-999h616v999h127v-999h168v-482z" />
    <glyph glyph-name="uni0448.ss01" horiz-adv-x="1779" 
d="M1612 0h-1446v1112h127v-999h532v999h127v-999h533v999h127v-1112z" />
    <glyph glyph-name="uni0449.ss01" horiz-adv-x="1828" 
d="M1612 1112v-999h174v-482h-125v369h-1495v1112h127v-999h532v999h127v-999h533v999h127z" />
    <glyph glyph-name="uni044A.ss01" horiz-adv-x="1210" 
d="M428 690h315q90 0 162 -22t116.5 -56.5t74 -81t41.5 -92.5t12 -94q0 -142 -102 -244q-100 -100 -304 -100h-438v987h-272v109h395v-406zM428 109h299q145 0 222 65t77 176q0 102 -76 166t-209 64h-313v-471z" />
    <glyph glyph-name="uni044C.ss01" horiz-adv-x="1101" 
d="M289 690h346q90 0 162 -22t116.5 -56.5t74 -81t41 -92.5t11.5 -94q0 -142 -102 -244q-100 -100 -303 -100h-469v1096h123v-406zM289 109h329q145 0 222.5 65t77.5 176q0 102 -76 166t-209 64h-344v-471z" />
    <glyph glyph-name="uni044E.ss01" horiz-adv-x="1699" 
d="M1038 1122q245 0 408 -166q162 -165 162 -407q0 -245 -162 -410q-163 -166 -408 -166q-232 0 -391 150q-158 152 -176 375h-182v-498h-123v1096h123v-490h182q21 221 178 369q159 147 389 147zM1485 549q0 193 -129 325q-127 136 -318 136q-189 0 -319 -136
q-127 -133 -127 -325q0 -194 127 -330q130 -133 319 -133q191 0 318 133q129 135 129 330z" />
    <glyph glyph-name="yen.osf" horiz-adv-x="876" 
d="M778 1190h125l-354 -617h268v-94h-317v-112h317v-97h-317v-270h-119v270h-320v97h320v112h-320v94h277l-354 617h125l333 -592z" />
    <glyph glyph-name="zero.dnom" horiz-adv-x="753" 
d="M559 55q-74 -65 -182 -65q-104 0 -179 62.5t-106 158.5q-27 99 -29 200t30.5 199t101.5 156q74 65 182 65q104 0 179 -62.5t106 -158.5q30 -95 32 -198t-32 -201t-103 -156zM221 178q52 -88 156 -88q101 0 153 88q54 91 54 234q0 140 -54 231q-52 88 -153 88
q-104 0 -156 -88q-51 -86 -51 -231q0 -148 51 -234z" />
    <glyph glyph-name="zero.lf" horiz-adv-x="1357" 
d="M678 -25q-146 0 -261 69t-179 189q-123 231 -123 525t123 522q64 121 179 190.5t261 69.5q149 0 263 -69.5t177 -190.5q123 -228 123 -522t-123 -525q-63 -120 -177 -189t-263 -69zM678 92q207 0 321 182q115 183 115 484q0 298 -115 481q-114 184 -321 184
q-208 0 -322 -184q-112 -178 -112 -481t112 -484q114 -182 322 -182z" />
    <glyph glyph-name="zero.num" horiz-adv-x="753" 
d="M559 764q-75 -66 -182 -66q-104 0 -179 63t-106 159q-27 99 -29 200t30.5 199t101.5 156q74 65 182 65q104 0 179 -62t106 -159q30 -95 32 -198t-32 -201t-103 -156zM221 887q52 -88 156 -88q101 0 153 88q54 91 54 233q0 141 -54 232q-52 88 -153 88q-104 0 -156 -88
q-51 -86 -51 -232q0 -147 51 -233z" />
    <glyph glyph-name="zero.osf" horiz-adv-x="1191" 
d="M596 -25q-102 0 -185 36.5t-137 97t-90.5 141.5t-52.5 166.5t-16 175.5t16 174.5t52.5 165.5t90.5 141t137 96.5t185 36.5q103 0 186.5 -36.5t137 -96.5t90 -141t52 -165.5t15.5 -174.5t-15.5 -175t-52 -166.5t-90 -142t-137 -97t-186.5 -36.5zM596 88q173 0 264 137
q92 139 92 367t-92 364q-92 138 -262 138q-168 0 -262 -136t-94 -366q0 -231 94 -367.5t260 -136.5z" />
    <glyph glyph-name="zero.slash" horiz-adv-x="1357" 
d="M678 1540q149 0 263 -69.5t177 -190.5q123 -228 123 -522t-123 -525q-63 -120 -177 -189t-263 -69q-146 0 -261 69t-179 189q-123 231 -123 525t123 522q64 121 179 190.5t261 69.5zM678 1427q-212 0 -326 -184q-112 -181 -112 -485q0 -244 77 -418l668 932
q-116 155 -307 155zM678 88q212 0 326 182q114 185 114 488q0 236 -71 407l-666 -932q115 -145 297 -145z" />
    <glyph glyph-name="zero.tf" horiz-adv-x="1171" 
d="M834 45q-107 -70 -248 -70q-143 0 -250 70q-182 124 -252 438q-61 277 0 547q70 319 252 438q110 72 250 72q138 0 248 -72q189 -120 253 -436q29 -130 29 -274.5t-29 -274.5q-63 -312 -253 -438zM993 758q0 303 -106 481q-105 184 -301 184q-195 0 -303 -184
q-105 -181 -105 -481t105 -484q108 -182 303 -182q196 0 301 182q106 178 106 484z" />
    </font>
</defs>
</svg>
