<?xml version="1.0" standalone="no"?>
<!DOCTYPE svg PUBLIC "-//W3C//DTD SVG 1.1//EN" "http://www.w3.org/Graphics/SVG/1.1/DTD/svg11.dtd" >
<svg xmlns="http://www.w3.org/2000/svg" xmlns:xlink="http://www.w3.org/1999/xlink" version="1.1">
<metadata>
Created by FontForge 20170731 at Tue Jun  8 08:01:14 2021
 By Aleksey,,,
Copyright (c) 2017 by Kastelov. All rights reserved.
</metadata>
<defs>
<font id="Axiforma-Medium" horiz-adv-x="1265" >
  <font-face 
    font-family="Axiforma Medium"
    font-weight="500"
    font-stretch="normal"
    units-per-em="2048"
    panose-1="0 0 6 0 0 0 0 0 0 0"
    ascent="1579"
    descent="-469"
    x-height="1102"
    cap-height="1513"
    bbox="-877 -672 2615 2085"
    underline-thickness="102"
    underline-position="-307"
    unicode-range="U+000D-25CA"
  />
<missing-glyph horiz-adv-x="266" 
 />
    <glyph glyph-name="f_b" unicode="fb" horiz-adv-x="2207" 
d="M240 1104v55q0 202 103 314t282 112q143 0 264 -65l-66 -181q-96 41 -164 41q-94 0 -144 -55.5t-50 -161.5v-59h350v-193h-350v-911h-225v911h-185v193h185zM1577 1130q239 0 393 -167q158 -172 158 -412t-158 -412q-156 -166 -395 -166q-229 0 -373 185v-158h-223v1552
h225v-608q146 186 373 186zM1546 184q158 0 252 107q98 107 98 262t-98 262q-94 107 -252 107q-156 0 -256 -109q-96 -110 -96 -260q0 -152 96 -262q98 -107 256 -107z" />
    <glyph glyph-name="f_f" unicode="ff" horiz-adv-x="1619" 
d="M1477 1380q-106 0 -165 -56.5t-59 -160.5v-59h349v-193h-349v-911h-225v911h-563v-911h-225v911h-185v193h185v63q0 200 123 310t333 108q166 0 320 -80l-76 -180q-137 55 -221 55q-118 0 -186 -57t-68 -160v-59h563v63q0 198 114 308t306 110q141 0 268 -65l-71 -183
q-101 43 -168 43z" />
    <glyph glyph-name="f_f_i" unicode="ffi" horiz-adv-x="2154" 
d="M1448 1380q-195 0 -195 -217v-59h396v-193h-396v-911h-225v911h-563v-911h-225v911h-185v193h185v63q0 198 123 308t331 110q164 0 324 -80l-78 -182q-132 57 -223 57q-116 0 -184 -57.5t-68 -159.5v-59h563v55q0 202 105 314t284 112q143 0 264 -65l-69 -181
q-96 41 -164 41zM1898 1251q-66 0 -109.5 44t-43.5 110q0 63 43.5 106t109.5 43q63 0 107.5 -43t44.5 -106q0 -65 -44 -109.5t-108 -44.5zM2009 0h-225v1104h225v-1104z" />
    <glyph glyph-name="f_f_j" unicode="ffj" horiz-adv-x="2154" 
d="M1622 1104v-193h-369v-911h-227v911h-561v-911h-225v911h-185v193h185v63q0 198 123 308t331 110q169 0 320 -80l-74 -182q-132 57 -223 57q-116 0 -184 -57.5t-68 -159.5v-59h561v55q0 202 105 314t286 112q143 0 264 -65l-69 -181q-96 41 -164 41q-195 0 -195 -217v-59
h369zM1898 1251q-66 0 -110.5 44t-44.5 110q0 63 44.5 106t110.5 43q63 0 107.5 -43t44.5 -106q0 -65 -44 -109.5t-108 -44.5zM1782 -43v1147h227v-1143q0 -207 -103 -319.5t-280 -112.5q-145 0 -215 49l43 184q86 -28 139 -28q189 0 189 223z" />
    <glyph glyph-name="f_h" unicode="fh" horiz-adv-x="2111" 
d="M240 1104v55q0 202 103.5 314t283.5 112q141 0 262 -65l-66 -181q-96 41 -164 41q-94 0 -144 -55.5t-50 -161.5v-59h350v-193h-350v-911h-225v911h-185v193h185zM1548 1133q182 0 307 -119t125 -342v-672h-225v608q0 150 -71.5 233t-192.5 83q-127 0 -207 -88.5
t-80 -229.5v-606h-225v1552h219v-587q51 77 143 122.5t207 45.5z" />
    <glyph glyph-name="f_i" unicode="fi" horiz-adv-x="1366" 
d="M240 1104v55q0 202 105 314t284 112q143 0 264 -65l-70 -181q-96 41 -164 41q-94 0 -144 -55.5t-50 -161.5v-59h350v-193h-350v-911h-225v911h-185v193h185zM956 1403q0 63 44 107t110 44q65 0 108.5 -43.5t43.5 -107.5q0 -66 -43 -110t-109 -44t-110 44t-44 110zM1221 0
h-226v1104h226v-1104z" />
    <glyph glyph-name="f_j" unicode="fj" horiz-adv-x="1366" 
d="M834 1104v-193h-369v-911h-225v911h-185v193h185v55q0 202 105 314t284 112q143 0 264 -65l-70 -181q-96 41 -164 41q-94 0 -144 -55.5t-50 -161.5v-59h369zM956 1403q0 63 44 107t110 44q65 0 108.5 -43.5t43.5 -107.5q0 -66 -43 -110t-109 -44t-110 44t-44 110z
M995 -43v1147h226v-1143q0 -210 -101.5 -321t-281.5 -111q-139 0 -215 49l45 184q86 -28 139 -28q188 0 188 223z" />
    <glyph glyph-name="f_k" unicode="fk" horiz-adv-x="1974" 
d="M240 1104v55q0 202 103 314t282 112q143 0 264 -65l-66 -181q-96 41 -164 41q-94 0 -144 -55.5t-50 -161.5v-59h350v-193h-350v-911h-225v911h-185v193h185zM1989 0h-291l-398 502l-96 -88v-414h-225v1552h225v-874l465 426h297l-508 -459z" />
    <glyph glyph-name="f_l" unicode="fl" horiz-adv-x="1349" 
d="M240 1104v55q0 205 100.5 315.5t280.5 110.5q135 0 262 -65l-60 -181q-96 41 -164 41q-94 0 -144 -55.5t-50 -161.5v-59h350v-193h-350v-911h-225v911h-185v193h185zM979 0v1552h225v-1552h-225z" />
    <glyph glyph-name=".notdef" horiz-adv-x="266" 
 />
    <glyph glyph-name=".null" horiz-adv-x="0" 
 />
    <glyph glyph-name="nonmarkingreturn" horiz-adv-x="682" 
 />
    <glyph glyph-name="CR.001" horiz-adv-x="266" 
 />
    <glyph glyph-name="CR.001" horiz-adv-x="266" 
 />
    <glyph glyph-name="CR" unicode="&#xd;" horiz-adv-x="681" 
 />
    <glyph glyph-name="space" unicode=" " horiz-adv-x="505" 
 />
    <glyph glyph-name="exclam" unicode="!" horiz-adv-x="616" 
d="M420 385h-221l-11 1141h244zM313 -25q-62 0 -103.5 41.5t-41.5 102.5q0 60 41.5 99.5t103.5 39.5q60 0 100 -39.5t40 -99.5q0 -62 -40 -103t-100 -41z" />
    <glyph glyph-name="quotedbl" unicode="&#x22;" horiz-adv-x="1013" 
d="M299 901h-213l172 610h268zM750 901h-213l172 610h268z" />
    <glyph glyph-name="numbersign" unicode="#" horiz-adv-x="1468" 
d="M1401 1124l-37 -188h-215l-66 -338h217l-34 -186h-217l-78 -412h-215l80 412h-326l-80 -412h-217l82 412h-225l34 186h228l65 338h-229l37 188h229l78 389h211l-76 -389h326l76 389h208l-73 -389h217zM547 598h325l64 338h-326z" />
    <glyph glyph-name="dollar" unicode="$" horiz-adv-x="1173" 
d="M1092 418q0 -170 -111 -287q-109 -115 -283 -145v-215h-186v209q-146 18 -265 96.5t-186 210.5l170 147q56 -113 150 -173t201 -60q114 0 181.5 58t67.5 147q0 112 -147 192l-145 70q-130 63 -177 96q-221 144 -221 360q0 161 105 275q108 114 280 135v192h187v-194
q209 -38 346 -209l-148 -158q-133 154 -303 154q-95 0 -156 -50t-61 -134q0 -104 139 -187q37 -22 164 -86q152 -74 187 -96q211 -132 211 -348z" />
    <glyph glyph-name="percent" unicode="%" horiz-adv-x="1818" 
d="M727 901q-114 -108 -272 -108q-161 0 -275 108q-112 109 -112 264q0 156 112 265q113 110 275 110q159 0 272 -110t113 -265q0 -154 -113 -264zM461 0h-228l1110 1513h232zM455 958q87 0 147 60t60 147t-60 147t-147 60q-88 0 -148.5 -59.5t-60.5 -147.5t60.5 -147.5
t148.5 -59.5zM1364 -25q-159 0 -274 109q-113 107 -113 262q0 154 113 264q114 111 274 111q158 0 272 -111q115 -112 115 -264q0 -153 -115 -262t-272 -109zM1573 346q0 90 -60.5 149.5t-148.5 59.5t-148.5 -59.5t-60.5 -149.5q0 -86 61 -145.5t148 -59.5t148 59.5
t61 145.5z" />
    <glyph glyph-name="ampersand" unicode="&#x26;" horiz-adv-x="1431" 
d="M1190 330l235 -207l-125 -143l-237 210q-223 -210 -481 -210q-215 0 -359 129q-143 128 -143 315q0 276 274 440q-88 131 -88 283q0 160 117 274q121 115 291 115q145 0 254 -92q106 -90 106 -230q12 -129 -121 -249q-31 -28 -86 -60q-17 -10 -34 -19.5t-31.5 -17
t-20.5 -10.5q-8 -4 -21.5 -10.5t-35.5 -17t-41 -19.5q5 -4 26 -23.5t43 -39.5t36 -31l301 -262q78 97 149 213l148 -119q-89 -141 -156 -219zM666 1368q-86 0 -144.5 -63.5t-58.5 -157.5q0 -111 57 -197l98 45q10 4 37 19t41 22q51 26 74 49q59 68 59 125q0 68 -46 113
t-117 45zM602 172q164 0 320 147l-338 302q-57 50 -107 100q-174 -116 -174 -283q0 -112 84 -190q85 -76 215 -76z" />
    <glyph glyph-name="quotesingle" unicode="'" horiz-adv-x="561" 
d="M297 901h-213l172 610h268z" />
    <glyph glyph-name="parenleft" unicode="(" horiz-adv-x="819" 
d="M805 -279l-100 -172q-300 159 -462.5 433.5t-162.5 619.5q0 348 162.5 622t466.5 433l96 -174q-479 -314 -479 -881q0 -558 479 -881z" />
    <glyph glyph-name="parenright" unicode=")" horiz-adv-x="819" 
d="M113 -451l-99 172q480 324 480 881q0 567 -480 881l95 174q305 -161 467.5 -434.5t162.5 -620.5q0 -346 -162.5 -619.5t-463.5 -433.5z" />
    <glyph glyph-name="asterisk" unicode="*" horiz-adv-x="958" 
d="M481 1020l-194 -240l-131 111l192 221l-272 121l74 156l249 -125l-6 295h174l-6 -295l252 125l70 -156l-271 -121l191 -221l-133 -111z" />
    <glyph glyph-name="plus" unicode="+" horiz-adv-x="1124" 
d="M670 819h385v-213h-385v-385l-213 -4v389h-389v213h389v387h213v-387z" />
    <glyph glyph-name="comma" unicode="," horiz-adv-x="509" 
d="M252 246q66 0 110 -47t44 -119q0 -189 -275 -369l-70 96q149 114 177 170h-9q-51 0 -88 37.5t-37 91.5q0 57 44 98.5t104 41.5z" />
    <glyph glyph-name="hyphen" unicode="-" horiz-adv-x="1069" 
d="M938 461h-807v213h807v-213z" />
    <glyph glyph-name="period" unicode="." horiz-adv-x="485" 
d="M244 -33q-62 0 -104 41.5t-42 102.5q0 60 42 100.5t104 40.5q60 0 100.5 -40.5t40.5 -100.5q0 -61 -40.5 -102.5t-100.5 -41.5z" />
    <glyph glyph-name="slash" unicode="/" horiz-adv-x="1284" 
d="M270 -252h-231l973 1942h231z" />
    <glyph glyph-name="zero" unicode="0" horiz-adv-x="1396" 
d="M973 43q-121 -68 -275 -68q-153 0 -274 68q-210 120 -291 430q-31 140 -31 285.5t31 282.5t105.5 252t185.5 180q119 67 274 67q156 0 275 -67q215 -119 289 -431q35 -135 35 -284.5t-35 -284.5q-74 -311 -289 -430zM698 197q183 0 271 155q90 159 90 406q0 244 -90 403
q-90 158 -271 158q-180 0 -270 -158q-88 -155 -88 -403q-2 -159 34 -282t119 -200t205 -79z" />
    <glyph glyph-name="one" unicode="1" horiz-adv-x="811" 
d="M4 1149l440 364h183v-1513h-234v1196l-262 -213z" />
    <glyph glyph-name="two" unicode="2" horiz-adv-x="1159" 
d="M807 625l-373 -408h625v-217h-959v197l482 512l114 127q42 49 76.5 120t34.5 129q0 103 -73.5 169.5t-180.5 66.5q-176 0 -358 -170l-129 168q226 221 497 221q209 0 342 -127q135 -126 135 -330q0 -207 -233 -458z" />
    <glyph glyph-name="three" unicode="3" horiz-adv-x="1140" 
d="M512 -25q-247 0 -475 150l104 190q192 -122 363 -122q132 0 210.5 65t78.5 170q0 106 -80 173t-207 67h-189v213h181q119 0 192.5 61.5t73.5 161.5q0 98 -72 157.5t-180 59.5q-151 0 -322 -127l-118 166q84 84 208 132t255 48q202 0 335 -115q134 -116 134 -282
q0 -120 -72 -213.5t-189 -130.5v-8q138 -32 216.5 -132t78.5 -241q0 -194 -147 -320q-144 -123 -379 -123z" />
    <glyph glyph-name="four" unicode="4" horiz-adv-x="1230" 
d="M981 573h168v-202h-168v-371h-225v371h-693l-47 147l815 995h150v-940zM756 1120l-447 -547h447v547z" />
    <glyph glyph-name="five" unicode="5" horiz-adv-x="1183" 
d="M596 983q217 0 362 -139q146 -140 146 -357q0 -223 -154 -368q-150 -144 -393 -144q-270 0 -491 179l104 184q192 -145 379 -145q140 0 229 83q88 82 88 209q0 122 -86 205q-85 82 -217 82q-160 0 -270 -113l-148 99l84 755h772v-213h-591l-45 -368q105 51 231 51z" />
    <glyph glyph-name="six" unicode="6" horiz-adv-x="1271" 
d="M707 977q205 0 344 -139q137 -137 137 -349q0 -220 -150 -364q-146 -143 -376 -143q-109 0 -201 37.5t-159 104.5t-113 158t-67.5 200t-19.5 229q0 215 66 401q64 183 213 305q150 123 358 123q233 0 396 -129l-101 -176q-131 98 -280 98q-135 0 -238 -92
q-183 -169 -186 -473q51 98 150.5 153.5t226.5 55.5zM664 188q123 0 206 86q84 87 84 213q0 123 -84 207q-82 82 -204 82q-127 0 -209 -82q-84 -84 -84 -209q0 -124 84 -211q83 -86 207 -86z" />
    <glyph glyph-name="seven" unicode="7" horiz-adv-x="1044" 
d="M43 1300v213h963v-149l-574 -1364h-250l559 1300h-698z" />
    <glyph glyph-name="eight" unicode="8" horiz-adv-x="1286" 
d="M645 -25q-244 0 -397 123q-154 124 -154 312q0 128 80 235t213 156v4q-107 52 -168 140t-61 196q0 172 135 286q134 113 352 113q217 0 348 -113q135 -114 135 -286q0 -109 -61 -197.5t-170 -138.5v-6q134 -47 214.5 -154t80.5 -235q0 -188 -154 -312
q-150 -123 -393 -123zM905 1118q0 99 -72 162t-190 63t-192 -63t-74 -162q0 -98 73 -161.5t193 -63.5q119 0 190.5 63t71.5 162zM645 182q136 0 224.5 72.5t88.5 185.5q0 110 -87 180t-228 70t-228 -70t-87 -180q0 -113 88.5 -185.5t228.5 -72.5z" />
    <glyph glyph-name="nine" unicode="9" horiz-adv-x="1263" 
d="M610 1540q269 0 410 -203q141 -200 141 -532q0 -133 -22 -253t-71 -226.5t-120.5 -183.5t-176 -122t-232.5 -45q-246 0 -402 129l88 181q142 -103 303 -103q198 0 301 158q102 156 111 397q-56 -89 -157 -141.5t-222 -52.5q-208 0 -342 137q-135 138 -135 350
q0 221 147 365q148 145 379 145zM893 1034q0 126 -84 213q-82 88 -203 88q-126 0 -209 -86q-84 -87 -84 -215q0 -125 82.5 -208t206.5 -83q125 0 207 82q84 84 84 209z" />
    <glyph glyph-name="colon" unicode=":" horiz-adv-x="544" 
d="M272 717q-62 0 -103.5 41t-41.5 102q0 60 41.5 100.5t103.5 40.5q60 0 101 -40.5t41 -100.5q0 -61 -41 -102t-101 -41zM272 -33q-62 0 -103.5 41.5t-41.5 102.5q0 60 41.5 100.5t103.5 40.5q60 0 101 -40.5t41 -100.5q0 -61 -41 -102.5t-101 -41.5z" />
    <glyph glyph-name="semicolon" unicode=";" horiz-adv-x="595" 
d="M305 715q-62 0 -104.5 42t-42.5 103q0 60 42.5 100.5t104.5 40.5q60 0 102 -40.5t42 -100.5q0 -61 -42 -103t-102 -42zM299 246q66 0 110 -47t44 -119q0 -189 -275 -369l-69 96q147 113 176 170h-9q-51 0 -87.5 37.5t-36.5 91.5q0 57 43.5 98.5t103.5 41.5z" />
    <glyph glyph-name="less" unicode="&#x3c;" horiz-adv-x="1161" 
d="M1018 346v-233l-950 460v201l950 463v-231l-709 -330z" />
    <glyph glyph-name="equal" unicode="=" horiz-adv-x="1224" 
d="M1085 758h-946v196h946v-196zM1085 387h-946v197h946v-197z" />
    <glyph glyph-name="greater" unicode="&#x3e;" horiz-adv-x="1116" 
d="M1055 573l-930 -483v234l655 329l-655 328v233l930 -485v-156z" />
    <glyph glyph-name="question" unicode="?" horiz-adv-x="1073" 
d="M569 360h-215v146q0 77 39 149t101 127q13 11 44 37l46.5 39t42.5 38.5t41.5 42t33.5 42t28.5 47t16.5 48t7 52.5q0 99 -71.5 163.5t-180.5 64.5q-157 0 -309 -168l-140 158q85 104 208.5 163.5t256.5 59.5q197 0 332 -123q137 -119 137 -307q0 -89 -41 -171t-106 -141
q-22 -20 -72 -61t-76.5 -66t-59.5 -60.5t-48 -70t-15 -69.5v-140zM467 -25q-62 0 -105 41.5t-43 102.5q0 59 43 99t105 40q58 0 98.5 -40t40.5 -99q0 -61 -40.5 -102.5t-98.5 -41.5z" />
    <glyph glyph-name="at" unicode="@" horiz-adv-x="1988" 
d="M1243 903v98h178v-552q0 -66 30.5 -105t76.5 -39q84 0 149 105q64 104 64 262q0 281 -211 477q-212 200 -512 197q-309 -3 -524 -224t-215 -536q0 -314 225 -539q223 -223 553 -223q319 0 561 196l90 -141q-114 -97 -291 -160q-177 -68 -374.5 -66.5t-374.5 75.5
q-259 103 -416.5 338t-159.5 518q0 383 268 657q272 275 654 275q376 0 641 -250q266 -248 266 -592q0 -230 -123 -383q-125 -152 -299 -152q-88 0 -149 44.5t-86 115.5q-115 -160 -320 -160q-176 0 -297 127t-121 318q0 187 121 317q122 131 303 131q188 0 293 -129z
M1243 582q0 120 -76 202t-188 82q-114 0 -191 -80q-75 -78 -75 -200q0 -119 75 -200t187 -81q113 0 190 80q78 81 78 197z" />
    <glyph glyph-name="A" unicode="A" horiz-adv-x="1394" 
d="M1372 0h-254l-143 373h-557l-144 -373h-254l603 1513h153zM903 590l-205 549l-204 -549h409z" />
    <glyph glyph-name="B" unicode="B" horiz-adv-x="1388" 
d="M1016 827q136 -36 211.5 -143t75.5 -248q0 -177 -127 -307q-126 -129 -347 -129h-645v1513h617q200 0 309 -112q113 -113 113 -264q0 -103 -57 -189t-150 -121zM766 1298h-348v-391h340q102 0 163.5 59t61.5 144q0 80 -59.5 134t-157.5 54zM418 215h370q121 0 195 70
t74 170q0 104 -73 173.5t-202 69.5h-364v-483z" />
    <glyph glyph-name="C" unicode="C" horiz-adv-x="1583" 
d="M868 -23q-327 0 -553 218q-225 217 -225 557q0 346 229 565q229 223 555 223q201 0 379 -90q173 -87 273 -236l-168 -151q-187 248 -477 248q-229 0 -389 -160q-158 -161 -158 -399q0 -242 155 -394q156 -153 390 -153q299 0 487 246l168 -148q-108 -149 -284.5 -237.5
t-381.5 -88.5z" />
    <glyph glyph-name="D" unicode="D" horiz-adv-x="1560" 
d="M737 0h-553v1513h572q330 0 516 -204q190 -205 190 -555q0 -348 -194 -551t-531 -203zM420 1288v-1063h328q221 0 344 150q125 149 125 385q0 230 -125 379q-122 149 -342 149h-330z" />
    <glyph glyph-name="E" unicode="E" 
d="M1153 0h-969v1513h967v-223h-731v-411h678v-224h-678v-432h733v-223z" />
    <glyph glyph-name="F" unicode="F" horiz-adv-x="1191" 
d="M420 0h-236v1513h953v-227h-717v-414h624v-225h-624v-647z" />
    <glyph glyph-name="G" unicode="G" horiz-adv-x="1660" 
d="M870 -23q-336 0 -559 220q-221 221 -221 559q0 342 229 561q229 223 562 223q187 0 353.5 -72.5t270.5 -195.5l-162 -160q-181 199 -460 199q-236 0 -394 -158q-157 -157 -157 -397q0 -241 155 -396t390 -155q130 0 251.5 52.5t208.5 143.5v271h-477v213h696v-594
q-282 -314 -686 -314z" />
    <glyph glyph-name="H" unicode="H" horiz-adv-x="1560" 
d="M420 0h-236v1513h236v-628h721v628h235v-1513h-235v657h-721v-657z" />
    <glyph glyph-name="I" unicode="I" horiz-adv-x="604" 
d="M184 0v1513h236v-1513h-236z" />
    <glyph glyph-name="J" unicode="J" horiz-adv-x="1161" 
d="M467 -25q-272 0 -447 193l134 176q122 -143 305 -143q135 0 215 86.5t80 238.5v987h237v-997q0 -263 -147 -401q-146 -140 -377 -140z" />
    <glyph glyph-name="K" unicode="K" horiz-adv-x="1382" 
d="M1407 0h-291l-495 643l-201 -240v-403h-236v1513h236v-788l655 788h283l-584 -704z" />
    <glyph glyph-name="L" unicode="L" horiz-adv-x="1247" 
d="M1219 0h-1035v1513h236v-1286h799v-227z" />
    <glyph glyph-name="M" unicode="M" horiz-adv-x="1894" 
d="M418 0h-234v1513h129l635 -927l631 927h133v-1513h-237v969l-494 -721h-70l-493 721v-969z" />
    <glyph glyph-name="N" unicode="N" horiz-adv-x="1607" 
d="M1190 479v1034h233v-1513h-139l-866 1026v-1026h-234v1513h123z" />
    <glyph glyph-name="O" unicode="O" horiz-adv-x="1746" 
d="M866 -25q-331 0 -555 224q-223 223 -223 551q0 330 229 559q231 231 555 231q329 0 558 -229t229 -555q0 -327 -229 -553q-231 -228 -564 -228zM872 207q228 0 383 155q158 158 158 392q0 237 -158 395t-383 158q-226 0 -383 -160q-155 -155 -155 -393q0 -233 153 -389
q158 -158 385 -158z" />
    <glyph glyph-name="P" unicode="P" 
d="M184 1513h523q248 0 374 -141q129 -138 129 -338q0 -197 -133 -336q-131 -137 -391 -137h-266v-561h-236v1513zM420 778h272q131 0 205 74.5t74 185.5q0 110 -68 182t-186 72h-297v-514z" />
    <glyph glyph-name="Q" unicode="Q" horiz-adv-x="1746" 
d="M1636 -39l31 -197q-101 -43 -235 -43q-307 0 -527 254h-31q-327 3 -557 230q-229 229 -229 553t229 553t557 229q327 0 556 -229t229 -553q0 -244 -135 -443q-133 -197 -355 -284q120 -105 279 -105q88 0 188 35zM334 754q0 -239 155 -394t385 -155q228 0 383 155
q158 158 158 394q0 237 -158 395q-157 160 -383 160q-228 0 -385 -160q-155 -155 -155 -395z" />
    <glyph glyph-name="R" unicode="R" horiz-adv-x="1335" 
d="M1274 0h-285l-368 594h-201v-594h-236v1513h535q236 0 362 -135q127 -136 127 -325q0 -154 -89 -274t-249 -163zM719 1290h-299v-477h262q137 0 210 67t73 175q0 103 -66 169t-180 66z" />
    <glyph glyph-name="S" unicode="S" horiz-adv-x="1183" 
d="M584 -25q-169 0 -312 78.5t-223 222.5l160 154q62 -113 160.5 -172t214.5 -59q115 0 186.5 59.5t71.5 147.5q0 114 -150 194q-57 28 -153 68q-129 59 -174 86q-230 137 -230 366q0 180 131 299q133 121 344 121q286 0 461 -217l-145 -162q-126 156 -314 156
q-100 0 -162.5 -50t-62.5 -134q0 -110 127 -181q91 -47 170 -84q108 -48 186 -90q232 -127 232 -360q0 -192 -146 -320q-144 -123 -372 -123z" />
    <glyph glyph-name="T" unicode="T" horiz-adv-x="1181" 
d="M471 0v1284h-442v229h1124v-229h-442v-1284h-240z" />
    <glyph glyph-name="U" unicode="U" horiz-adv-x="1458" 
d="M729 -27q-247 0 -405 146q-156 144 -156 405v989h235v-958q0 -170 85.5 -260t240.5 -90q153 0 238.5 92.5t85.5 257.5v958h237v-989q0 -264 -155 -407q-156 -144 -406 -144z" />
    <glyph glyph-name="V" unicode="V" horiz-adv-x="1470" 
d="M739 389l451 1124h262l-637 -1513h-158l-643 1513h271z" />
    <glyph glyph-name="W" unicode="W" horiz-adv-x="2131" 
d="M694 0h-162l-514 1513h254l346 -1079l383 1079h125l392 -1079l340 1079h253l-512 -1513h-157l-375 1085z" />
    <glyph glyph-name="X" unicode="X" horiz-adv-x="1312" 
d="M297 0h-283l498 766l-471 747h274l342 -567l349 567h282l-489 -747l491 -766h-274l-359 578z" />
    <glyph glyph-name="Y" unicode="Y" horiz-adv-x="1335" 
d="M1038 1513h267l-521 -974v-539h-235v539l-514 974h266l367 -733z" />
    <glyph glyph-name="Z" unicode="Z" horiz-adv-x="1286" 
d="M1214 0h-1148v156l800 1136h-766v221h1092v-159l-786 -1133h808v-221z" />
    <glyph glyph-name="bracketleft" unicode="[" horiz-adv-x="782" 
d="M745 -465h-573v2126h573v-193h-342v-1740h342v-193z" />
    <glyph glyph-name="backslash" unicode="\" horiz-adv-x="1275" 
d="M272 1690l965 -1942h-229l-967 1942h231z" />
    <glyph glyph-name="bracketright" unicode="]" horiz-adv-x="782" 
d="M610 -465h-573v193h342v1740h-342v193h573v-2126z" />
    <glyph glyph-name="asciicircum" unicode="^" horiz-adv-x="1079" 
d="M303 883h-225l393 651h139l391 -651h-223l-237 417z" />
    <glyph glyph-name="underscore" unicode="_" horiz-adv-x="1198" 
d="M1198 -362h-1198v206h1198v-206z" />
    <glyph glyph-name="grave" unicode="`" horiz-adv-x="841" 
d="M348 1618l123 -348h-199l-190 348h266z" />
    <glyph glyph-name="a" unicode="a" horiz-adv-x="1370" 
d="M1008 950v154h217v-1104h-217v152q-150 -179 -377 -179q-240 0 -395 168q-156 169 -156 418q0 247 156 410q154 161 395 161q228 0 377 -180zM662 180q153 0 256 109q100 106 100 264q0 156 -100 262q-103 109 -256 109q-156 0 -256 -109q-99 -108 -99 -264t99 -264
q98 -107 256 -107z" />
    <glyph glyph-name="b" unicode="b" horiz-adv-x="1374" 
d="M743 1130q240 0 394 -167q157 -171 157 -412t-157 -412q-156 -166 -396 -166q-228 0 -372 185v-158h-224v1552h226v-608q146 186 372 186zM713 184q158 0 252 107q98 107 98 262t-98 262q-94 107 -252 107q-156 0 -256 -109q-97 -111 -97 -260q0 -151 97 -262
q98 -107 256 -107z" />
    <glyph glyph-name="c" unicode="c" horiz-adv-x="1228" 
d="M664 -25q-258 0 -420 162q-164 164 -164 414q0 253 166 416t426 163q167 0 304.5 -79t203.5 -215l-187 -105q-52 89 -137 141t-182 52q-158 0 -262 -107q-105 -108 -105 -266q0 -153 103 -262q101 -107 256 -107q98 0 188 53.5t133 135.5l187 -109
q-68 -130 -206.5 -208.5t-303.5 -78.5z" />
    <glyph glyph-name="d" unicode="d" horiz-adv-x="1372" 
d="M999 950v602h228v-1552h-223v154q-144 -181 -371 -181q-239 0 -395 166q-158 172 -158 414q0 241 158 410q154 167 393 167q219 0 368 -180zM1016 553q0 155 -98 262q-100 109 -256 109t-256 -109q-99 -108 -99 -262q0 -158 99 -266q98 -107 256 -107t256 107t98 266z
" />
    <glyph glyph-name="e" unicode="e" horiz-adv-x="1261" 
d="M1186 573q0 -53 -8 -108h-863q26 -134 119 -211.5t248 -77.5q94 0 198 32.5t177 86.5l94 -166q-90 -67 -217 -110.5t-260 -43.5q-120 0 -220 32.5t-168 87.5t-114.5 130t-68 158t-21.5 172q0 249 156 412t407 163q240 0 389 -149q152 -152 152 -408zM645 936
q-127 0 -216 -78.5t-114 -208.5h643q-13 129 -100 208t-213 79z" />
    <glyph glyph-name="f" unicode="f" horiz-adv-x="833" 
d="M692 1380q-110 0 -168.5 -56t-58.5 -161v-59h348v-193h-348v-911h-225v911h-185v193h185v63q0 198 115 309t309 111q140 0 268 -67l-72 -183q-101 43 -168 43z" />
    <glyph glyph-name="g" unicode="g" horiz-adv-x="1372" 
d="M1010 963v141h217v-991q0 -268 -164 -424q-166 -158 -434 -158q-274 0 -494 158l98 174q183 -131 392 -131q175 0 277 97t102 253v80q-144 -164 -371 -164q-242 0 -397 162q-156 164 -156 405q0 246 162 404q161 161 401 161q222 0 367 -167zM662 199q152 0 253 104
t101 260q0 159 -101 260q-103 103 -253 103t-252 -105q-101 -101 -101 -258q0 -158 101 -262q102 -102 252 -102z" />
    <glyph glyph-name="h" unicode="h" horiz-adv-x="1280" 
d="M371 0h-226v1552h220v-587q51 77 143 122.5t207 45.5q182 0 307 -119t125 -342v-672h-225v608q0 150 -72 233t-193 83q-127 0 -206.5 -88.5t-79.5 -229.5v-606z" />
    <glyph glyph-name="i" unicode="i" horiz-adv-x="518" 
d="M264 1249q-66 0 -110.5 44t-44.5 110q0 63 44.5 106t110.5 43q63 0 106.5 -43t43.5 -106q0 -66 -43.5 -110t-106.5 -44zM373 1104v-1104h-226v1104h226z" />
    <glyph glyph-name="j" unicode="j" horiz-adv-x="567" 
d="M309 1249q-66 0 -110.5 44t-44.5 110q0 63 44.5 106t110.5 43q63 0 106.5 -43t43.5 -106q0 -66 -43.5 -110t-106.5 -44zM37 -471q-139 0 -215 49l45 184q86 -28 139 -28q189 0 189 223v1147h225v-1143q0 -210 -101.5 -321t-281.5 -111z" />
    <glyph glyph-name="k" unicode="k" horiz-adv-x="1140" 
d="M1155 0h-291l-397 502l-96 -88v-414h-226v1552h226v-874l465 426h297l-508 -459z" />
    <glyph glyph-name="l" unicode="l" horiz-adv-x="516" 
d="M371 1552v-1552h-226v1552h226z" />
    <glyph glyph-name="m" unicode="m" horiz-adv-x="2013" 
d="M1440 1135q199 0 319 -129q123 -126 123 -347v-659h-225v623q0 144 -67.5 222.5t-184.5 78.5q-124 0 -200.5 -84.5t-76.5 -223.5v-616h-225v618q0 142 -68.5 224t-185.5 82q-124 0 -201 -86t-77 -226v-612h-226v1104h222v-160q50 89 138 140t195 51q112 -2 204.5 -55
t135.5 -148q57 93 165 148t235 55z" />
    <glyph glyph-name="n" unicode="n" horiz-adv-x="1282" 
d="M371 0h-226v1104h222v-156q50 87 141.5 136t208.5 49q182 0 307 -119q127 -121 127 -342v-672h-227v608q0 150 -72 233t-193 83q-127 0 -207.5 -89.5t-80.5 -230.5v-604z" />
    <glyph glyph-name="o" unicode="o" horiz-adv-x="1327" 
d="M80 553q0 240 164 410q167 170 420 170t417 -170q166 -169 166 -410q0 -245 -166 -414q-162 -168 -417 -168t-420 168q-164 170 -164 414zM1020 553q0 152 -105 260q-102 111 -251 111t-254 -111q-103 -109 -103 -260q0 -153 103 -262q106 -109 254 -109t251 109
q105 108 105 262z" />
    <glyph glyph-name="p" unicode="p" horiz-adv-x="1378" 
d="M750 1130q237 0 391 -167q157 -171 157 -412q0 -239 -157 -410q-155 -168 -393 -168q-233 0 -377 181v-609h-226v1559h226v-160q149 186 379 186zM1071 553q0 155 -98 262q-100 109 -256 109t-256 -109q-96 -110 -96 -262q0 -156 96 -266q98 -107 256 -107t256 107
t98 266z" />
    <glyph glyph-name="q" unicode="q" horiz-adv-x="1378" 
d="M1008 946v158h225v-1559h-225v609q-150 -181 -379 -181q-238 0 -393 168q-156 169 -156 412q0 241 156 410q154 167 395 167q224 0 377 -184zM664 180q156 0 254 107t98 266q0 155 -98 262q-100 109 -254 109q-156 0 -256 -109q-99 -108 -99 -262q0 -158 99 -266
q98 -107 256 -107z" />
    <glyph glyph-name="r" unicode="r" horiz-adv-x="817" 
d="M371 0h-226v1104h215v-158q99 187 314 187q66 0 131 -19l-21 -219q-56 20 -120 20q-133 0 -213 -90.5t-80 -259.5v-565z" />
    <glyph glyph-name="s" unicode="s" horiz-adv-x="958" 
d="M473 -27q-131 0 -244 59.5t-180 172.5l146 131q50 -80 126 -124t156 -44q79 0 130.5 39.5t51.5 97.5q0 81 -94 127q-22 12 -133 55q-104 44 -139 64q-176 92 -176 272q0 139 102 228q107 90 275 90q236 0 362 -170l-131 -140q-100 121 -242 121q-67 0 -107 -34.5
t-40 -86.5q0 -79 92 -120l113 -47q97 -40 155 -70q189 -100 189 -279q0 -143 -115 -243q-114 -99 -297 -99z" />
    <glyph glyph-name="t" unicode="t" horiz-adv-x="897" 
d="M813 242l78 -176q-125 -93 -305 -93q-179 0 -271 108.5t-92 313.5v516h-190v193h192v391h224v-391h380v-193h-380v-520q0 -211 169 -211q89 0 195 62z" />
    <glyph glyph-name="u" unicode="u" horiz-adv-x="1230" 
d="M614 -27q-222 0 -352.5 129.5t-130.5 350.5v651h225v-649q0 -125 68.5 -199t189.5 -74q122 0 190 72.5t68 200.5v649h228v-651q0 -225 -129 -352.5t-357 -127.5z" />
    <glyph glyph-name="v" unicode="v" horiz-adv-x="1175" 
d="M590 315l315 789h248l-483 -1102h-164l-483 1102h249z" />
    <glyph glyph-name="w" unicode="w" horiz-adv-x="1744" 
d="M590 2h-193l-377 1102h238l248 -793l285 793h159l293 -793l240 793h237l-370 -1102h-193l-287 782z" />
    <glyph glyph-name="x" unicode="x" horiz-adv-x="1069" 
d="M674 557l370 -557h-262l-247 397l-254 -397h-269l381 569l-342 535h262l226 -373l233 373h262z" />
    <glyph glyph-name="y" unicode="y" horiz-adv-x="1165" 
d="M608 307l283 797h248l-457 -1204q-73 -194 -171.5 -281.5t-240.5 -87.5q-117 0 -188 47l33 195q78 -35 137 -35q134 0 217 188l35 82l-479 1096h260z" />
    <glyph glyph-name="z" unicode="z" horiz-adv-x="1060" 
d="M973 961l-602 -768h620v-193h-928v150l605 759h-572v193h877v-141z" />
    <glyph glyph-name="braceleft" unicode="{" horiz-adv-x="784" 
d="M287 598v-8q93 -31 154 -103t61 -170q0 -76 -8 -204q-9 -144 -9 -205q0 -182 185 -182h63v-199h-104q-367 0 -367 369q0 92 8 217q9 141 9 190q0 110 -76 156q-34 21 -65.5 31t-94.5 22v164q62 12 93.5 22t66.5 31q76 46 76 156q0 48 -9 192q-8 128 -8 221q0 363 373 363
h98v-199h-63q-185 0 -185 -182q0 -63 9 -207q8 -128 8 -203q0 -98 -62 -171t-153 -101z" />
    <glyph glyph-name="bar" unicode="|" horiz-adv-x="555" 
d="M383 -367h-211v2102h211v-2102z" />
    <glyph glyph-name="braceright" unicode="}" horiz-adv-x="784" 
d="M498 590v8q-93 28 -155 101t-62 171q0 75 8 203q10 160 10 207q0 182 -184 182h-64v199h101q370 0 370 -363q0 -93 -8 -221t-8 -192q0 -73 37 -119q36 -41 76.5 -58t121.5 -32v-164q-62 -12 -94 -22t-67 -31q-74 -47 -74 -156q0 -65 8 -190t8 -217q0 -369 -366 -369h-105
v199h64q184 0 184 182q0 45 -10 205q-8 128 -8 204q0 98 61.5 170t155.5 103z" />
    <glyph glyph-name="asciitilde" unicode="~" horiz-adv-x="1388" 
d="M909 500q-106 0 -243 67q-137 70 -197 70q-59 0 -103 -27.5t-102 -97.5l-143 109q123 215 360 215q105 0 244 -68t197 -68q61 0 104.5 27.5t99.5 99.5l148 -110q-132 -217 -365 -217z" />
    <glyph glyph-name="exclamdown" unicode="&#xa1;" horiz-adv-x="544" 
d="M301 1077q60 0 99.5 -40.5t39.5 -102.5q0 -60 -39.5 -99.5t-99.5 -39.5q-62 0 -103.5 39.5t-41.5 99.5q0 61 41.5 102t103.5 41zM176 -473l10 1141h222l12 -1141h-244z" />
    <glyph glyph-name="cent" unicode="&#xa2;" horiz-adv-x="1255" 
d="M748 918v-728q78 17 145 66t102 115l187 -109q-60 -115 -176 -190t-258 -92v-162h-146v162q-226 21 -373 180q-141 156 -141 391t141 391q145 160 373 184v166h146v-166q149 -17 265 -92.5t175 -197.5l-187 -105q-92 158 -253 187zM602 188v727q-128 -26 -207.5 -127
t-79.5 -237q0 -137 80 -237.5t207 -125.5z" />
    <glyph glyph-name="sterling" unicode="&#xa3;" horiz-adv-x="1179" 
d="M379 217h715v-217h-983v186q87 68 139 176q55 107 55 211q0 47 -12 97h-184v188h120q-51 146 -51 240q3 188 137 313q138 126 336 129q138 1 255.5 -63.5t185.5 -176.5l-164 -131q-43 70 -112 111t-146 41q-110 0 -181 -71.5t-71 -180.5q0 -78 47 -211h485v-188h-426
q14 -67 11 -119q-3 -196 -156 -334z" />
    <glyph glyph-name="currency" unicode="&#xa4;" horiz-adv-x="1308" 
d="M1120 752q0 -138 -78 -254l150 -148l-119 -117l-145 144q-125 -88 -279 -88q-149 0 -270 86l-146 -142l-114 117l143 142q-80 121 -80 260q0 153 90 278l-153 152l114 116l158 -155q119 78 258 78q143 0 264 -80l160 157l119 -116l-160 -158q88 -119 88 -272zM649 465
q117 0 201 84q82 85 82 207q0 123 -82 205q-83 83 -201 83q-115 0 -198 -83q-80 -83 -80 -205q0 -121 80 -207q84 -84 198 -84z" />
    <glyph glyph-name="yen" unicode="&#xa5;" horiz-adv-x="1345" 
d="M1030 1513h256l-389 -735h246v-174h-338l-14 -26v-82h352v-177h-352v-319h-236v319h-358v177h358v82l-14 26h-344v174h252l-388 735h258l355 -702z" />
    <glyph glyph-name="brokenbar" unicode="&#xa6;" horiz-adv-x="555" 
d="M383 889h-211v846h211v-846zM172 479h211v-846h-211v846z" />
    <glyph glyph-name="section" unicode="&#xa7;" horiz-adv-x="1187" 
d="M1112 436q0 -177 -151 -272q59 -92 59 -205q0 -176 -127 -291q-126 -117 -334 -117q-296 0 -471 230l154 151q134 -165 315 -165q98 0 159.5 54.5t61.5 135.5q0 97 -98 164q-45 34 -92 59q-8 4 -48.5 26t-70.5 38q-103 52 -139 73q-42 24 -115 80q-123 102 -123 250
q0 179 150 273q-62 89 -62 206q0 182 127 297q130 115 332 115q266 0 430 -209l-160 -143q-113 137 -260 137q-102 0 -165.5 -54.5t-63.5 -135.5q0 -94 94 -164q63 -45 92 -60l117 -61l33 -17q89 -45 137 -74.5t102 -76.5q117 -97 117 -244zM571 438q171 -83 240 -133
q61 40 61 109q0 64 -52 112t-175 109q-219 115 -260 145q-61 -43 -61 -110q0 -48 38 -92q41 -47 80 -70q33 -20 129 -70z" />
    <glyph glyph-name="dieresis" unicode="&#xa8;" horiz-adv-x="1024" 
d="M250 1286q-66 0 -109 43t-43 109q0 63 43 105t109 42q63 0 106 -42t43 -105q0 -66 -43 -109t-106 -43zM670 1286q-66 0 -109 43t-43 109q0 63 43 105t109 42q62 0 104.5 -42t42.5 -105q0 -65 -42.5 -108.5t-104.5 -43.5z" />
    <glyph glyph-name="copyright" unicode="&#xa9;" horiz-adv-x="1755" 
d="M88 756q0 322 231 553t558 231q326 0 557 -231t231 -553q0 -320 -231 -551q-230 -230 -557 -230q-328 0 -558 230q-231 231 -231 551zM877 123q264 0 450 186t186 447q0 262 -186 448q-187 187 -450 187q-264 0 -451 -187q-186 -186 -186 -448q0 -261 186 -447t451 -186z
M885 336q-180 0 -301 121t-121 299q0 182 119 301q121 121 301 121q214 0 331 -164l-114 -86q-88 104 -215 104q-116 0 -190 -77.5t-74 -198.5t74 -198t190 -77q137 0 219 99l108 -95q-54 -69 -141 -109t-186 -40z" />
    <glyph glyph-name="ordfeminine" unicode="&#xaa;" horiz-adv-x="841" 
d="M399 1507q143 0 229.5 -84.5t86.5 -236.5v-385h-137v73q-80 -92 -230 -92q-117 0 -187.5 65t-70.5 165q0 98 77.5 153.5t211.5 55.5q73 0 196 -15q-12 164 -188 164q-117 0 -205 -55l-51 115q109 77 268 77zM369 918q89 0 141 47t63 131q-80 14 -182 14q-73 0 -113 -25.5
t-40 -68.5q0 -44 35.5 -71t95.5 -27z" />
    <glyph glyph-name="guillemotleft" unicode="&#xab;" horiz-adv-x="1103" 
d="M594 180h-229l-287 416l287 416h229l-291 -416zM999 180h-231l-283 416l283 416h231l-288 -416z" />
    <glyph glyph-name="logicalnot" unicode="&#xac;" horiz-adv-x="1241" 
d="M891 545h-752v211h955v-453h-203v242z" />
    <glyph glyph-name="uni00AD" unicode="&#xad;" horiz-adv-x="1040" 
d="M911 567h-782v209h782v-209z" />
    <glyph glyph-name="registered" unicode="&#xae;" horiz-adv-x="1179" 
d="M236 1425q148 148 354 148t354 -148q150 -147 150 -354t-150 -354q-148 -148 -354 -148t-354 148t-148 354t148 354zM313 793q115 -115 277 -115q161 0 276 115q115 118 115 278q0 162 -115 277q-113 116 -276 116q-164 0 -277 -116q-114 -114 -114 -277q0 -161 114 -278
zM791 1159q0 -106 -95 -147l107 -183h-117l-92 166h-78v-166h-104v494h206q74 0 123.5 -46.5t49.5 -117.5zM594 1237h-78v-158h78q92 0 92 82q0 76 -92 76z" />
    <glyph glyph-name="overscore" unicode="&#xaf;" horiz-adv-x="954" 
d="M725 1319l-643 -2v201h643v-199z" />
    <glyph glyph-name="degree" unicode="&#xb0;" horiz-adv-x="745" 
d="M375 1102q-123 0 -213 84q-88 82 -88 205q0 124 88 206q89 86 213 86q123 0 209 -86q88 -82 88 -206q0 -123 -88 -205q-87 -84 -209 -84zM375 1239q62 0 106.5 44.5t44.5 107.5q0 65 -44.5 110t-106.5 45q-64 0 -109 -45t-45 -110q0 -63 45.5 -107.5t108.5 -44.5z" />
    <glyph glyph-name="plusminus" unicode="&#xb1;" horiz-adv-x="1239" 
d="M727 1384v-387h385v-213h-385v-383l-211 -4v387h-389v213h389v387h211zM1112 147h-985v205h985v-205z" />
    <glyph glyph-name="uni00B2" unicode="&#xb2;" horiz-adv-x="706" 
d="M504 1386l-195 -202h314v-146h-543v129l266 271q107 110 107 178q0 45 -33 74.5t-84 29.5q-89 0 -193 -96l-82 119q125 125 285 125q119 0 194.5 -70t75.5 -180q0 -120 -112 -232z" />
    <glyph glyph-name="uni00B3" unicode="&#xb3;" horiz-adv-x="679" 
d="M301 1026q-137 0 -270 80l65 125q115 -62 199 -62q66 0 104.5 30.5t38.5 78.5q0 47 -40 77.5t-103 30.5h-107v138h99q56 0 95.5 27t39.5 73t-35 72t-88 26q-84 0 -170 -63l-78 113q110 96 266 96q115 0 192 -62t77 -153q0 -65 -40.5 -114.5t-107.5 -70.5v-4
q77 -17 121.5 -70.5t44.5 -127.5q0 -106 -84.5 -173t-218.5 -67z" />
    <glyph glyph-name="acute" unicode="&#xb4;" horiz-adv-x="890" 
d="M281 1270h-199l123 348h266z" />
    <glyph glyph-name="paragraph" unicode="&#xb6;" horiz-adv-x="1419" 
d="M522 1503h793v-215h-146v-1704h-223v1704h-151v-1704h-224v1024h-59q-191 0 -324 127q-129 126 -129 322q0 194 131 319q133 127 332 127z" />
    <glyph glyph-name="middot" unicode="&#xb7;" horiz-adv-x="530" 
d="M266 -33q-62 0 -103.5 41.5t-41.5 102.5q0 60 41.5 100.5t103.5 40.5q60 0 101 -40.5t41 -100.5q0 -61 -41 -102.5t-101 -41.5z" />
    <glyph glyph-name="cedilla" unicode="&#xb8;" horiz-adv-x="663" 
d="M375 -98h6q94 0 155.5 -52.5t61.5 -142.5q0 -98 -73.5 -164.5t-202.5 -66.5q-110 0 -240 59l55 141q87 -43 166 -43q54 0 84.5 24t30.5 62q0 74 -109 74h-114l-17 47l80 201l172 -4z" />
    <glyph glyph-name="uni00B9" unicode="&#xb9;" horiz-adv-x="550" 
d="M31 1624l278 219h123v-805h-164v580l-151 -119z" />
    <glyph glyph-name="ordmasculine" unicode="&#xba;" horiz-adv-x="892" 
d="M82 1141q0 156 104 260t260 104q157 0 261 -104q106 -103 106 -260q0 -155 -106 -258t-261 -103q-154 0 -260 103q-104 104 -104 258zM444 920q97 0 160.5 63t63.5 160q0 96 -65 160.5t-159 64.5t-156.5 -64t-62.5 -161q0 -96 63 -159.5t156 -63.5z" />
    <glyph glyph-name="guillemotright" unicode="&#xbb;" horiz-adv-x="1103" 
d="M618 596l-282 -416h-232l289 416l-289 416h232zM1026 596l-287 -416h-229l291 416l-291 416h229z" />
    <glyph glyph-name="onequarter" unicode="&#xbc;" horiz-adv-x="1773" 
d="M467 709h-162v581l-151 -119l-86 125l278 220h121v-807zM217 0l1184 1513h190l-1179 -1513h-195zM1599 324h89v-129h-89v-195h-143v195h-375l-32 94l436 522h114v-487zM1456 590l-223 -266h223v266z" />
    <glyph glyph-name="onehalf" unicode="&#xbd;" horiz-adv-x="1734" 
d="M469 709h-162v581l-151 -119l-86 125l278 220h121v-807zM170 0l1184 1513h190l-1179 -1513h-195zM1530 348l-195 -203h314v-145h-543v129l266 270q107 110 107 179q0 45 -33 74.5t-84 29.5q-89 0 -193 -96l-82 119q124 124 285 124q119 0 194.5 -69.5t75.5 -179.5
q0 -120 -112 -232z" />
    <glyph glyph-name="threequarters" unicode="&#xbe;" horiz-adv-x="1726" 
d="M307 842q66 0 105 30t39 78q0 47 -40.5 78t-103.5 31h-106v137h98q56 0 95.5 27t39.5 73t-35 72.5t-88 26.5q-82 0 -170 -64l-78 113q110 96 267 96q115 0 191.5 -62t76.5 -153q0 -65 -40 -114t-107 -70v-4q77 -17 121 -71t44 -128q0 -106 -84.5 -173t-218.5 -67
q-137 0 -270 80l66 125q113 -61 198 -61zM260 0l1184 1513h190l-1179 -1513h-195zM1407 811h115v-487h88v-129h-88v-195h-144v195h-374l-33 94zM1378 590l-223 -266h223v266z" />
    <glyph glyph-name="questiondown" unicode="&#xbf;" horiz-adv-x="1056" 
d="M594 1079q62 0 104.5 -41t42.5 -102q0 -60 -42.5 -99.5t-104.5 -39.5q-58 0 -98.5 40t-40.5 99q0 61 40.5 102t98.5 41zM492 694h215v-145q0 -78 -39 -150.5t-103 -126.5q-13 -12 -56.5 -49t-62 -54t-51.5 -52t-47.5 -60t-27.5 -60.5t-13 -70.5q0 -99 71.5 -163
t180.5 -64q157 0 309 168l140 -158q-85 -104 -208.5 -163.5t-256.5 -59.5q-196 0 -334 123q-135 120 -135 307q0 89 40.5 170.5t106.5 140.5q22 20 72 61.5t76.5 66t59.5 60.5t48 70.5t15 69.5v139z" />
    <glyph glyph-name="Agrave" unicode="&#xc0;" horiz-adv-x="1394" 
d="M680 1980l125 -354h-205l-194 354h274zM1372 0h-254l-143 373h-557l-144 -373h-254l603 1513h153zM903 590l-205 549l-204 -549h409z" />
    <glyph glyph-name="Aacute" unicode="&#xc1;" horiz-adv-x="1394" 
d="M741 1978h271l-195 -354h-201zM1372 0h-254l-143 373h-557l-144 -373h-254l603 1513h153zM903 590l-205 549l-204 -549h409z" />
    <glyph glyph-name="Acircumflex" unicode="&#xc2;" horiz-adv-x="1394" 
d="M842 1624l-146 184l-145 -184h-232l297 350h166l297 -350h-237zM1372 0h-254l-143 373h-557l-144 -373h-254l603 1513h153zM903 590l-205 549l-204 -549h409z" />
    <glyph glyph-name="Atilde" unicode="&#xc3;" horiz-adv-x="1394" 
d="M555 1733q-78 0 -127 -101l-147 72q73 211 264 211q66 0 155 -47q86 -45 127 -45q74 0 121 96l144 -70q-32 -98 -100 -154.5t-154 -56.5q-63 0 -154 48q-89 47 -129 47zM1372 0h-254l-143 373h-557l-144 -373h-254l603 1513h153zM903 590l-205 549l-204 -549h409z" />
    <glyph glyph-name="Adieresis" unicode="&#xc4;" horiz-adv-x="1394" 
d="M360 1786q0 57 41 97t101 40t99.5 -39.5t39.5 -97.5q0 -61 -39.5 -101t-99.5 -40t-101 40t-41 101zM752 1786q0 60 39.5 98.5t99.5 38.5q59 0 98 -39.5t39 -97.5q0 -62 -38.5 -101.5t-98.5 -39.5t-99.5 40t-39.5 101zM1372 0h-254l-143 373h-557l-144 -373h-254l603 1513
h153zM903 590l-205 549l-204 -549h409z" />
    <glyph glyph-name="Aring" unicode="&#xc5;" horiz-adv-x="1394" 
d="M885 1667q-70 -70 -178 -70t-181 70t-73 172q0 104 73 174q75 72 181 72t178 -72q73 -70 73 -174q0 -102 -73 -172zM707 1952q-47 0 -80 -32t-33 -77q0 -47 33 -79.5t80 -32.5q43 0 75.5 32.5t32.5 79.5q0 44 -32.5 76.5t-75.5 32.5zM1372 0h-254l-143 373h-557
l-144 -373h-254l603 1513h153zM903 590l-205 549l-204 -549h409z" />
    <glyph glyph-name="AE" unicode="&#xc6;" horiz-adv-x="2101" 
d="M1989 1513v-223h-748v-411h688v-224h-688v-432h748v-223h-985v418h-523l-250 -418h-264l938 1513h1084zM1004 1292l-394 -657h394v657z" />
    <glyph glyph-name="Ccedilla" unicode="&#xc7;" horiz-adv-x="1581" 
d="M1366 451l168 -148q-99 -137 -255 -223.5t-341 -99.5l-33 -78h6q94 0 155.5 -52.5t61.5 -142.5q0 -98 -73.5 -164.5t-202.5 -66.5q-110 0 -240 59l56 141q87 -43 166 -43q54 0 84 24t30 62q0 74 -108 74h-115l-16 47l57 144q-291 34 -485 243q-191 212 -191 525
q0 346 229 565q229 223 555 223q201 0 379 -90q173 -87 273 -236l-168 -151q-187 248 -477 248q-229 0 -389 -160q-158 -161 -158 -399q0 -242 155 -394q156 -153 390 -153q299 0 487 246z" />
    <glyph glyph-name="Egrave" unicode="&#xc8;" 
d="M670 1980l125 -354h-205l-195 354h275zM1153 0h-969v1513h967v-223h-731v-411h678v-224h-678v-432h733v-223z" />
    <glyph glyph-name="Eacute" unicode="&#xc9;" 
d="M754 1624h-201l125 354h270zM1153 0h-969v1513h967v-223h-731v-411h678v-224h-678v-432h733v-223z" />
    <glyph glyph-name="Ecircumflex" unicode="&#xca;" 
d="M522 1624h-231l297 350h166l297 -350h-238l-145 184zM1153 0h-969v1513h967v-223h-731v-411h678v-224h-678v-432h733v-223z" />
    <glyph glyph-name="Edieresis" unicode="&#xcb;" 
d="M336 1786q0 57 40.5 97t100.5 40q59 0 99 -39.5t40 -97.5q0 -61 -39.5 -101t-99.5 -40t-100.5 40t-40.5 101zM727 1786q0 60 39.5 98.5t99.5 38.5q59 0 98.5 -39.5t39.5 -97.5q0 -61 -39 -101t-99 -40t-99.5 40t-39.5 101zM1153 0h-969v1513h967v-223h-731v-411h678v-224
h-678v-432h733v-223z" />
    <glyph glyph-name="Igrave" unicode="&#xcc;" horiz-adv-x="604" 
d="M287 1982l125 -354h-205l-195 354h275zM188 0v1513h236v-1513h-236z" />
    <glyph glyph-name="Iacute" unicode="&#xcd;" horiz-adv-x="598" 
d="M395 1628h-200l124 354h271zM184 0v1513h236v-1513h-236z" />
    <glyph glyph-name="Icircumflex" unicode="&#xce;" horiz-adv-x="604" 
d="M160 1628h-232l297 350h166l297 -350h-237l-146 184zM188 0v1513h236v-1513h-236z" />
    <glyph glyph-name="Idieresis" unicode="&#xcf;" horiz-adv-x="604" 
d="M104 1638q-63 0 -104 41.5t-41 104.5q0 62 41 102.5t104 40.5q62 0 104 -41t42 -102q0 -63 -42 -104.5t-104 -41.5zM365 1784q0 61 41.5 102t103.5 41q60 0 101.5 -41t41.5 -102q0 -63 -40.5 -104.5t-102.5 -41.5t-103.5 41.5t-41.5 104.5zM188 0v1513h236v-1513h-236z
" />
    <glyph glyph-name="Eth" unicode="&#xd0;" horiz-adv-x="1597" 
d="M221 1513h572q330 0 516 -204q190 -205 190 -555q0 -348 -194 -551t-531 -203h-553v657h-192v201h192v655zM457 225h327q221 0 344 150q125 149 125 385q0 230 -125 379q-122 149 -342 149h-329v-430h422v-201h-422v-432z" />
    <glyph glyph-name="Ntilde" unicode="&#xd1;" horiz-adv-x="1607" 
d="M549 1634l-148 72q73 211 265 211q66 0 155 -47q86 -45 127 -45q74 0 121 96l143 -70q-32 -98 -100 -154.5t-154 -56.5q-62 0 -153 48q-89 47 -129 47q-78 0 -127 -101zM1190 479v1034h233v-1513h-139l-866 1026v-1026h-234v1513h123z" />
    <glyph glyph-name="Ograve" unicode="&#xd2;" horiz-adv-x="1746" 
d="M879 1980l125 -354h-205l-195 354h275zM866 -25q-331 0 -555 224q-223 223 -223 551q0 330 229 559q231 231 555 231q329 0 558 -229t229 -555q0 -327 -229 -553q-231 -228 -564 -228zM872 207q228 0 383 155q158 158 158 392q0 237 -158 395t-383 158q-226 0 -383 -160
q-155 -155 -155 -393q0 -233 153 -389q158 -158 385 -158z" />
    <glyph glyph-name="Oacute" unicode="&#xd3;" horiz-adv-x="1746" 
d="M969 1624h-201l125 354h270zM866 -25q-331 0 -555 224q-223 223 -223 551q0 330 229 559q231 231 555 231q329 0 558 -229t229 -555q0 -327 -229 -553q-231 -228 -564 -228zM872 207q228 0 383 155q158 158 158 392q0 237 -158 395t-383 158q-226 0 -383 -160
q-155 -155 -155 -393q0 -233 153 -389q158 -158 385 -158z" />
    <glyph glyph-name="Ocircumflex" unicode="&#xd4;" horiz-adv-x="1746" 
d="M725 1624h-231l297 350h165l297 -350h-237l-146 184zM866 -25q-331 0 -555 224q-223 223 -223 551q0 330 229 559q231 231 555 231q329 0 558 -229t229 -555q0 -327 -229 -553q-231 -228 -564 -228zM872 207q228 0 383 155q158 158 158 392q0 237 -158 395t-383 158
q-226 0 -383 -160q-155 -155 -155 -393q0 -233 153 -389q158 -158 385 -158z" />
    <glyph glyph-name="Otilde" unicode="&#xd5;" horiz-adv-x="1746" 
d="M623 1632l-148 72q73 211 264 211q67 0 156 -47q86 -45 127 -45q74 0 121 96l143 -70q-32 -98 -100 -154.5t-154 -56.5q-62 0 -153 48q-89 47 -129 47q-78 0 -127 -101zM866 -25q-331 0 -555 224q-223 223 -223 551q0 330 229 559q231 231 555 231q329 0 558 -229
t229 -555q0 -327 -229 -553q-231 -228 -564 -228zM872 207q228 0 383 155q158 158 158 392q0 237 -158 395t-383 158q-226 0 -383 -160q-155 -155 -155 -393q0 -233 153 -389q158 -158 385 -158z" />
    <glyph glyph-name="Odieresis" unicode="&#xd6;" horiz-adv-x="1746" 
d="M549 1786q0 57 40.5 97t100.5 40t99.5 -39.5t39.5 -97.5q0 -61 -39.5 -101t-99.5 -40t-100.5 40t-40.5 101zM940 1786q0 60 39.5 98.5t99.5 38.5q59 0 98.5 -39.5t39.5 -97.5q0 -61 -39 -101t-99 -40t-99.5 40t-39.5 101zM866 -25q-331 0 -555 224q-223 223 -223 551
q0 330 229 559q231 231 555 231q329 0 558 -229t229 -555q0 -327 -229 -553q-231 -228 -564 -228zM872 207q228 0 383 155q158 158 158 392q0 237 -158 395t-383 158q-226 0 -383 -160q-155 -155 -155 -393q0 -233 153 -389q158 -158 385 -158z" />
    <glyph glyph-name="multiply" unicode="&#xd7;" horiz-adv-x="1087" 
d="M844 1135l139 -136l-303 -305l303 -303l-135 -141l-305 307l-305 -307l-136 141l304 303l-302 301l134 140l303 -304z" />
    <glyph glyph-name="Oslash" unicode="&#xd8;" horiz-adv-x="1746" 
d="M1530 1516l-127 -181q256 -235 256 -579q0 -327 -229 -553q-231 -228 -564 -228q-187 0 -360 84l-117 -163l-147 100l114 162q-128 106 -198 260.5t-70 331.5q0 330 229 559q231 231 555 231q210 0 388 -100l124 176zM334 754q0 -243 162 -398l628 891q-126 60 -252 60
q-226 0 -383 -160q-155 -155 -155 -393zM872 207q228 0 383 155q158 158 158 392q0 232 -147 385l-623 -883q110 -49 229 -49z" />
    <glyph glyph-name="Ugrave" unicode="&#xd9;" horiz-adv-x="1458" 
d="M725 1980l125 -354h-205l-194 354h274zM729 -27q-247 0 -405 146q-156 144 -156 405v989h235v-958q0 -170 85.5 -260t240.5 -90q153 0 238.5 92.5t85.5 257.5v958h237v-989q0 -264 -155 -407q-156 -144 -406 -144z" />
    <glyph glyph-name="Uacute" unicode="&#xda;" horiz-adv-x="1458" 
d="M821 1624h-200l124 354h271zM729 -27q-247 0 -405 146q-156 144 -156 405v989h235v-958q0 -170 85.5 -260t240.5 -90q153 0 238.5 92.5t85.5 257.5v958h237v-989q0 -264 -155 -407q-156 -144 -406 -144z" />
    <glyph glyph-name="Ucircumflex" unicode="&#xdb;" horiz-adv-x="1458" 
d="M582 1624h-232l297 350h166l297 -350h-238l-145 184zM729 -27q-247 0 -405 146q-156 144 -156 405v989h235v-958q0 -170 85.5 -260t240.5 -90q153 0 238.5 92.5t85.5 257.5v958h237v-989q0 -264 -155 -407q-156 -144 -406 -144z" />
    <glyph glyph-name="Udieresis" unicode="&#xdc;" horiz-adv-x="1458" 
d="M393 1786q0 57 41 97t101 40q59 0 99 -39.5t40 -97.5q0 -61 -39.5 -101t-99.5 -40t-101 40t-41 101zM784 1786q0 60 40 98.5t100 38.5q59 0 98 -39.5t39 -97.5q0 -62 -38.5 -101.5t-98.5 -39.5t-100 40t-40 101zM729 -27q-247 0 -405 146q-156 144 -156 405v989h235v-958
q0 -170 85.5 -260t240.5 -90q153 0 238.5 92.5t85.5 257.5v958h237v-989q0 -264 -155 -407q-156 -144 -406 -144z" />
    <glyph glyph-name="Yacute" unicode="&#xdd;" horiz-adv-x="1335" 
d="M754 1624h-201l125 354h270zM1038 1513h267l-521 -974v-539h-235v539l-514 974h266l367 -733z" />
    <glyph glyph-name="Thorn" unicode="&#xde;" horiz-adv-x="1292" 
d="M420 1253h293q244 0 370 -141q129 -138 129 -334q0 -199 -133 -338q-131 -137 -387 -137h-272v-303h-236v1513h236v-260zM420 524h276q131 0 204 73.5t73 184.5q0 107 -67.5 177.5t-186.5 70.5h-299v-506z" />
    <glyph glyph-name="germandbls" unicode="&#xdf;" horiz-adv-x="1333" 
d="M987 811q121 -43 193.5 -149.5t72.5 -241.5q0 -199 -149 -330q-150 -129 -371 -129q-129 0 -250 47l52 197q67 -33 186 -33q135 0 219 78q84 81 84 188q0 117 -102 188.5t-265 71.5v187q128 0 210.5 74.5t82.5 185.5q0 106 -72 171.5t-188 65.5q-148 0 -231.5 -112.5
t-83.5 -317.5v-1314h-230v1361q0 294 162 443q165 151 391 151q214 0 349 -123q135 -120 135 -307q0 -113 -51.5 -205.5t-143.5 -146.5z" />
    <glyph glyph-name="agrave" unicode="&#xe0;" horiz-adv-x="1370" 
d="M659 1626l123 -348h-198l-191 348h266zM1008 950v154h217v-1104h-217v152q-150 -179 -377 -179q-240 0 -395 168q-156 169 -156 418q0 247 156 410q154 161 395 161q228 0 377 -180zM662 180q153 0 256 109q100 106 100 264q0 156 -100 262q-103 109 -256 109
q-156 0 -256 -109q-99 -108 -99 -264t99 -264q98 -107 256 -107z" />
    <glyph glyph-name="aacute" unicode="&#xe1;" horiz-adv-x="1370" 
d="M700 1626h267l-191 -348h-198zM1008 950v154h217v-1104h-217v152q-150 -179 -377 -179q-240 0 -395 168q-156 169 -156 418q0 247 156 410q154 161 395 161q228 0 377 -180zM662 180q153 0 256 109q100 106 100 264q0 156 -100 262q-103 109 -256 109q-156 0 -256 -109
q-99 -108 -99 -264t99 -264q98 -107 256 -107z" />
    <glyph glyph-name="acircumflex" unicode="&#xe2;" horiz-adv-x="1370" 
d="M819 1276l-141 182l-143 -182h-230l293 344h164l293 -344h-236zM1008 950v154h217v-1104h-217v152q-150 -179 -377 -179q-240 0 -395 168q-156 169 -156 418q0 247 156 410q154 161 395 161q228 0 377 -180zM662 180q153 0 256 109q100 106 100 264q0 156 -100 262
q-103 109 -256 109q-156 0 -256 -109q-99 -108 -99 -264t99 -264q98 -107 256 -107z" />
    <glyph glyph-name="atilde" unicode="&#xe3;" horiz-adv-x="1370" 
d="M551 1384q-76 0 -125 -98l-145 70q71 209 260 209q67 0 153 -45t127 -45q76 0 119 94l143 -68q-32 -98 -99 -153.5t-153 -55.5q-65 0 -151 45q-89 47 -129 47zM1008 950v154h217v-1104h-217v152q-150 -179 -377 -179q-240 0 -395 168q-156 169 -156 418q0 247 156 410
q154 161 395 161q228 0 377 -180zM662 180q153 0 256 109q100 106 100 264q0 156 -100 262q-103 109 -256 109q-156 0 -256 -109q-99 -108 -99 -264t99 -264q98 -107 256 -107z" />
    <glyph glyph-name="adieresis" unicode="&#xe4;" horiz-adv-x="1370" 
d="M475 1266q-66 0 -108.5 42.5t-42.5 108.5q0 63 42.5 105.5t108.5 42.5q63 0 106.5 -42.5t43.5 -105.5q0 -65 -43 -108t-107 -43zM895 1266q-66 0 -109 42.5t-43 108.5q0 63 43 105.5t109 42.5q62 0 104.5 -42.5t42.5 -105.5q0 -65 -42.5 -108t-104.5 -43zM1008 950v154
h217v-1104h-217v152q-150 -179 -377 -179q-240 0 -395 168q-156 169 -156 418q0 247 156 410q154 161 395 161q228 0 377 -180zM662 180q153 0 256 109q100 106 100 264q0 156 -100 262q-103 109 -256 109q-156 0 -256 -109q-99 -108 -99 -264t99 -264q98 -107 256 -107z
" />
    <glyph glyph-name="aring" unicode="&#xe5;" horiz-adv-x="1370" 
d="M858 1305q-71 -68 -176 -68q-104 0 -178 68q-72 72 -72 170t72 170q74 71 178 71q105 0 176 -71q74 -71 74 -170t-74 -170zM682 1585q-47 0 -79 -31t-32 -75q0 -47 32 -79t79 -32q44 0 76.5 32.5t32.5 78.5q0 42 -33 74t-76 32zM1008 950v154h217v-1104h-217v152
q-150 -179 -377 -179q-240 0 -395 168q-156 169 -156 418q0 247 156 410q154 161 395 161q228 0 377 -180zM662 180q153 0 256 109q100 106 100 264q0 156 -100 262q-103 109 -256 109q-156 0 -256 -109q-99 -108 -99 -264t99 -264q98 -107 256 -107z" />
    <glyph glyph-name="ae" unicode="&#xe6;" horiz-adv-x="2027" 
d="M1954 594q0 -59 -8 -111l-856 2q21 -139 114.5 -225t239.5 -86q91 0 190 33t174 88l99 -168q-85 -66 -214 -109t-259 -43q-327 0 -480 246q-72 -121 -195 -184.5t-274 -63.5q-196 0 -309 101q-115 103 -115 258q0 96 48.5 166.5t130.5 103.5q141 57 309 57h307
q-46 273 -315 273q-207 0 -338 -101l-94 168q82 57 206 94t236 37q135 0 249.5 -54.5t178.5 -157.5q156 212 451 212q229 0 376 -141q148 -139 148 -395zM1427 934q-128 0 -217.5 -74.5t-115.5 -200.5h643q-12 129 -96.5 202t-213.5 73zM504 174q140 0 237 85t117 226h-307
q-270 0 -270 -155q0 -69 62.5 -112.5t160.5 -43.5z" />
    <glyph glyph-name="ccedilla" unicode="&#xe7;" horiz-adv-x="1228" 
d="M666 182q98 0 188 53.5t133 135.5l187 -109q-62 -119 -183 -195.5t-270 -89.5l-31 -75h6q94 0 155.5 -52.5t61.5 -142.5q0 -98 -73.5 -164.5t-202.5 -66.5q-110 0 -240 59l56 141q87 -43 165 -43q54 0 84.5 24t30.5 62q0 74 -108 74h-115l-16 47l57 144q-210 34 -342 190
q-129 156 -129 377q0 253 166 416t426 163q167 0 304.5 -79t203.5 -215l-187 -105q-52 89 -137 141t-182 52q-158 0 -262 -107q-105 -108 -105 -266q0 -153 103 -262q101 -107 256 -107z" />
    <glyph glyph-name="egrave" unicode="&#xe8;" horiz-adv-x="1261" 
d="M631 1622l123 -348h-199l-190 348h266zM1186 573q0 -53 -8 -108h-863q26 -134 119 -211.5t248 -77.5q94 0 198 32.5t177 86.5l94 -166q-90 -67 -217 -110.5t-260 -43.5q-120 0 -220 32.5t-168 87.5t-114.5 130t-68 158t-21.5 172q0 249 156 412t407 163q240 0 389 -149
q152 -152 152 -408zM645 936q-127 0 -216 -78.5t-114 -208.5h643q-13 129 -100 208t-213 79z" />
    <glyph glyph-name="eacute" unicode="&#xe9;" horiz-adv-x="1261" 
d="M664 1626h266l-191 -348h-198zM1186 573q0 -53 -8 -108h-863q26 -134 119 -211.5t248 -77.5q94 0 198 32.5t177 86.5l94 -166q-90 -67 -217 -110.5t-260 -43.5q-120 0 -220 32.5t-168 87.5t-114.5 130t-68 158t-21.5 172q0 249 156 412t407 163q240 0 389 -149
q152 -152 152 -408zM645 936q-127 0 -216 -78.5t-114 -208.5h643q-13 129 -100 208t-213 79z" />
    <glyph glyph-name="ecircumflex" unicode="&#xea;" horiz-adv-x="1261" 
d="M791 1280l-142 182l-143 -182h-230l293 344h164l293 -344h-235zM1186 573q0 -53 -8 -108h-863q26 -134 119 -211.5t248 -77.5q94 0 198 32.5t177 86.5l94 -166q-90 -67 -217 -110.5t-260 -43.5q-120 0 -220 32.5t-168 87.5t-114.5 130t-68 158t-21.5 172q0 249 156 412
t407 163q240 0 389 -149q152 -152 152 -408zM645 936q-127 0 -216 -78.5t-114 -208.5h643q-13 129 -100 208t-213 79z" />
    <glyph glyph-name="edieresis" unicode="&#xeb;" horiz-adv-x="1261" 
d="M461 1255q-66 0 -109 43t-43 109q0 63 43 105t109 42q63 0 106 -42t43 -105q0 -66 -43 -109t-106 -43zM881 1255q-66 0 -109 43t-43 109q0 63 43 105t109 42q62 0 104.5 -42t42.5 -105q0 -65 -42.5 -108.5t-104.5 -43.5zM1186 573q0 -53 -8 -108h-863q26 -134 119 -211.5
t248 -77.5q94 0 198 32.5t177 86.5l94 -166q-90 -67 -217 -110.5t-260 -43.5q-120 0 -220 32.5t-168 87.5t-114.5 130t-68 158t-21.5 172q0 249 156 412t407 163q240 0 389 -149q152 -152 152 -408zM645 936q-127 0 -216 -78.5t-114 -208.5h643q-13 129 -100 208t-213 79z
" />
    <glyph glyph-name="igrave" unicode="&#xec;" horiz-adv-x="520" 
d="M242 1622l123 -348h-199l-191 348h267zM373 1104v-1104h-226v1104h226z" />
    <glyph glyph-name="iacute" unicode="&#xed;" horiz-adv-x="516" 
d="M356 1278h-198l123 348h266zM371 1104v-1104h-226v1104h226z" />
    <glyph glyph-name="icircumflex" unicode="&#xee;" horiz-adv-x="518" 
d="M115 1274h-230l293 344h164l293 -344h-236l-141 182zM373 1104v-1104h-226v1104h226z" />
    <glyph glyph-name="idieresis" unicode="&#xef;" horiz-adv-x="518" 
d="M51 1262q-66 0 -108.5 42.5t-42.5 108.5q0 63 42.5 105.5t108.5 42.5q63 0 106.5 -42.5t43.5 -105.5q0 -65 -43 -108t-107 -43zM471 1262q-66 0 -109 42.5t-43 108.5q0 63 43 105.5t109 42.5q62 0 104.5 -42.5t42.5 -105.5q0 -65 -42.5 -108t-104.5 -43zM373 1104v-1104
h-226v1104h226z" />
    <glyph glyph-name="eth" unicode="&#xf0;" horiz-adv-x="1343" 
d="M1171 1536l-178 -123q258 -329 258 -702q0 -317 -176 -529q-176 -209 -446 -209q-236 0 -393 154q-154 154 -154 383q0 230 151 381q154 151 375 151q134 0 245 -65t171 -178q-20 228 -180 450l-31 41l-195 -135l-92 123l187 127q-99 102 -215 186l157 152
q134 -102 238 -215l190 131zM637 176q143 0 237 98q99 102 99 246q0 142 -99 236q-96 96 -233 96q-146 0 -240 -98t-94 -242q0 -140 92 -240q96 -96 238 -96z" />
    <glyph glyph-name="ntilde" unicode="&#xf1;" horiz-adv-x="1282" 
d="M395 1280l-145 70q71 209 260 209q66 0 154 -46q86 -45 127 -45q74 0 118 95l144 -68q-32 -98 -99 -153.5t-153 -55.5q-66 0 -152 45q-89 47 -129 47q-76 0 -125 -98zM371 0h-226v1104h222v-156q50 87 141.5 136t208.5 49q182 0 307 -119q127 -121 127 -342v-672h-227
v608q0 150 -72 233t-193 83q-127 0 -207.5 -89.5t-80.5 -230.5v-604z" />
    <glyph glyph-name="ograve" unicode="&#xf2;" horiz-adv-x="1327" 
d="M649 1622l123 -348h-199l-190 348h266zM80 553q0 240 164 410q167 170 420 170t417 -170q166 -169 166 -410q0 -245 -166 -414q-162 -168 -417 -168t-420 168q-164 170 -164 414zM1020 553q0 152 -105 260q-102 111 -251 111t-254 -111q-103 -109 -103 -260
q0 -153 103 -262q106 -109 254 -109t251 109q105 108 105 262z" />
    <glyph glyph-name="oacute" unicode="&#xf3;" horiz-adv-x="1327" 
d="M745 1278h-198l123 348h266zM80 553q0 240 164 410q167 170 420 170t417 -170q166 -169 166 -410q0 -245 -166 -414q-162 -168 -417 -168t-420 168q-164 170 -164 414zM1020 553q0 152 -105 260q-102 111 -251 111t-254 -111q-103 -109 -103 -260q0 -153 103 -262
q106 -109 254 -109t251 109q105 108 105 262z" />
    <glyph glyph-name="ocircumflex" unicode="&#xf4;" horiz-adv-x="1327" 
d="M520 1282h-229l293 344h164l292 -344h-235l-141 182zM80 553q0 240 164 410q167 170 420 170t417 -170q166 -169 166 -410q0 -245 -166 -414q-162 -168 -417 -168t-420 168q-164 170 -164 414zM1020 553q0 152 -105 260q-102 111 -251 111t-254 -111q-103 -109 -103 -260
q0 -153 103 -262q106 -109 254 -109t251 109q105 108 105 262z" />
    <glyph glyph-name="otilde" unicode="&#xf5;" horiz-adv-x="1327" 
d="M412 1284l-146 70q71 209 260 209q68 0 154 -45t127 -45q76 0 119 94l143 -68q-32 -98 -99 -153.5t-153 -55.5q-65 0 -151 45q-89 47 -129 47q-76 0 -125 -98zM80 553q0 240 164 410q167 170 420 170t417 -170q166 -169 166 -410q0 -245 -166 -414q-162 -168 -417 -168
t-420 168q-164 170 -164 414zM1020 553q0 152 -105 260q-102 111 -251 111t-254 -111q-103 -109 -103 -260q0 -153 103 -262q106 -109 254 -109t251 109q105 108 105 262z" />
    <glyph glyph-name="odieresis" unicode="&#xf6;" horiz-adv-x="1327" 
d="M459 1262q-66 0 -109 42.5t-43 108.5q0 63 43 105.5t109 42.5q63 0 106 -42.5t43 -105.5q0 -65 -43 -108t-106 -43zM879 1262q-66 0 -109 42.5t-43 108.5q0 63 43 105.5t109 42.5q62 0 104.5 -42.5t42.5 -105.5q0 -65 -42.5 -108t-104.5 -43zM80 553q0 240 164 410
q167 170 420 170t417 -170q166 -169 166 -410q0 -245 -166 -414q-162 -168 -417 -168t-420 168q-164 170 -164 414zM1020 553q0 152 -105 260q-102 111 -251 111t-254 -111q-103 -109 -103 -260q0 -153 103 -262q106 -109 254 -109t251 109q105 108 105 262z" />
    <glyph glyph-name="divide" unicode="&#xf7;" horiz-adv-x="1128" 
d="M563 907q-61 0 -102 41t-41 101t40.5 99.5t102.5 39.5q57 0 97 -41t40 -98q0 -60 -40 -101t-97 -41zM1030 584h-930v196h930v-196zM565 180q-61 0 -102 41t-41 101t40.5 99.5t102.5 39.5q57 0 97 -41t40 -98q0 -60 -40 -101t-97 -41z" />
    <glyph glyph-name="oslash" unicode="&#xf8;" horiz-adv-x="1327" 
d="M1159 1143l-104 -152q192 -168 192 -438q0 -245 -166 -414q-162 -168 -417 -168q-146 0 -273 62l-110 -160l-117 80l110 160q-194 170 -194 440q0 240 164 410q167 170 420 170q143 0 270 -62l102 150zM307 553q0 -147 94 -254l408 592q-67 33 -145 33q-149 0 -254 -111
q-103 -109 -103 -260zM664 182q148 0 251 109q105 108 105 262q0 145 -94 252l-410 -590q67 -33 148 -33z" />
    <glyph glyph-name="ugrave" unicode="&#xf9;" horiz-adv-x="1230" 
d="M610 1626l123 -348h-198l-191 348h266zM614 -27q-222 0 -352.5 129.5t-130.5 350.5v651h225v-649q0 -125 68.5 -199t189.5 -74q122 0 190 72.5t68 200.5v649h228v-651q0 -225 -129 -352.5t-357 -127.5z" />
    <glyph glyph-name="uacute" unicode="&#xfa;" horiz-adv-x="1230" 
d="M707 1278h-199l123 348h266zM614 -27q-222 0 -352.5 129.5t-130.5 350.5v651h225v-649q0 -125 68.5 -199t189.5 -74q122 0 190 72.5t68 200.5v649h228v-651q0 -225 -129 -352.5t-357 -127.5z" />
    <glyph glyph-name="ucircumflex" unicode="&#xfb;" horiz-adv-x="1230" 
d="M473 1274h-229l293 344h163l293 -344h-235l-142 182zM614 -27q-222 0 -352.5 129.5t-130.5 350.5v651h225v-649q0 -125 68.5 -199t189.5 -74q122 0 190 72.5t68 200.5v649h228v-651q0 -225 -129 -352.5t-357 -127.5z" />
    <glyph glyph-name="udieresis" unicode="&#xfc;" horiz-adv-x="1230" 
d="M408 1262q-66 0 -109 42.5t-43 108.5q0 63 43 105.5t109 42.5q63 0 106 -42.5t43 -105.5q0 -65 -42.5 -108t-106.5 -43zM827 1262q-66 0 -108.5 42.5t-42.5 108.5q0 63 42.5 105.5t108.5 42.5q62 0 105 -42.5t43 -105.5q0 -65 -43 -108t-105 -43zM614 -27
q-222 0 -352.5 129.5t-130.5 350.5v651h225v-649q0 -125 68.5 -199t189.5 -74q122 0 190 72.5t68 200.5v649h228v-651q0 -225 -129 -352.5t-357 -127.5z" />
    <glyph glyph-name="yacute" unicode="&#xfd;" horiz-adv-x="1165" 
d="M598 1622h266l-190 -348h-199zM608 307l283 797h248l-457 -1204q-73 -194 -171.5 -281.5t-240.5 -87.5q-117 0 -188 47l33 195q78 -35 137 -35q134 0 217 188l35 82l-479 1096h260z" />
    <glyph glyph-name="thorn" unicode="&#xfe;" horiz-adv-x="1376" 
d="M739 1130q246 0 400 -167q157 -168 157 -410q0 -243 -159 -412q-155 -168 -398 -168q-215 0 -368 179v-607h-226v2007h226v-602q155 180 368 180zM715 180q156 0 254 107t98 266q0 155 -98 262q-100 109 -254 109q-156 0 -256 -109q-99 -108 -99 -262q0 -155 97 -266
q98 -107 258 -107z" />
    <glyph glyph-name="ydieresis" unicode="&#xff;" horiz-adv-x="1165" 
d="M385 1262q-66 0 -109 42.5t-43 108.5q0 63 43 105.5t109 42.5q63 0 106.5 -42.5t43.5 -105.5q0 -65 -43 -108t-107 -43zM805 1262q-66 0 -109 42.5t-43 108.5q0 63 43 105.5t109 42.5q62 0 104.5 -42.5t42.5 -105.5q0 -65 -42.5 -108t-104.5 -43zM608 307l283 797h248
l-457 -1204q-73 -194 -171.5 -281.5t-240.5 -87.5q-117 0 -188 47l33 195q78 -35 137 -35q134 0 217 188l35 82l-479 1096h260z" />
    <glyph glyph-name="Amacron" unicode="&#x100;" horiz-adv-x="1394" 
d="M342 1860h715v-199l-715 -2v201zM1372 0h-254l-143 373h-557l-144 -373h-254l603 1513h153zM903 590l-205 549l-204 -549h409z" />
    <glyph glyph-name="amacron" unicode="&#x101;" horiz-adv-x="1370" 
d="M358 1505h643v-198l-643 -2v200zM1008 950v154h217v-1104h-217v152q-150 -179 -377 -179q-240 0 -395 168q-156 169 -156 418q0 247 156 410q154 161 395 161q228 0 377 -180zM662 180q153 0 256 109q100 106 100 264q0 156 -100 262q-103 109 -256 109q-156 0 -256 -109
q-99 -108 -99 -264t99 -264q98 -107 256 -107z" />
    <glyph glyph-name="Abreve" unicode="&#x102;" horiz-adv-x="1394" 
d="M330 1974h190q5 -93 52 -145.5t128 -52.5q82 0 130 52.5t53 145.5h192q-6 -169 -108 -267.5t-267 -98.5t-264.5 98t-105.5 268zM1372 0h-254l-143 373h-557l-144 -373h-254l603 1513h153zM903 590l-205 549l-204 -549h409z" />
    <glyph glyph-name="abreve" unicode="&#x103;" horiz-adv-x="1370" 
d="M313 1626h189q5 -92 51 -143t127 -51t127 51t51 143h191q-6 -165 -106.5 -262.5t-262.5 -97.5t-261.5 97.5t-105.5 262.5zM1008 950v154h217v-1104h-217v152q-150 -179 -377 -179q-240 0 -395 168q-156 169 -156 418q0 247 156 410q154 161 395 161q228 0 377 -180z
M662 180q153 0 256 109q100 106 100 264q0 156 -100 262q-103 109 -256 109q-156 0 -256 -109q-99 -108 -99 -264t99 -264q98 -107 256 -107z" />
    <glyph glyph-name="Aogonek" unicode="&#x104;" horiz-adv-x="1390" 
d="M1331 -322l72 -153q-102 -60 -203 -60q-109 0 -176.5 64.5t-67.5 163.5q0 180 213 307h-51l-143 373h-557l-144 -373h-254l603 1513h153l596 -1513q-96 -41 -157.5 -111.5t-61.5 -138.5q0 -43 25.5 -69.5t66.5 -26.5q33 0 86 24zM903 590l-205 549l-204 -549h409z" />
    <glyph glyph-name="aogonek" unicode="&#x105;" horiz-adv-x="1361" 
d="M1184 -322l71 -153q-102 -60 -202 -60q-109 0 -176.5 64.5t-67.5 163.5q0 180 213 307h-14v152q-150 -179 -377 -179q-240 0 -395 168q-156 169 -156 418q0 247 156 410q154 161 395 161q228 0 377 -180v154h217v-1104q-96 -41 -157.5 -111.5t-61.5 -138.5
q0 -43 25.5 -69.5t66.5 -26.5q34 0 86 24zM662 180q153 0 256 109q100 106 100 264q0 156 -100 262q-103 109 -256 109q-156 0 -256 -109q-99 -108 -99 -264t99 -264q98 -107 256 -107z" />
    <glyph glyph-name="Cacute" unicode="&#x106;" horiz-adv-x="1583" 
d="M987 1624h-201l125 354h271zM868 -23q-327 0 -553 218q-225 217 -225 557q0 346 229 565q229 223 555 223q201 0 379 -90q173 -87 273 -236l-168 -151q-187 248 -477 248q-229 0 -389 -160q-158 -161 -158 -399q0 -242 155 -394q156 -153 390 -153q299 0 487 246
l168 -148q-108 -149 -284.5 -237.5t-381.5 -88.5z" />
    <glyph glyph-name="cacute" unicode="&#x107;" horiz-adv-x="1228" 
d="M762 1278h-199l123 348h266zM664 -25q-258 0 -420 162q-164 164 -164 414q0 253 166 416t426 163q167 0 304.5 -79t203.5 -215l-187 -105q-52 89 -137 141t-182 52q-158 0 -262 -107q-105 -108 -105 -266q0 -153 103 -262q101 -107 256 -107q98 0 188 53.5t133 135.5
l187 -109q-68 -130 -206.5 -208.5t-303.5 -78.5z" />
    <glyph glyph-name="Ccircumflex" unicode="&#x108;" horiz-adv-x="1583" 
d="M715 1624h-232l297 350h166l297 -350h-237l-146 184zM868 -23q-327 0 -553 218q-225 217 -225 557q0 346 229 565q229 223 555 223q201 0 379 -90q173 -87 273 -236l-168 -151q-187 248 -477 248q-229 0 -389 -160q-158 -161 -158 -399q0 -242 155 -394
q156 -153 390 -153q299 0 487 246l168 -148q-108 -149 -284.5 -237.5t-381.5 -88.5z" />
    <glyph glyph-name="ccircumflex" unicode="&#x109;" horiz-adv-x="1228" 
d="M518 1278h-229l293 344h163l293 -344h-235l-141 182zM664 -25q-258 0 -420 162q-164 164 -164 414q0 253 166 416t426 163q167 0 304.5 -79t203.5 -215l-187 -105q-52 89 -137 141t-182 52q-158 0 -262 -107q-105 -108 -105 -266q0 -153 103 -262q101 -107 256 -107
q98 0 188 53.5t133 135.5l187 -109q-68 -130 -206.5 -208.5t-303.5 -78.5z" />
    <glyph glyph-name="Cdotaccent" unicode="&#x10a;" horiz-adv-x="1583" 
d="M866 1632q-66 0 -110.5 44t-44.5 110q0 63 44.5 106t110.5 43q63 0 106.5 -43t43.5 -106q0 -66 -43.5 -110t-106.5 -44zM868 -23q-327 0 -553 218q-225 217 -225 557q0 346 229 565q229 223 555 223q201 0 379 -90q173 -87 273 -236l-168 -151q-187 248 -477 248
q-229 0 -389 -160q-158 -161 -158 -399q0 -242 155 -394q156 -153 390 -153q299 0 487 246l168 -148q-108 -149 -284.5 -237.5t-381.5 -88.5z" />
    <glyph glyph-name="cdotaccent" unicode="&#x10b;" horiz-adv-x="1228" 
d="M668 1251q-66 0 -111 44t-45 110q0 63 45 106t111 43q63 0 106 -43t43 -106q0 -66 -43 -110t-106 -44zM664 -25q-258 0 -420 162q-164 164 -164 414q0 253 166 416t426 163q167 0 304.5 -79t203.5 -215l-187 -105q-52 89 -137 141t-182 52q-158 0 -262 -107
q-105 -108 -105 -266q0 -153 103 -262q101 -107 256 -107q98 0 188 53.5t133 135.5l187 -109q-68 -130 -206.5 -208.5t-303.5 -78.5z" />
    <glyph glyph-name="Ccaron" unicode="&#x10c;" horiz-adv-x="1583" 
d="M786 1626l-292 344h229l143 -182l142 182h235l-293 -344h-164zM868 -23q-327 0 -553 218q-225 217 -225 557q0 346 229 565q229 223 555 223q201 0 379 -90q173 -87 273 -236l-168 -151q-187 248 -477 248q-229 0 -389 -160q-158 -161 -158 -399q0 -242 155 -394
q156 -153 390 -153q299 0 487 246l168 -148q-108 -149 -284.5 -237.5t-381.5 -88.5z" />
    <glyph glyph-name="ccaron" unicode="&#x10d;" horiz-adv-x="1228" 
d="M584 1278l-293 344h229l144 -182l141 182h235l-292 -344h-164zM664 -25q-258 0 -420 162q-164 164 -164 414q0 253 166 416t426 163q167 0 304.5 -79t203.5 -215l-187 -105q-52 89 -137 141t-182 52q-158 0 -262 -107q-105 -108 -105 -266q0 -153 103 -262
q101 -107 256 -107q98 0 188 53.5t133 135.5l187 -109q-68 -130 -206.5 -208.5t-303.5 -78.5z" />
    <glyph glyph-name="Dcaron" unicode="&#x10e;" horiz-adv-x="1560" 
d="M631 1626l-293 344h229l144 -182l141 182h235l-292 -344h-164zM737 0h-553v1513h572q330 0 516 -204q190 -205 190 -555q0 -348 -194 -551t-531 -203zM420 1288v-1063h328q221 0 344 150q125 149 125 385q0 230 -125 379q-122 149 -342 149h-330z" />
    <glyph glyph-name="dcaron" unicode="&#x10f;" horiz-adv-x="1437" 
d="M1309 1278l118 350h246l-174 -350h-190zM999 950v602h228v-1552h-223v154q-144 -181 -371 -181q-239 0 -395 166q-158 172 -158 414q0 241 158 410q154 167 393 167q219 0 368 -180zM1016 553q0 155 -98 262q-100 109 -256 109t-256 -109q-99 -108 -99 -262
q0 -158 99 -266q98 -107 256 -107t256 107t98 266z" />
    <glyph glyph-name="Dcroat" unicode="&#x110;" horiz-adv-x="1597" 
d="M221 1513h572q330 0 516 -204q190 -205 190 -555q0 -348 -194 -551t-531 -203h-553v657h-192v201h192v655zM457 225h327q221 0 344 150q125 149 125 385q0 230 -125 379q-122 149 -342 149h-329v-430h422v-201h-422v-432z" />
    <glyph glyph-name="dslash" unicode="&#x111;" horiz-adv-x="1376" 
d="M1227 1372h164v-155h-164v-1217h-223v154q-144 -181 -371 -181q-239 0 -395 166q-158 172 -158 414q0 241 158 410q154 167 393 167q219 0 368 -180v267h-313v155h313v180h228v-180zM1016 553q0 155 -98 262q-100 109 -256 109t-256 -109q-99 -108 -99 -262
q0 -158 99 -266q98 -107 256 -107t256 107t98 266z" />
    <glyph glyph-name="Emacron" unicode="&#x112;" 
d="M1034 1661l-715 -2v201h715v-199zM1153 0h-969v1513h967v-223h-731v-411h678v-224h-678v-432h733v-223z" />
    <glyph glyph-name="emacron" unicode="&#x113;" horiz-adv-x="1261" 
d="M324 1503h643v-198l-643 -2v200zM1186 573q0 -53 -8 -108h-863q26 -134 119 -211.5t248 -77.5q94 0 198 32.5t177 86.5l94 -166q-90 -67 -217 -110.5t-260 -43.5q-120 0 -220 32.5t-168 87.5t-114.5 130t-68 158t-21.5 172q0 249 156 412t407 163q240 0 389 -149
q152 -152 152 -408zM645 936q-127 0 -216 -78.5t-114 -208.5h643q-13 129 -100 208t-213 79z" />
    <glyph glyph-name="Ebreve" unicode="&#x114;" 
d="M311 1974h191q5 -93 52 -145.5t128 -52.5t129 52.5t53 145.5h193q-6 -169 -108 -267.5t-267 -98.5t-265 98t-106 268zM1153 0h-969v1513h967v-223h-731v-411h678v-224h-678v-432h733v-223z" />
    <glyph glyph-name="ebreve" unicode="&#x115;" horiz-adv-x="1261" 
d="M289 1622h188q5 -92 51 -143.5t127 -51.5t127.5 51.5t51.5 143.5h190q-6 -165 -106.5 -262.5t-262.5 -97.5t-261 97.5t-105 262.5zM1186 573q0 -53 -8 -108h-863q26 -134 119 -211.5t248 -77.5q94 0 198 32.5t177 86.5l94 -166q-90 -67 -217 -110.5t-260 -43.5
q-120 0 -220 32.5t-168 87.5t-114.5 130t-68 158t-21.5 172q0 249 156 412t407 163q240 0 389 -149q152 -152 152 -408zM645 936q-127 0 -216 -78.5t-114 -208.5h643q-13 129 -100 208t-213 79z" />
    <glyph glyph-name="Edotaccent" unicode="&#x116;" 
d="M676 1632q-66 0 -111 44t-45 110q0 63 45 106t111 43q63 0 106 -43t43 -106q0 -66 -43 -110t-106 -44zM1153 0h-969v1513h967v-223h-731v-411h678v-224h-678v-432h733v-223z" />
    <glyph glyph-name="edotaccent" unicode="&#x117;" horiz-adv-x="1261" 
d="M659 1253q-66 0 -110.5 44t-44.5 110q0 63 44.5 106t110.5 43q63 0 106.5 -43t43.5 -106q0 -66 -43.5 -110t-106.5 -44zM1186 573q0 -53 -8 -108h-863q26 -134 119 -211.5t248 -77.5q94 0 198 32.5t177 86.5l94 -166q-90 -67 -217 -110.5t-260 -43.5q-120 0 -220 32.5
t-168 87.5t-114.5 130t-68 158t-21.5 172q0 249 156 412t407 163q240 0 389 -149q152 -152 152 -408zM645 936q-127 0 -216 -78.5t-114 -208.5h643q-13 129 -100 208t-213 79z" />
    <glyph glyph-name="Eogonek" unicode="&#x118;" horiz-adv-x="1259" 
d="M1112 -322l72 -153q-102 -60 -203 -60q-109 0 -176.5 64.5t-67.5 163.5q0 180 213 307h-766v1513h967v-223h-731v-411h678v-224h-678v-432h733v-223q-96 -41 -157.5 -111.5t-61.5 -138.5q0 -43 25.5 -69.5t66.5 -26.5q34 0 86 24z" />
    <glyph glyph-name="eogonek" unicode="&#x119;" horiz-adv-x="1261" 
d="M1186 573q0 -53 -8 -108h-863q26 -134 119 -211.5t248 -77.5q94 0 198 32.5t177 86.5l94 -166q-104 -80 -242 -119q-96 -41 -157.5 -111.5t-61.5 -138.5q0 -43 25.5 -69.5t66.5 -26.5q31 0 86 25l72 -154q-100 -59 -203 -59q-109 0 -176 64t-67 163q0 152 159 272
q-117 2 -213 35.5t-161.5 88.5t-110.5 129.5t-65.5 156.5t-20.5 170q0 249 156 412t407 163q240 0 389 -149q152 -152 152 -408zM645 936q-127 0 -216 -78.5t-114 -208.5h643q-13 129 -100 208t-213 79z" />
    <glyph glyph-name="Ecaron" unicode="&#x11a;" 
d="M594 1626l-293 344h229l144 -182l141 182h236l-293 -344h-164zM1153 0h-969v1513h967v-223h-731v-411h678v-224h-678v-432h733v-223z" />
    <glyph glyph-name="ecaron" unicode="&#x11b;" horiz-adv-x="1261" 
d="M1028 1622l-293 -344h-164l-292 344h229l143 -182l142 182h235zM1186 573q0 -53 -8 -108h-863q26 -134 119 -211.5t248 -77.5q94 0 198 32.5t177 86.5l94 -166q-90 -67 -217 -110.5t-260 -43.5q-120 0 -220 32.5t-168 87.5t-114.5 130t-68 158t-21.5 172q0 249 156 412
t407 163q240 0 389 -149q152 -152 152 -408zM645 936q-127 0 -216 -78.5t-114 -208.5h643q-13 129 -100 208t-213 79z" />
    <glyph glyph-name="Gcircumflex" unicode="&#x11c;" horiz-adv-x="1660" 
d="M737 1628h-231l297 350h166l297 -350h-238l-145 184zM870 -23q-336 0 -559 220q-221 221 -221 559q0 342 229 561q229 223 562 223q187 0 353.5 -72.5t270.5 -195.5l-162 -160q-181 199 -460 199q-236 0 -394 -158q-157 -157 -157 -397q0 -241 155 -396t390 -155
q130 0 251.5 52.5t208.5 143.5v271h-477v213h696v-594q-282 -314 -686 -314z" />
    <glyph glyph-name="gcircumflex" unicode="&#x11d;" horiz-adv-x="1372" 
d="M797 1276l-142 182l-143 -182h-229l292 344h164l293 -344h-235zM1010 963v141h217v-991q0 -268 -164 -424q-166 -158 -434 -158q-274 0 -494 158l98 174q183 -131 392 -131q175 0 277 97t102 253v80q-144 -164 -371 -164q-242 0 -397 162q-156 164 -156 405
q0 246 162 404q161 161 401 161q222 0 367 -167zM662 199q152 0 253 104t101 260q0 159 -101 260q-103 103 -253 103t-252 -105q-101 -101 -101 -258q0 -158 101 -262q102 -102 252 -102z" />
    <glyph glyph-name="Gbreve" unicode="&#x11e;" horiz-adv-x="1660" 
d="M508 1978h190q5 -93 52.5 -145.5t128.5 -52.5t129 52.5t53 145.5h192q-6 -169 -107.5 -267.5t-266.5 -98.5t-265 98t-106 268zM870 -23q-336 0 -559 220q-221 221 -221 559q0 342 229 561q229 223 562 223q187 0 353.5 -72.5t270.5 -195.5l-162 -160q-181 199 -460 199
q-236 0 -394 -158q-157 -157 -157 -397q0 -241 155 -396t390 -155q130 0 251.5 52.5t208.5 143.5v271h-477v213h696v-594q-282 -314 -686 -314z" />
    <glyph glyph-name="gbreve" unicode="&#x11f;" horiz-adv-x="1372" 
d="M283 1628h188q5 -92 51 -143t127 -51t127 51t51 143h191q-6 -165 -106.5 -262.5t-262.5 -97.5t-261 97.5t-105 262.5zM1010 963v141h217v-991q0 -268 -164 -424q-166 -158 -434 -158q-274 0 -494 158l98 174q183 -131 392 -131q175 0 277 97t102 253v80
q-144 -164 -371 -164q-242 0 -397 162q-156 164 -156 405q0 246 162 404q161 161 401 161q222 0 367 -167zM662 199q152 0 253 104t101 260q0 159 -101 260q-103 103 -253 103t-252 -105q-101 -101 -101 -258q0 -158 101 -262q102 -102 252 -102z" />
    <glyph glyph-name="Gdotaccent" unicode="&#x120;" horiz-adv-x="1660" 
d="M885 1632q-66 0 -111 44t-45 110q0 63 45 106t111 43q63 0 106 -43t43 -106q0 -66 -43 -110t-106 -44zM870 -23q-336 0 -559 220q-221 221 -221 559q0 342 229 561q229 223 562 223q187 0 353.5 -72.5t270.5 -195.5l-162 -160q-181 199 -460 199q-236 0 -394 -158
q-157 -157 -157 -397q0 -241 155 -396t390 -155q130 0 251.5 52.5t208.5 143.5v271h-477v213h696v-594q-282 -314 -686 -314z" />
    <glyph glyph-name="gdotaccent" unicode="&#x121;" horiz-adv-x="1372" 
d="M657 1257q-66 0 -110.5 44t-44.5 110q0 63 44.5 106.5t110.5 43.5q63 0 106.5 -43.5t43.5 -106.5q0 -66 -43.5 -110t-106.5 -44zM1010 963v141h217v-991q0 -268 -164 -424q-166 -158 -434 -158q-274 0 -494 158l98 174q183 -131 392 -131q175 0 277 97t102 253v80
q-144 -164 -371 -164q-242 0 -397 162q-156 164 -156 405q0 246 162 404q161 161 401 161q222 0 367 -167zM662 199q152 0 253 104t101 260q0 159 -101 260q-103 103 -253 103t-252 -105q-101 -101 -101 -258q0 -158 101 -262q102 -102 252 -102z" />
    <glyph glyph-name="Gcommaaccent" unicode="&#x122;" horiz-adv-x="1660" 
d="M860 672v213h696v-594q-282 -314 -686 -314q-336 0 -559 220q-221 221 -221 559q0 342 229 561q229 223 562 223q187 0 353.5 -72.5t270.5 -195.5l-162 -160q-181 199 -460 199q-236 0 -394 -158q-157 -157 -157 -397q0 -241 155 -396t390 -155q130 0 251.5 52.5
t208.5 143.5v271h-477zM879 -80q64 0 108.5 -46.5t44.5 -117.5q0 -178 -270 -356l-78 102q123 92 166 148q-50 5 -84.5 42.5t-34.5 88.5q0 57 43.5 98t104.5 41z" />
    <glyph glyph-name="gcommaaccent" unicode="&#x123;" horiz-adv-x="1372" 
d="M653 1229q-63 0 -107 46.5t-44 115.5q0 172 268 354l76 -103q-132 -102 -164 -145q50 -5 84.5 -41.5t34.5 -87.5q0 -57 -43.5 -98t-104.5 -41zM1010 963v141h217v-991q0 -268 -164 -424q-166 -158 -434 -158q-274 0 -494 158l98 174q183 -131 392 -131q175 0 277 97
t102 253v80q-144 -164 -371 -164q-242 0 -397 162q-156 164 -156 405q0 246 162 404q161 161 401 161q222 0 367 -167zM662 199q152 0 253 104t101 260q0 159 -101 260q-103 103 -253 103t-252 -105q-101 -101 -101 -258q0 -158 101 -262q102 -102 252 -102z" />
    <glyph glyph-name="Hcircumflex" unicode="&#x124;" horiz-adv-x="1560" 
d="M635 1624h-232l297 350h166l297 -350h-237l-146 184zM420 0h-236v1513h236v-628h721v628h235v-1513h-235v657h-721v-657z" />
    <glyph glyph-name="hcircumflex" unicode="&#x125;" horiz-adv-x="1282" 
d="M111 1628h-232l297 350h166l297 -350h-238l-145 184zM373 0h-226v1552h220v-587q51 77 143 122.5t207 45.5q182 0 307 -119t125 -342v-672h-225v608q0 150 -72 233t-193 83q-127 0 -206.5 -88.5t-79.5 -229.5v-606z" />
    <glyph glyph-name="Hbar" unicode="&#x126;" horiz-adv-x="1632" 
d="M1397 1278h184v-180h-184v-1098h-236v657h-721v-657h-235v1098h-182v180h182v235h235v-235h721v235h236v-235zM440 885h721v213h-721v-213z" />
    <glyph glyph-name="hbar" unicode="&#x127;" horiz-adv-x="1282" 
d="M717 1133q182 0 307 -119t125 -342v-672h-225v608q0 150 -72 233t-193 83q-127 0 -206.5 -88.5t-79.5 -229.5v-606h-226v1217h-133v155h133v180h220v-180h352v-155h-352v-252q51 77 143 122.5t207 45.5z" />
    <glyph glyph-name="Itilde" unicode="&#x128;" horiz-adv-x="604" 
d="M47 1663l-147 72q73 211 264 211q64 0 155 -48q86 -45 127 -45q73 0 121 97l144 -70q-32 -98 -100 -154.5t-154 -56.5q-65 0 -154 47t-129 47q-78 0 -127 -100zM188 0v1513h236v-1513h-236z" />
    <glyph glyph-name="itilde" unicode="&#x129;" horiz-adv-x="518" 
d="M4 1284l-145 70q71 209 260 209q67 0 153 -45t127 -45q76 0 119 94l144 -68q-32 -98 -99 -153.5t-153 -55.5q-66 0 -152 45q-89 47 -129 47q-76 0 -125 -98zM373 1104v-1104h-226v1104h226z" />
    <glyph glyph-name="Imacron" unicode="&#x12a;" horiz-adv-x="604" 
d="M666 1692l-715 -2v200h715v-198zM188 0v1513h236v-1513h-236z" />
    <glyph glyph-name="imacron" unicode="&#x12b;" horiz-adv-x="518" 
d="M584 1305l-643 -2v200h643v-198zM373 1104v-1104h-226v1104h226z" />
    <glyph glyph-name="Ibreve" unicode="&#x12c;" horiz-adv-x="604" 
d="M-66 1982h191q5 -93 52 -145.5t128 -52.5t129 52.5t53 145.5h193q-6 -169 -108 -267.5t-267 -98.5t-265 98t-106 268zM188 0v1513h236v-1513h-236z" />
    <glyph glyph-name="ibreve" unicode="&#x12d;" horiz-adv-x="518" 
d="M-104 1624h188q5 -92 51 -143t127 -51t127 51t51 143h191q-6 -165 -106.5 -262.5t-262.5 -97.5t-261 97.5t-105 262.5zM373 1104v-1104h-226v1104h226z" />
    <glyph glyph-name="Iogonek" unicode="&#x12e;" horiz-adv-x="604" 
d="M383 -322l72 -153q-102 -60 -203 -60q-109 0 -176.5 64.5t-67.5 163.5q0 180 213 307h-33v1513h236v-1513q-96 -41 -157.5 -111.5t-61.5 -138.5q0 -43 25.5 -69.5t66.5 -26.5q33 0 86 24z" />
    <glyph glyph-name="iogonek" unicode="&#x12f;" horiz-adv-x="518" 
d="M264 1249q-66 0 -110.5 44t-44.5 110q0 63 44.5 106t110.5 43q63 0 106.5 -43t43.5 -106q0 -66 -43.5 -110t-106.5 -44zM248 -346q34 0 86 24l72 -153q-102 -60 -203 -60q-109 0 -176.5 64.5t-67.5 163.5q0 180 213 307h-25v1104h226v-1104h2q-96 -41 -157.5 -111.5
t-61.5 -138.5q0 -43 25.5 -69.5t66.5 -26.5z" />
    <glyph glyph-name="Idot" unicode="&#x130;" horiz-adv-x="604" 
d="M313 1628q-66 0 -110.5 44t-44.5 110q0 63 44.5 106t110.5 43q63 0 106.5 -43t43.5 -106q0 -66 -43.5 -110t-106.5 -44zM195 0v1513h235v-1513h-235z" />
    <glyph glyph-name="dotlessi" unicode="&#x131;" horiz-adv-x="518" 
d="M371 1104v-1104h-226v1104h226z" />
    <glyph glyph-name="IJ" unicode="&#x132;" horiz-adv-x="1755" 
d="M184 0v1513h236v-1513h-236zM1063 -25q-272 0 -447 193l134 176q122 -143 305 -143q135 0 215 86.5t80 238.5v987h237v-997q0 -263 -147 -401q-146 -140 -377 -140z" />
    <glyph glyph-name="ij" unicode="&#x133;" horiz-adv-x="1095" 
d="M264 1249q-66 0 -110.5 44t-44.5 110q0 63 44.5 106t110.5 43q63 0 106.5 -43t43.5 -106q0 -66 -43.5 -110t-106.5 -44zM817 1249q-66 0 -110.5 44t-44.5 110q0 63 44.5 106t110.5 43q63 0 106.5 -43t43.5 -106q0 -66 -43.5 -110t-106.5 -44zM373 1104v-1104h-226v1104
h226zM545 -471q-139 0 -215 49l45 184q86 -28 139 -28q188 0 188 223v1147h226v-1143q0 -210 -101.5 -321t-281.5 -111z" />
    <glyph glyph-name="Jcircumflex" unicode="&#x134;" horiz-adv-x="1157" 
d="M725 1624h-231l297 350h165l297 -350h-237l-146 184zM467 -25q-272 0 -447 193l134 176q122 -143 305 -143q135 0 215 86.5t80 238.5v987h237v-997q0 -263 -147 -401q-146 -140 -377 -140z" />
    <glyph glyph-name="jcircumflex" unicode="&#x135;" horiz-adv-x="567" 
d="M160 1274h-230l293 344h164l293 -344h-236l-141 182zM37 -471q-139 0 -215 49l45 184q86 -28 139 -28q189 0 189 223v1147h225v-1143q0 -210 -101.5 -321t-281.5 -111z" />
    <glyph glyph-name="Kcommaaccent" unicode="&#x136;" horiz-adv-x="1382" 
d="M1358 1513l-584 -704l633 -809h-291l-495 643l-201 -240v-403h-236v1513h236v-788l655 788h283zM754 -70q64 0 108.5 -46t44.5 -117q0 -179 -270 -357l-78 103q125 94 166 147q-50 5 -84.5 42.5t-34.5 88.5q0 57 43.5 98t104.5 41z" />
    <glyph glyph-name="kcommaaccent" unicode="&#x137;" horiz-adv-x="1140" 
d="M1133 1104l-508 -459l530 -645h-291l-397 502l-96 -88v-414h-226v1552h226v-874l465 426h297zM602 -35q63 0 107.5 -46.5t44.5 -115.5q0 -171 -269 -354l-75 102q128 99 163 146q-50 5 -84 41.5t-34 87.5q0 57 43 98t104 41z" />
    <glyph glyph-name="kgreenlandic" unicode="&#x138;" horiz-adv-x="1130" 
d="M1139 0h-281l-391 494l-98 -93v-401h-224v1104h224v-436l467 436h292l-501 -465z" />
    <glyph glyph-name="Lacute" unicode="&#x139;" horiz-adv-x="1247" 
d="M403 1624h-200l125 354h270zM1219 0h-1035v1513h236v-1286h799v-227z" />
    <glyph glyph-name="lacute" unicode="&#x13a;" horiz-adv-x="512" 
d="M358 1630h-200l125 355h270zM371 1552v-1552h-226v1552h226z" />
    <glyph glyph-name="Lcommaaccent" unicode="&#x13b;" horiz-adv-x="1247" 
d="M420 1513v-1286h799v-227h-1035v1513h236zM717 -72q64 0 108.5 -46.5t44.5 -117.5q0 -178 -270 -356l-78 103q125 94 166 147q-50 5 -84.5 42.5t-34.5 88.5q0 57 43.5 98t104.5 41z" />
    <glyph glyph-name="lcommaaccent" unicode="&#x13c;" horiz-adv-x="516" 
d="M150 1552h225v-1552h-225v1552zM258 -82q63 0 107.5 -46.5t44.5 -115.5q0 -171 -269 -354l-75 102q128 99 163 146q-50 5 -84 41.5t-34 87.5q0 57 43 98t104 41z" />
    <glyph glyph-name="Lcaron" unicode="&#x13d;" horiz-adv-x="1257" 
d="M1020 1274h-191l119 350h246zM1219 0h-1035v1513h236v-1286h799v-227z" />
    <glyph glyph-name="lcaron" unicode="&#x13e;" horiz-adv-x="573" 
d="M629 1276h-191l119 350h246zM371 1552v-1552h-226v1552h226z" />
    <glyph glyph-name="Ldot" unicode="&#x13f;" horiz-adv-x="1251" 
d="M1219 0h-1035v1513h236v-1286h799v-227zM928 670q-62 0 -104 41t-42 102q0 60 42 100.5t104 40.5q60 0 100.5 -40.5t40.5 -100.5q0 -61 -40.5 -102t-100.5 -41z" />
    <glyph glyph-name="ldot" unicode="&#x140;" horiz-adv-x="768" 
d="M371 1552v-1552h-226v1552h226zM643 602q-62 0 -103.5 41t-41.5 102q0 60 42 101t103 41q60 0 100.5 -41t40.5 -101q0 -61 -40.5 -102t-100.5 -41z" />
    <glyph glyph-name="Lslash" unicode="&#x141;" horiz-adv-x="1267" 
d="M440 725v-498h799v-227h-1034v571l-148 -96v223l148 97v718h235v-565l232 152v-226z" />
    <glyph glyph-name="lslash" unicode="&#x142;" horiz-adv-x="649" 
d="M434 973l141 104v-223l-141 -104v-750h-225v586l-125 -92v223l125 92v743h225v-579z" />
    <glyph glyph-name="Nacute" unicode="&#x143;" horiz-adv-x="1607" 
d="M885 1624h-201l125 354h270zM1190 479v1034h233v-1513h-139l-866 1026v-1026h-234v1513h123z" />
    <glyph glyph-name="nacute" unicode="&#x144;" horiz-adv-x="1282" 
d="M733 1278h-198l122 348h267zM371 0h-226v1104h222v-156q50 87 141.5 136t208.5 49q182 0 307 -119q127 -121 127 -342v-672h-227v608q0 150 -72 233t-193 83q-127 0 -207.5 -89.5t-80.5 -230.5v-604z" />
    <glyph glyph-name="Ncommaaccent" unicode="&#x145;" horiz-adv-x="1607" 
d="M1190 479v1034h233v-1513h-139l-866 1026v-1026h-234v1513h123zM827 -51q64 0 109 -46.5t45 -117.5q0 -177 -270 -356l-78 102q125 94 166 147q-50 5 -84.5 43t-34.5 89q0 57 43 98t104 41z" />
    <glyph glyph-name="ncommaaccent" unicode="&#x146;" horiz-adv-x="1282" 
d="M717 1133q182 0 307 -119q127 -121 127 -342v-672h-227v608q0 150 -72 233t-193 83q-127 0 -207.5 -89.5t-80.5 -230.5v-604h-226v1104h222v-156q50 87 141.5 136t208.5 49zM662 -57q63 0 107 -46.5t44 -115.5q0 -172 -268 -354l-76 102q132 102 164 145
q-50 5 -84.5 41.5t-34.5 87.5q0 57 43.5 98.5t104.5 41.5z" />
    <glyph glyph-name="Ncaron" unicode="&#x147;" horiz-adv-x="1607" 
d="M739 1626l-293 344h230l143 -182l142 182h235l-293 -344h-164zM1190 479v1034h233v-1513h-139l-866 1026v-1026h-234v1513h123z" />
    <glyph glyph-name="ncaron" unicode="&#x148;" horiz-adv-x="1282" 
d="M573 1276l-292 344h229l143 -182l142 182h235l-293 -344h-164zM371 0h-226v1104h222v-156q50 87 141.5 136t208.5 49q182 0 307 -119q127 -121 127 -342v-672h-227v608q0 150 -72 233t-193 83q-127 0 -207.5 -89.5t-80.5 -230.5v-604z" />
    <glyph glyph-name="napostrophe" unicode="&#x149;" horiz-adv-x="1355" 
d="M127 1274h-190l118 350h246zM444 0h-225v1104h221v-156q50 87 142 136t209 49q182 0 307 -119q127 -121 127 -342v-672h-228v608q0 150 -71.5 233t-192.5 83q-127 0 -208 -89.5t-81 -230.5v-604z" />
    <glyph glyph-name="Eng" unicode="&#x14a;" horiz-adv-x="1607" 
d="M1190 455v1058h233v-1484q0 -260 -145 -402q-144 -141 -369 -141q-161 0 -301 82l78 205q103 -62 217 -62q128 0 207.5 83.5t79.5 232.5v65l-772 936v-1028h-234v1513h123z" />
    <glyph glyph-name="eng" unicode="&#x14b;" horiz-adv-x="1280" 
d="M680 -463l6 203q238 -18 238 217v668q0 141 -70 220t-190 79q-129 0 -211 -89.5t-82 -230.5v-604h-226v1104h220v-143q50 79 142.5 125.5t207.5 46.5q180 0 307 -121t127 -342v-713q0 -230 -124.5 -338.5t-344.5 -81.5z" />
    <glyph glyph-name="Omacron" unicode="&#x14c;" horiz-adv-x="1746" 
d="M1229 1661l-715 -2v201h715v-199zM866 -25q-331 0 -555 224q-223 223 -223 551q0 330 229 559q231 231 555 231q329 0 558 -229t229 -555q0 -327 -229 -553q-231 -228 -564 -228zM872 207q228 0 383 155q158 158 158 392q0 237 -158 395t-383 158q-226 0 -383 -160
q-155 -155 -155 -393q0 -233 153 -389q158 -158 385 -158z" />
    <glyph glyph-name="omacron" unicode="&#x14d;" horiz-adv-x="1327" 
d="M987 1305l-643 -2v200h643v-198zM80 553q0 240 164 410q167 170 420 170t417 -170q166 -169 166 -410q0 -245 -166 -414q-162 -168 -417 -168t-420 168q-164 170 -164 414zM1020 553q0 152 -105 260q-102 111 -251 111t-254 -111q-103 -109 -103 -260q0 -153 103 -262
q106 -109 254 -109t251 109q105 108 105 262z" />
    <glyph glyph-name="Obreve" unicode="&#x14e;" horiz-adv-x="1746" 
d="M510 1974h190q5 -93 52.5 -145.5t128.5 -52.5t129 52.5t53 145.5h192q-6 -169 -107.5 -267.5t-266.5 -98.5t-265 98t-106 268zM866 -25q-331 0 -555 224q-223 223 -223 551q0 330 229 559q231 231 555 231q329 0 558 -229t229 -555q0 -327 -229 -553q-231 -228 -564 -228
zM872 207q228 0 383 155q158 158 158 392q0 237 -158 395t-383 158q-226 0 -383 -160q-155 -155 -155 -393q0 -233 153 -389q158 -158 385 -158z" />
    <glyph glyph-name="obreve" unicode="&#x14f;" horiz-adv-x="1327" 
d="M299 1624h188q5 -91 51.5 -142.5t127.5 -51.5t127 51t51 143h190q-6 -165 -106 -262.5t-262 -97.5t-261.5 97.5t-105.5 262.5zM80 553q0 240 164 410q167 170 420 170t417 -170q166 -169 166 -410q0 -245 -166 -414q-162 -168 -417 -168t-420 168q-164 170 -164 414z
M1020 553q0 152 -105 260q-102 111 -251 111t-254 -111q-103 -109 -103 -260q0 -153 103 -262q106 -109 254 -109t251 109q105 108 105 262z" />
    <glyph glyph-name="Ohungarumlaut" unicode="&#x150;" horiz-adv-x="1746" 
d="M784 1628h-190l86 354h268zM1169 1628h-192l104 354h271zM866 -25q-331 0 -555 224q-223 223 -223 551q0 330 229 559q231 231 555 231q329 0 558 -229t229 -555q0 -327 -229 -553q-231 -228 -564 -228zM872 207q228 0 383 155q158 158 158 392q0 237 -158 395t-383 158
q-226 0 -383 -160q-155 -155 -155 -393q0 -233 153 -389q158 -158 385 -158z" />
    <glyph glyph-name="ohungarumlaut" unicode="&#x151;" horiz-adv-x="1327" 
d="M573 1276h-188l86 348h262zM952 1276h-190l102 348h266zM80 553q0 240 164 410q167 170 420 170t417 -170q166 -169 166 -410q0 -245 -166 -414q-162 -168 -417 -168t-420 168q-164 170 -164 414zM1020 553q0 152 -105 260q-102 111 -251 111t-254 -111
q-103 -109 -103 -260q0 -153 103 -262q106 -109 254 -109t251 109q105 108 105 262z" />
    <glyph glyph-name="OE" unicode="&#x152;" horiz-adv-x="2039" 
d="M1194 655v-432h733v-223h-958q-98 -4 -107 -4q-383 0 -575 207q-189 207 -189 551q0 347 187 555q188 209 561 209q13 0 49 -2t55 -3h975v-223h-731v-411h678v-224h-678zM344 758q0 -235 123 -385q128 -152 397 -152q8 0 94 4v1063q-86 4 -94 4q-114 0 -204 -29.5
t-148.5 -79t-97 -119t-54.5 -145t-16 -161.5z" />
    <glyph glyph-name="oe" unicode="&#x153;" horiz-adv-x="2193" 
d="M2118 573q0 -47 -9 -108h-862q26 -134 119 -211.5t248 -77.5q94 0 198 32.5t177 86.5l94 -166q-90 -67 -217 -110.5t-260 -43.5q-326 0 -482 218q-79 -104 -200 -162t-262 -58q-256 0 -418 168q-164 170 -164 412q0 240 164 410q161 167 418 167q288 0 462 -219
q157 219 453 219q240 0 389 -149q152 -152 152 -408zM1577 936q-127 0 -216 -78.5t-114 -208.5h643q-13 129 -100 208t-213 79zM662 184q134 0 239 97q104 101 113 241v33v31q-9 141 -113 237q-105 97 -239 97q-146 0 -252 -109q-103 -109 -103 -258q0 -153 103 -262
q104 -107 252 -107z" />
    <glyph glyph-name="Racute" unicode="&#x154;" horiz-adv-x="1335" 
d="M631 1978h270l-194 -354h-201zM1274 0h-285l-368 594h-201v-594h-236v1513h535q236 0 362 -135q127 -136 127 -325q0 -154 -89 -274t-249 -163zM719 1290h-299v-477h262q137 0 210 67t73 175q0 103 -66 169t-180 66z" />
    <glyph glyph-name="racute" unicode="&#x155;" horiz-adv-x="835" 
d="M557 1278h-199l123 348h267zM371 0h-226v1104h215v-158q99 187 314 187q66 0 131 -19l-21 -219q-56 20 -120 20q-133 0 -213 -90.5t-80 -259.5v-565z" />
    <glyph glyph-name="Rcommaaccent" unicode="&#x156;" horiz-adv-x="1335" 
d="M870 616l404 -616h-285l-368 594h-201v-594h-236v1513h535q236 0 362 -135q127 -136 127 -325q0 -154 -89 -274t-249 -163zM719 1290h-299v-477h262q137 0 210 67t73 175q0 103 -66 169t-180 66zM694 -55q64 0 109 -46.5t45 -117.5q0 -177 -270 -356l-78 102
q125 94 166 147q-50 5 -84.5 42.5t-34.5 88.5q0 57 43 98.5t104 41.5z" />
    <glyph glyph-name="rcommaaccent" unicode="&#x157;" horiz-adv-x="839" 
d="M676 1133q66 0 131 -19l-21 -219q-56 20 -120 20q-133 0 -213 -90.5t-80 -259.5v-565h-226v1104h215v-158q99 187 314 187zM260 -78q63 0 107.5 -46.5t44.5 -115.5q0 -171 -269 -354l-75 102q128 99 163 146q-50 5 -84 41.5t-34 87.5q0 57 43 98t104 41z" />
    <glyph glyph-name="Rcaron" unicode="&#x158;" horiz-adv-x="1335" 
d="M1016 1970l-293 -344h-164l-293 344h230l143 -182l141 182h236zM1274 0h-285l-368 594h-201v-594h-236v1513h535q236 0 362 -135q127 -136 127 -325q0 -154 -89 -274t-249 -163zM719 1290h-299v-477h262q137 0 210 67t73 175q0 103 -66 169t-180 66z" />
    <glyph glyph-name="rcaron" unicode="&#x159;" horiz-adv-x="835" 
d="M389 1278l-293 344h230l143 -182l141 182h236l-293 -344h-164zM373 0h-226v1104h215v-158q99 187 314 187q66 0 131 -19l-21 -219q-56 20 -120 20q-133 0 -213 -90.5t-80 -259.5v-565z" />
    <glyph glyph-name="Sacute" unicode="&#x15a;" horiz-adv-x="1175" 
d="M680 1624h-201l125 354h270zM584 -25q-169 0 -312 78.5t-223 222.5l160 154q62 -113 160.5 -172t214.5 -59q115 0 186.5 59.5t71.5 147.5q0 114 -150 194q-57 28 -153 68q-129 59 -174 86q-230 137 -230 366q0 180 131 299q133 121 344 121q286 0 461 -217l-145 -162
q-126 156 -314 156q-100 0 -162.5 -50t-62.5 -134q0 -110 127 -181q91 -47 170 -84q108 -48 186 -90q232 -127 232 -360q0 -192 -146 -320q-144 -123 -372 -123z" />
    <glyph glyph-name="sacute" unicode="&#x15b;" horiz-adv-x="952" 
d="M582 1278h-199l123 348h266zM473 -27q-131 0 -244 59.5t-180 172.5l146 131q50 -80 126 -124t156 -44q79 0 130.5 39.5t51.5 97.5q0 81 -94 127q-22 12 -133 55q-104 44 -139 64q-176 92 -176 272q0 139 102 228q107 90 275 90q236 0 362 -170l-131 -140
q-100 121 -242 121q-67 0 -107 -34.5t-40 -86.5q0 -79 92 -120l113 -47q97 -40 155 -70q189 -100 189 -279q0 -143 -115 -243q-114 -99 -297 -99z" />
    <glyph glyph-name="Scircumflex" unicode="&#x15c;" horiz-adv-x="1175" 
d="M473 1622h-231l297 350h166l296 -350h-237l-146 184zM584 -25q-169 0 -312 78.5t-223 222.5l160 154q62 -113 160.5 -172t214.5 -59q115 0 186.5 59.5t71.5 147.5q0 114 -150 194q-57 28 -153 68q-129 59 -174 86q-230 137 -230 366q0 180 131 299q133 121 344 121
q286 0 461 -217l-145 -162q-126 156 -314 156q-100 0 -162.5 -50t-62.5 -134q0 -110 127 -181q91 -47 170 -84q108 -48 186 -90q232 -127 232 -360q0 -192 -146 -320q-144 -123 -372 -123z" />
    <glyph glyph-name="scircumflex" unicode="&#x15d;" horiz-adv-x="950" 
d="M344 1278h-229l293 344h163l293 -344h-235l-142 182zM473 -27q-131 0 -244 59.5t-180 172.5l146 131q50 -80 126 -124t156 -44q79 0 130.5 39.5t51.5 97.5q0 81 -94 127q-22 12 -133 55q-104 44 -139 64q-176 92 -176 272q0 139 102 228q107 90 275 90q236 0 362 -170
l-131 -140q-100 121 -242 121q-67 0 -107 -34.5t-40 -86.5q0 -79 92 -120l113 -47q97 -40 155 -70q189 -100 189 -279q0 -143 -115 -243q-114 -99 -297 -99z" />
    <glyph glyph-name="Scedilla" unicode="&#x15e;" horiz-adv-x="1175" 
d="M1102 418q0 -180 -125 -299q-121 -118 -322 -139l-30 -78h6q94 0 155.5 -52.5t61.5 -142.5q0 -98 -74 -164.5t-203 -66.5q-109 0 -239 59l55 141q87 -43 166 -43q54 0 84.5 24t30.5 62q0 74 -109 74h-115l-16 47l57 144q-139 19 -253.5 94.5t-182.5 197.5l160 154
q62 -113 160.5 -172t214.5 -59q115 0 186.5 59.5t71.5 147.5q0 114 -150 194q-57 28 -153 68q-129 59 -174 86q-230 137 -230 366q0 180 131 299q133 121 344 121q286 0 461 -217l-145 -162q-126 156 -314 156q-100 0 -162.5 -50t-62.5 -134q0 -110 127 -181q91 -47 170 -84
q108 -48 186 -90q232 -127 232 -360z" />
    <glyph glyph-name="scedilla" unicode="&#x15f;" horiz-adv-x="952" 
d="M885 315q0 -136 -100 -231.5t-263 -108.5l-28 -71h6q94 0 155.5 -52.5t61.5 -142.5q0 -98 -74 -164.5t-203 -66.5q-109 0 -239 59l55 141q87 -43 166 -43q54 0 84.5 24t30.5 62q0 74 -109 74h-115l-16 47l57 144q-203 49 -305 219l146 131q50 -80 126 -124t156 -44
q79 0 130.5 39.5t51.5 97.5q0 81 -94 127q-22 12 -133 55q-104 44 -139 64q-176 92 -176 272q0 139 102 228q107 90 275 90q236 0 362 -170l-131 -140q-100 121 -242 121q-67 0 -107 -34.5t-40 -86.5q0 -79 92 -120l113 -47q97 -40 155 -70q189 -100 189 -279z" />
    <glyph glyph-name="Scaron" unicode="&#x160;" horiz-adv-x="1175" 
d="M547 1626l-293 344h229l144 -182l141 182h236l-293 -344h-164zM584 -25q-169 0 -312 78.5t-223 222.5l160 154q62 -113 160.5 -172t214.5 -59q115 0 186.5 59.5t71.5 147.5q0 114 -150 194q-57 28 -153 68q-129 59 -174 86q-230 137 -230 366q0 180 131 299
q133 121 344 121q286 0 461 -217l-145 -162q-126 156 -314 156q-100 0 -162.5 -50t-62.5 -134q0 -110 127 -181q91 -47 170 -84q108 -48 186 -90q232 -127 232 -360q0 -192 -146 -320q-144 -123 -372 -123z" />
    <glyph glyph-name="scaron" unicode="&#x161;" horiz-adv-x="950" 
d="M410 1276l-293 344h229l143 -182l142 182h235l-293 -344h-163zM473 -27q-131 0 -244 59.5t-180 172.5l146 131q50 -80 126 -124t156 -44q79 0 130.5 39.5t51.5 97.5q0 81 -94 127q-22 12 -133 55q-104 44 -139 64q-176 92 -176 272q0 139 102 228q107 90 275 90
q236 0 362 -170l-131 -140q-100 121 -242 121q-67 0 -107 -34.5t-40 -86.5q0 -79 92 -120l113 -47q97 -40 155 -70q189 -100 189 -279q0 -143 -115 -243q-114 -99 -297 -99z" />
    <glyph glyph-name="Tcaron" unicode="&#x164;" horiz-adv-x="1181" 
d="M512 1626l-293 344h230l143 -182l141 182h236l-293 -344h-164zM471 0v1284h-442v229h1124v-229h-442v-1284h-240z" />
    <glyph glyph-name="tcaron" unicode="&#x165;" horiz-adv-x="897" 
d="M774 1626h246l-174 -350h-191zM618 180q89 0 195 62l78 -176q-125 -93 -305 -93q-179 0 -271 108.5t-92 313.5v516h-190v193h192v391h224v-391h380v-193h-380v-520q0 -211 169 -211z" />
    <glyph glyph-name="Tbar" unicode="&#x166;" horiz-adv-x="1234" 
d="M1180 1513v-229h-443v-395h307v-201h-307v-688h-239v688h-303v201h303v395h-443v229h1125z" />
    <glyph glyph-name="tbar" unicode="&#x167;" horiz-adv-x="911" 
d="M823 242l78 -176q-125 -93 -305 -93q-179 0 -271 108.5t-92 313.5v144h-186v176h186v196h-190v193h193v391h223v-391h381v-193h-381v-196h377v-176h-377v-148q0 -211 170 -211q88 0 194 62z" />
    <glyph glyph-name="Utilde" unicode="&#x168;" horiz-adv-x="1458" 
d="M477 1634l-147 72q73 211 264 211q67 0 156 -47q86 -45 127 -45q73 0 120 96l144 -70q-32 -98 -100 -154.5t-154 -56.5q-63 0 -154 48q-89 47 -129 47q-78 0 -127 -101zM729 -27q-247 0 -405 146q-156 144 -156 405v989h235v-958q0 -170 85.5 -260t240.5 -90
q153 0 238.5 92.5t85.5 257.5v958h237v-989q0 -264 -155 -407q-156 -144 -406 -144z" />
    <glyph glyph-name="utilde" unicode="&#x169;" horiz-adv-x="1230" 
d="M360 1278l-145 70q70 208 260 208q68 0 154 -45t127 -45q74 0 118 95l144 -68q-32 -98 -99 -153.5t-153 -55.5q-66 0 -152 45q-89 47 -129 47q-76 0 -125 -98zM614 -27q-222 0 -352.5 129.5t-130.5 350.5v651h225v-649q0 -125 68.5 -199t189.5 -74q122 0 190 72.5
t68 200.5v649h228v-651q0 -225 -129 -352.5t-357 -127.5z" />
    <glyph glyph-name="Umacron" unicode="&#x16a;" horiz-adv-x="1458" 
d="M1085 1663l-714 -2v201h714v-199zM729 -27q-247 0 -405 146q-156 144 -156 405v989h235v-958q0 -170 85.5 -260t240.5 -90q153 0 238.5 92.5t85.5 257.5v958h237v-989q0 -264 -155 -407q-156 -144 -406 -144z" />
    <glyph glyph-name="umacron" unicode="&#x16b;" horiz-adv-x="1230" 
d="M938 1305l-643 -2v200h643v-198zM614 -27q-222 0 -352.5 129.5t-130.5 350.5v651h225v-649q0 -125 68.5 -199t189.5 -74q122 0 190 72.5t68 200.5v649h228v-651q0 -225 -129 -352.5t-357 -127.5z" />
    <glyph glyph-name="Ubreve" unicode="&#x16c;" horiz-adv-x="1458" 
d="M358 1974h191q5 -93 52 -145.5t128 -52.5t129 52.5t53 145.5h193q-6 -169 -108 -267.5t-267 -98.5t-265 98t-106 268zM729 -27q-247 0 -405 146q-156 144 -156 405v989h235v-958q0 -170 85.5 -260t240.5 -90q153 0 238.5 92.5t85.5 257.5v958h237v-989q0 -264 -155 -407
q-156 -144 -406 -144z" />
    <glyph glyph-name="ubreve" unicode="&#x16d;" horiz-adv-x="1230" 
d="M250 1624h188q5 -92 51 -143t127 -51t127.5 51.5t51.5 142.5h190q-6 -165 -106.5 -262.5t-262.5 -97.5t-261 97.5t-105 262.5zM614 -27q-222 0 -352.5 129.5t-130.5 350.5v651h225v-649q0 -125 68.5 -199t189.5 -74q122 0 190 72.5t68 200.5v649h228v-651
q0 -225 -129 -352.5t-357 -127.5z" />
    <glyph glyph-name="Uring" unicode="&#x16e;" horiz-adv-x="1458" 
d="M909 1667q-70 -70 -178 -70q-107 0 -180 70q-74 71 -74 172q0 103 74 174q75 72 180 72q106 0 178 -72q74 -71 74 -174q0 -101 -74 -172zM731 1731q43 0 76 32.5t33 79.5q0 44 -33 76.5t-76 32.5q-47 0 -80 -32t-33 -77q0 -47 33 -79.5t80 -32.5zM729 -27
q-247 0 -405 146q-156 144 -156 405v989h235v-958q0 -170 85.5 -260t240.5 -90q153 0 238.5 92.5t85.5 257.5v958h237v-989q0 -264 -155 -407q-156 -144 -406 -144z" />
    <glyph glyph-name="uring" unicode="&#x16f;" horiz-adv-x="1230" 
d="M793 1282q-71 -68 -177 -68q-104 0 -178 68q-71 71 -71 170t71 170q75 72 178 72q105 0 177 -72q73 -70 73 -170t-73 -170zM616 1346q44 0 76.5 32t32.5 78q0 43 -33 75t-76 32q-47 0 -78.5 -31t-31.5 -76q0 -47 31.5 -78.5t78.5 -31.5zM614 -27q-222 0 -352.5 129.5
t-130.5 350.5v651h225v-649q0 -125 68.5 -199t189.5 -74q122 0 190 72.5t68 200.5v649h228v-651q0 -225 -129 -352.5t-357 -127.5z" />
    <glyph glyph-name="Uhungarumlaut" unicode="&#x170;" horiz-adv-x="1458" 
d="M627 1628h-191l86 354h269zM1012 1628h-193l105 354h270zM729 -27q-247 0 -405 146q-156 144 -156 405v989h235v-958q0 -170 85.5 -260t240.5 -90q153 0 238.5 92.5t85.5 257.5v958h237v-989q0 -264 -155 -407q-156 -144 -406 -144z" />
    <glyph glyph-name="uhungarumlaut" unicode="&#x171;" horiz-adv-x="1226" 
d="M506 1276h-189l86 348h263zM885 1276h-191l103 348h266zM614 -27q-222 0 -352.5 129.5t-130.5 350.5v651h225v-649q0 -125 68.5 -199t189.5 -74q122 0 190 72.5t68 200.5v649h228v-651q0 -225 -129 -352.5t-357 -127.5z" />
    <glyph glyph-name="Uogonek" unicode="&#x172;" horiz-adv-x="1458" 
d="M1053 555v958h237v-989q0 -194 -90.5 -327.5t-251.5 -188.5q-92 -43 -150.5 -111.5t-58.5 -134.5q0 -43 25.5 -69.5t66.5 -26.5q32 0 87 25l71 -154q-100 -59 -203 -59q-109 0 -176 64t-67 163q0 152 155 268q-235 9 -383 154q-147 144 -147 397v989h235v-958
q0 -170 85.5 -260t240.5 -90q153 0 238.5 92.5t85.5 257.5z" />
    <glyph glyph-name="uogonek" unicode="&#x173;" horiz-adv-x="1230" 
d="M872 455v649h228v-651q0 -170 -76.5 -287t-216.5 -164q-96 -41 -157.5 -111.5t-61.5 -138.5q0 -43 25.5 -69.5t66.5 -26.5q31 0 86 25l72 -154q-100 -59 -203 -59q-109 0 -176.5 64t-67.5 163q0 160 172 280q-202 17 -317 143.5t-115 334.5v651h225v-649
q0 -125 68.5 -199t189.5 -74q122 0 190 72.5t68 200.5z" />
    <glyph glyph-name="Wcircumflex" unicode="&#x174;" horiz-adv-x="2131" 
d="M920 1624h-232l297 350h166l297 -350h-238l-145 184zM694 0h-162l-514 1513h254l346 -1079l383 1079h125l392 -1079l340 1079h253l-512 -1513h-157l-375 1085z" />
    <glyph glyph-name="wcircumflex" unicode="&#x175;" horiz-adv-x="1744" 
d="M729 1276h-229l293 344h163l293 -344h-235l-142 182zM590 2h-193l-377 1102h238l248 -793l285 793h159l293 -793l240 793h237l-370 -1102h-193l-287 782z" />
    <glyph glyph-name="Ycircumflex" unicode="&#x176;" horiz-adv-x="1335" 
d="M518 1624h-231l297 350h166l297 -350h-238l-145 184zM1038 1513h267l-521 -974v-539h-235v539l-514 974h266l367 -733z" />
    <glyph glyph-name="ycircumflex" unicode="&#x177;" horiz-adv-x="1165" 
d="M737 1272l-141 182l-143 -182h-230l293 344h164l293 -344h-236zM608 307l283 797h248l-457 -1204q-73 -194 -171.5 -281.5t-240.5 -87.5q-117 0 -188 47l33 195q78 -35 137 -35q134 0 217 188l35 82l-479 1096h260z" />
    <glyph glyph-name="Ydieresis" unicode="&#x178;" horiz-adv-x="1335" 
d="M332 1786q0 57 40.5 97t100.5 40q59 0 99 -39.5t40 -97.5q0 -61 -39.5 -101t-99.5 -40t-100.5 40t-40.5 101zM723 1786q0 60 39.5 98.5t99.5 38.5q59 0 98 -39.5t39 -97.5q0 -62 -38.5 -101.5t-98.5 -39.5t-99.5 40t-39.5 101zM1038 1513h267l-521 -974v-539h-235v539
l-514 974h266l367 -733z" />
    <glyph glyph-name="Zacute" unicode="&#x179;" horiz-adv-x="1286" 
d="M745 1626h-200l125 354h270zM1214 0h-1148v156l800 1136h-766v221h1092v-159l-786 -1133h808v-221z" />
    <glyph glyph-name="zacute" unicode="&#x17a;" horiz-adv-x="1060" 
d="M610 1278h-198l123 348h266zM973 961l-602 -768h620v-193h-928v150l605 759h-572v193h877v-141z" />
    <glyph glyph-name="Zdotaccent" unicode="&#x17b;" horiz-adv-x="1286" 
d="M657 1632q-66 0 -110.5 44t-44.5 110q0 63 44.5 106t110.5 43q63 0 106.5 -43t43.5 -106q0 -66 -43.5 -110t-106.5 -44zM1214 0h-1148v156l800 1136h-766v221h1092v-159l-786 -1133h808v-221z" />
    <glyph glyph-name="zdotaccent" unicode="&#x17c;" horiz-adv-x="1060" 
d="M551 1251q-66 0 -111 44t-45 110q0 63 45 106t111 43q63 0 106 -43t43 -106q0 -66 -43 -110t-106 -44zM973 961l-602 -768h620v-193h-928v150l605 759h-572v193h877v-141z" />
    <glyph glyph-name="Zcaron" unicode="&#x17d;" horiz-adv-x="1286" 
d="M580 1628l-293 344h229l143 -182l142 182h235l-293 -344h-163zM1214 0h-1148v156l800 1136h-766v221h1092v-159l-786 -1133h808v-221z" />
    <glyph glyph-name="zcaron" unicode="&#x17e;" horiz-adv-x="1060" 
d="M451 1278l-293 344h229l143 -182l142 182h235l-293 -344h-163zM973 961l-602 -768h620v-193h-928v150l605 759h-572v193h877v-141z" />
    <glyph glyph-name="Scommaaccent" unicode="&#x218;" horiz-adv-x="1175" 
d="M870 778q232 -127 232 -360q0 -192 -146 -320q-144 -123 -372 -123q-169 0 -312 78.5t-223 222.5l160 154q62 -113 160.5 -172t214.5 -59q115 0 186.5 59.5t71.5 147.5q0 114 -150 194q-57 28 -153 68q-129 59 -174 86q-230 137 -230 366q0 180 131 299q133 121 344 121
q286 0 461 -217l-145 -162q-126 156 -314 156q-100 0 -162.5 -50t-62.5 -134q0 -110 127 -181q91 -47 170 -84q108 -48 186 -90zM586 -86q64 0 108.5 -46.5t44.5 -117.5q0 -178 -270 -356l-78 102q123 92 166 148q-50 5 -84.5 42.5t-34.5 88.5q0 57 43.5 98t104.5 41z" />
    <glyph glyph-name="scommaaccent" unicode="&#x219;" horiz-adv-x="952" 
d="M696 594q189 -100 189 -279q0 -143 -115 -243q-114 -99 -297 -99q-131 0 -244 59.5t-180 172.5l146 131q50 -80 126 -124t156 -44q79 0 130.5 39.5t51.5 97.5q0 81 -94 127q-22 12 -133 55q-104 44 -139 64q-176 92 -176 272q0 139 102 228q107 90 275 90q236 0 362 -170
l-131 -140q-100 121 -242 121q-67 0 -107 -34.5t-40 -86.5q0 -79 92 -120l113 -47q97 -40 155 -70zM483 -98q63 0 107.5 -46.5t44.5 -115.5q0 -172 -268 -354l-76 102q132 102 164 145q-50 5 -84.5 41.5t-34.5 87.5q0 57 43 98.5t104 41.5z" />
    <glyph glyph-name="uni021A" unicode="&#x21a;" horiz-adv-x="1181" 
d="M29 1284v229h1124v-229h-442v-1284h-240v1284h-442zM588 -59q64 0 108.5 -46.5t44.5 -117.5q0 -179 -270 -357l-78 103q125 94 166 147q-50 5 -84.5 42.5t-34.5 88.5q0 57 43.5 98.5t104.5 41.5z" />
    <glyph glyph-name="uni021B" unicode="&#x21b;" horiz-adv-x="897" 
d="M813 242l78 -176q-125 -93 -305 -93q-179 0 -271 108.5t-92 313.5v516h-190v193h192v391h224v-391h380v-193h-380v-520q0 -211 169 -211q89 0 195 62zM557 -109q63 0 107.5 -46.5t44.5 -114.5q0 -172 -269 -355l-75 103q130 100 163 145q-50 5 -84 41.5t-34 87.5
q0 57 43 98t104 41z" />
    <glyph glyph-name="uni0237" unicode="&#x237;" horiz-adv-x="567" 
d="M37 -471q-139 0 -215 49l45 184q86 -28 139 -28q189 0 189 223v1147h225v-1143q0 -210 -101.5 -321t-281.5 -111z" />
    <glyph glyph-name="circumflex" unicode="&#x2c6;" horiz-adv-x="1165" 
d="M309 1274h-229l293 344h164l292 -344h-235l-141 182z" />
    <glyph glyph-name="caron" unicode="&#x2c7;" horiz-adv-x="1122" 
d="M373 1278l-293 344h229l144 -182l141 182h235l-292 -344h-164z" />
    <glyph glyph-name="breve" unicode="&#x2d8;" horiz-adv-x="927" 
d="M82 1620h188q5 -92 51.5 -143.5t127.5 -51.5t127 51.5t51 143.5h190q-6 -165 -106 -262.5t-262 -97.5t-261.5 97.5t-105.5 262.5z" />
    <glyph glyph-name="dotaccent" unicode="&#x2d9;" horiz-adv-x="614" 
d="M238 1249q-66 0 -111 44t-45 110q0 63 45 106t111 43q63 0 106 -43t43 -106q0 -66 -43 -110t-106 -44z" />
    <glyph glyph-name="ring" unicode="&#x2da;" horiz-adv-x="778" 
d="M508 1294q-70 -67 -176 -67q-105 0 -178 67q-72 72 -72 170t72 170q75 72 178 72q104 0 176 -72q74 -71 74 -170t-74 -170zM332 1358q44 0 76 32t32 78q0 43 -32.5 75t-75.5 32q-47 0 -79 -31t-32 -76q0 -47 32 -78.5t79 -31.5z" />
    <glyph glyph-name="ogonek" unicode="&#x2db;" horiz-adv-x="770" 
d="M457 -322l71 -153q-102 -60 -202 -60q-109 0 -176.5 64.5t-67.5 163.5q0 204 276 342l140 -35q-96 -41 -157.5 -111.5t-61.5 -138.5q0 -43 25.5 -69.5t66.5 -26.5q33 0 86 24z" />
    <glyph glyph-name="tilde" unicode="&#x2dc;" horiz-adv-x="1116" 
d="M227 1315l-145 69q71 209 260 209q68 0 154 -45t127 -45q75 0 118 94l144 -67q-32 -98 -99 -153.5t-153 -55.5q-66 0 -152 45q-89 47 -129 47q-76 0 -125 -98z" />
    <glyph glyph-name="hungarumlaut" unicode="&#x2dd;" horiz-adv-x="1077" 
d="M289 1270h-189l86 348h263zM668 1270h-191l103 348h266z" />
    <glyph glyph-name="uni0394" unicode="&#x394;" horiz-adv-x="1517" 
d="M1473 0h-1428v168l629 1345h172l627 -1345v-168zM758 1233l-447 -1012h895z" />
    <glyph glyph-name="uni03A9" unicode="&#x3a9;" horiz-adv-x="1769" 
d="M778 0h-667v209h327q-144 83 -231 244q-86 160 -86 346q0 309 221 524q220 217 543 217q322 0 542 -217q222 -216 222 -524q0 -186 -86 -346q-86 -161 -232 -244h328v-209h-668v205q180 63 297 223q113 155 113 352q0 225 -148 373q-147 150 -368 150q-222 0 -369 -150
q-147 -147 -147 -373q0 -199 112 -352q117 -160 297 -223v-205z" />
    <glyph glyph-name="uni03BC" unicode="&#x3bc;" horiz-adv-x="1292" 
d="M922 526v570h225v-1096h-215v162q-102 -185 -320 -185q-155 0 -243 111v-534h-224v1542h226v-615q0 -146 67.5 -221.5t190.5 -75.5q133 0 213 90.5t80 251.5z" />
    <glyph glyph-name="pi" unicode="&#x3c0;" horiz-adv-x="1282" 
d="M457 0h-226v899h-170v197h1160v-197h-170v-899h-228v899h-366v-899z" />
    <glyph glyph-name="uni0401" unicode="&#x401;" 
d="M336 1786q0 57 40.5 97t100.5 40q59 0 99 -39.5t40 -97.5q0 -61 -39.5 -101t-99.5 -40t-100.5 40t-40.5 101zM727 1786q0 60 39.5 98.5t99.5 38.5q59 0 98.5 -39.5t39.5 -97.5q0 -61 -39 -101t-99 -40t-99.5 40t-39.5 101zM1153 0h-969v1513h967v-223h-731v-411h678v-224
h-678v-432h733v-223z" />
    <glyph glyph-name="uni0410" unicode="&#x410;" horiz-adv-x="1394" 
d="M1372 0h-254l-143 373h-557l-144 -373h-254l603 1513h153zM903 590l-205 549l-204 -549h409z" />
    <glyph glyph-name="uni0411" unicode="&#x411;" horiz-adv-x="1339" 
d="M418 948h313q123 0 223 -33t160 -86q84 -75 120 -171.5t36 -192.5q0 -196 -137 -330q-135 -135 -381 -135h-568v1513h951v-215h-717v-350zM418 215h295q148 0 229.5 72t81.5 186q0 112 -77 185t-222 73h-307v-516z" />
    <glyph glyph-name="uni0412" unicode="&#x412;" horiz-adv-x="1388" 
d="M1016 827q136 -36 211.5 -143t75.5 -248q0 -177 -127 -307q-126 -129 -347 -129h-645v1513h617q200 0 309 -112q113 -113 113 -264q0 -103 -57 -189t-150 -121zM766 1298h-348v-391h340q102 0 163.5 59t61.5 144q0 80 -59.5 134t-157.5 54zM418 215h370q121 0 195 70
t74 170q0 104 -73 173.5t-202 69.5h-364v-483z" />
    <glyph glyph-name="uni0413" unicode="&#x413;" horiz-adv-x="1120" 
d="M418 0h-234v1513h910v-217h-676v-1296z" />
    <glyph glyph-name="uni0414" unicode="&#x414;" horiz-adv-x="1583" 
d="M881 1513l475 -1296h166v-524h-232v307h-997v-307h-232v524h164l484 1296h172zM793 1149l-320 -932h635z" />
    <glyph glyph-name="uni0415" unicode="&#x415;" 
d="M1153 0h-969v1513h967v-223h-731v-411h678v-224h-678v-432h733v-223z" />
    <glyph glyph-name="uni0416" unicode="&#x416;" horiz-adv-x="2064" 
d="M2017 213l13 -205q-73 -31 -154 -31t-142.5 25t-115.5 84q-55 65 -90 119q-41 64 -101 170l-34 61q-76 134 -115 170q-43 37 -90 37h-37v-647h-236v647h-38q-60 0 -105 -51q-5 -8 -18 -22.5t-23 -32.5l-18 -31q-4 -5 -20.5 -35t-20.5 -35l-39 -67q-58 -103 -101 -168
q-35 -54 -88 -115q-57 -63 -116 -86q-58 -24 -139.5 -23t-151.5 31l12 205q50 -16 109 -16q82 0 143 73q60 71 240 379q66 86 90 103q-72 51 -127 159l-45 99l-35 82q-66 132 -107 176q-41 47 -120 47q-34 0 -86 -12l-29 198q72 35 147 35q151 0 230 -88q79 -85 188 -330
l29 -71l26 -62l25 -43q16 -25 26.5 -34.5t32.5 -22.5q32 -19 103 -19h26v643h236v-643h25q84 0 133 39q25 22 51 80q6 9 26 62q26 57 31 71q67 144 92 191q38 68 86 125q48 58 103.5 80t138.5 22q73 0 145 -35l-28 -198q-53 12 -86 12q-77 0 -121 -47q-48 -55 -107 -176
l-47 -107q-76 -179 -147 -242q32 -26 80 -94q171 -297 237 -379q64 -73 144 -73q57 0 110 16z" />
    <glyph glyph-name="uni0417" unicode="&#x417;" horiz-adv-x="1234" 
d="M559 -25q-267 0 -518 154l96 193q225 -132 430 -132q147 0 236.5 68.5t89.5 177.5q0 106 -85 169t-226 63h-263v209h222q137 0 225 65.5t88 167.5q0 95 -78.5 154t-197.5 59q-184 0 -388 -131l-108 172q98 82 236 129t278 47q222 0 360 -117q138 -114 138 -282
q0 -116 -66 -203t-190 -129v-8q140 -32 219.5 -131.5t79.5 -241.5q0 -198 -158 -326q-157 -127 -420 -127z" />
    <glyph glyph-name="uni0418" unicode="&#x418;" horiz-adv-x="1597" 
d="M328 0h-144v1513h234v-1095l858 1095h139v-1513h-233v1087z" />
    <glyph glyph-name="uni0419" unicode="&#x419;" horiz-adv-x="1597" 
d="M823 1589q-243 0 -420 219l123 131q136 -167 297 -167q84 0 154 38.5t143 128.5l125 -131q-186 -219 -422 -219zM328 0h-144v1513h234v-1095l858 1095h139v-1513h-233v1087z" />
    <glyph glyph-name="uni041A" unicode="&#x41a;" horiz-adv-x="1382" 
d="M1407 0h-291l-495 643l-201 -240v-403h-236v1513h236v-788l655 788h283l-584 -704z" />
    <glyph glyph-name="uni041B" unicode="&#x41b;" horiz-adv-x="1343" 
d="M285 0h-258l563 1513h172l555 -1513h-258l-385 1120z" />
    <glyph glyph-name="uni041C" unicode="&#x41c;" horiz-adv-x="1894" 
d="M418 0h-234v1513h129l635 -927l631 927h133v-1513h-237v969l-494 -721h-70l-493 721v-969z" />
    <glyph glyph-name="uni041D" unicode="&#x41d;" horiz-adv-x="1560" 
d="M420 0h-236v1513h236v-628h721v628h235v-1513h-235v657h-721v-657z" />
    <glyph glyph-name="uni041E" unicode="&#x41e;" horiz-adv-x="1746" 
d="M866 -25q-331 0 -555 224q-223 223 -223 551q0 330 229 559q231 231 555 231q329 0 558 -229t229 -555q0 -327 -229 -553q-231 -228 -564 -228zM872 207q228 0 383 155q158 158 158 392q0 237 -158 395t-383 158q-226 0 -383 -160q-155 -155 -155 -393q0 -233 153 -389
q158 -158 385 -158z" />
    <glyph glyph-name="uni041F" unicode="&#x41f;" horiz-adv-x="1560" 
d="M420 0h-236v1513h1192v-1513h-235v1286h-721v-1286z" />
    <glyph glyph-name="uni0420" unicode="&#x420;" 
d="M184 1513h523q248 0 374 -141q129 -138 129 -338q0 -197 -133 -336q-131 -137 -391 -137h-266v-561h-236v1513zM420 778h272q131 0 205 74.5t74 185.5q0 110 -68 182t-186 72h-297v-514z" />
    <glyph glyph-name="uni0421" unicode="&#x421;" horiz-adv-x="1583" 
d="M868 -23q-327 0 -553 218q-225 217 -225 557q0 346 229 565q229 223 555 223q201 0 379 -90q173 -87 273 -236l-168 -151q-187 248 -477 248q-229 0 -389 -160q-158 -161 -158 -399q0 -242 155 -394q156 -153 390 -153q299 0 487 246l168 -148q-108 -149 -284.5 -237.5
t-381.5 -88.5z" />
    <glyph glyph-name="uni0422" unicode="&#x422;" horiz-adv-x="1181" 
d="M471 0v1284h-442v229h1124v-229h-442v-1284h-240z" />
    <glyph glyph-name="uni0423" unicode="&#x423;" horiz-adv-x="1251" 
d="M256 -25q-99 0 -170 39l20 201q76 -29 125 -29q106 0 181 97q40 50 66.5 92.5t64.5 116.5l-490 1019h275l340 -763l319 763h266l-161 -362q-228 -507 -342 -746q-45 -96 -87.5 -162.5t-101.5 -131.5q-122 -134 -305 -134z" />
    <glyph glyph-name="uni0424" unicode="&#x424;" horiz-adv-x="1892" 
d="M1810 760q0 -306 -208 -514q-212 -209 -537 -230v-180h-238v180q-325 24 -536 232q-209 209 -209 512q0 302 209 508q213 210 536 231v178h238v-178q324 -21 534 -231q211 -205 211 -508zM1065 1280v-1044q228 15 367 157q139 145 139 365q0 218 -139 360
q-138 144 -367 162zM322 758q0 -218 139 -363q138 -144 366 -159v1044q-229 -21 -366 -164q-139 -142 -139 -358z" />
    <glyph glyph-name="uni0425" unicode="&#x425;" horiz-adv-x="1312" 
d="M297 0h-283l498 766l-471 747h274l342 -567l349 567h282l-489 -747l491 -766h-274l-359 578z" />
    <glyph glyph-name="uni0426" unicode="&#x426;" horiz-adv-x="1482" 
d="M1393 -307h-236v307h-973v1513h236v-1286h586v1286h237v-1286h150v-534z" />
    <glyph glyph-name="uni0427" unicode="&#x427;" horiz-adv-x="1404" 
d="M983 745v768h238v-1513h-238v516q-183 -67 -344 -67q-254 0 -395.5 127.5t-141.5 381.5v555h238v-499q0 -182 76 -258t233 -76t334 65z" />
    <glyph glyph-name="uni0428" unicode="&#x428;" horiz-adv-x="2234" 
d="M2050 0h-1866v1513h236v-1286h579v1286h236v-1286h580v1286h235v-1513z" />
    <glyph glyph-name="uni0429" unicode="&#x429;" horiz-adv-x="2289" 
d="M2202 -307h-236v307h-1782v1513h236v-1286h579v1286h236v-1286h580v1286h235v-1286h152v-534z" />
    <glyph glyph-name="uni042A" unicode="&#x42a;" horiz-adv-x="1538" 
d="M940 1022q233 0 385 -137q154 -139 154 -381q0 -215 -138 -359q-139 -145 -405 -145h-543v1298h-362v215h596v-552q149 61 313 61zM627 219h268q167 0 252.5 77.5t85.5 215.5q0 141 -82.5 215t-232.5 74q-145 0 -291 -64v-518z" />
    <glyph glyph-name="uni042B" unicode="&#x42b;" horiz-adv-x="1890" 
d="M422 979h311q127 0 225.5 -34.5t156.5 -86.5t95.5 -121t50.5 -131.5t13 -124.5q0 -204 -135 -342q-136 -139 -383 -139h-568v1513h234v-534zM1473 0v1513h235v-1513h-235zM422 217h295q149 0 230 75t81 200q0 121 -77 195.5t-224 74.5h-305v-545z" />
    <glyph glyph-name="uni042C" unicode="&#x42c;" horiz-adv-x="1329" 
d="M731 1022q233 0 385 -137q154 -139 154 -381q0 -216 -137 -359q-139 -145 -406 -145h-543v1513h234v-552q149 61 313 61zM418 219h268q167 0 252.5 77.5t85.5 215.5q0 141 -82.5 215t-232.5 74q-145 0 -291 -64v-518z" />
    <glyph glyph-name="uni042D" unicode="&#x42d;" horiz-adv-x="1591" 
d="M717 1540q326 0 555 -223q229 -219 229 -565q0 -340 -225 -557q-226 -218 -553 -218q-205 0 -381.5 88.5t-284.5 237.5l168 148q187 -246 488 -246q204 0 354 123q147 121 182 319h-833v219h831q-41 200 -188 320q-149 125 -348 125q-291 0 -478 -248l-167 151
q101 150 272 236q178 90 379 90z" />
    <glyph glyph-name="uni042E" unicode="&#x42e;" horiz-adv-x="2281" 
d="M1407 1540q328 0 557 -229t229 -555q0 -327 -229 -553q-231 -228 -563 -228q-299 0 -518 189q-214 190 -252 477h-211v-641h-236v1513h236v-645h211q43 288 262 480q216 192 514 192zM1407 207q228 0 383 155q158 158 158 392q0 237 -158 395t-383 158q-226 0 -383 -160
q-156 -156 -156 -393q0 -232 154 -389q158 -158 385 -158z" />
    <glyph glyph-name="uni042F" unicode="&#x42f;" horiz-adv-x="1343" 
d="M655 1513h506v-1513h-233v563q-126 -22 -254 -22l-324 -541h-280l362 573q-154 49 -232.5 170.5t-78.5 282.5q0 208 135 346q135 141 399 141zM686 758q152 0 242 20v514h-252q-156 0 -235 -70.5t-79 -193.5q0 -270 324 -270z" />
    <glyph glyph-name="uni0430" unicode="&#x430;" horiz-adv-x="1370" 
d="M1008 950v154h217v-1104h-217v152q-150 -179 -377 -179q-240 0 -395 168q-156 169 -156 418q0 247 156 410q154 161 395 161q228 0 377 -180zM662 180q153 0 256 109q100 106 100 264q0 156 -100 262q-103 109 -256 109q-156 0 -256 -109q-99 -108 -99 -264t99 -264
q98 -107 256 -107z" />
    <glyph glyph-name="uni0431" unicode="&#x431;" horiz-adv-x="1382" 
d="M756 1083q217 0 379 -149q165 -146 165 -397q0 -243 -161 -404q-158 -162 -422 -162q-212 0 -355 113q-268 212 -268 678q0 299 126 484t366 241l131 24q85 15 129 27q54 15 128 52t142 93l88 -196q-60 -60 -131 -96q-70 -34 -125 -50l-217 -47q-90 -19 -153 -43
q-57 -22 -119 -69q-122 -92 -146 -363q60 125 180 194.5t263 69.5zM1071 535q0 145 -100 245q-103 103 -244 103t-246 -99q-104 -94 -104 -245q0 -142 96 -252q100 -109 248 -109t250 105q100 103 100 252z" />
    <glyph glyph-name="uni0432" unicode="&#x432;" horiz-adv-x="1288" 
d="M932 854q128 -35 201 -142.5t73 -260.5q0 -205 -143 -342q-142 -136 -389 -136q-261 0 -406 161t-145 474v367q0 281 145 446q147 166 400 166q216 0 343.5 -115t127.5 -311q0 -98 -58 -186q-61 -92 -149 -121zM668 1378q-145 0 -232.5 -113.5t-87.5 -328.5v-16h314
q124 0 187.5 64.5t63.5 164.5q0 107 -64.5 168t-180.5 61zM678 180q138 0 219.5 78t81.5 203q0 116 -71.5 187t-211.5 71h-348v-109q0 -102 21 -180.5t53 -124.5t77.5 -75t88 -39.5t90.5 -10.5z" />
    <glyph glyph-name="uni0433" unicode="&#x433;" horiz-adv-x="1024" 
d="M496 -27q-200 0 -314 78.5t-114 224.5q0 101 60 178.5t153 118.5q35 16 87.5 37.5t91 36.5t81 35.5t69 39.5t44.5 44t18 53q0 53 -46.5 84t-136.5 31q-144 0 -321 -64l-53 183q192 77 401 77q184 0 297 -75t113 -211q0 -95 -59.5 -167.5t-153.5 -113.5
q-31 -13 -86.5 -34.5t-91 -35t-79.5 -35.5t-70 -43t-44 -50t-18 -62q0 -131 202 -131q189 0 375 92l57 -182q-230 -109 -462 -109z" />
    <glyph glyph-name="uni0434" unicode="&#x434;" horiz-adv-x="1370" 
d="M1010 963v141h217v-979q0 -291 -159.5 -443.5t-455.5 -152.5q-206 0 -438 80l49 190q192 -67 381 -67q400 0 400 350v80q-144 -164 -371 -164q-242 0 -397 162q-156 164 -156 405q0 246 162 404q161 161 401 161q222 0 367 -167zM662 199q152 0 253 104t101 260
q0 159 -101 260q-103 103 -253 103t-252 -105q-101 -101 -101 -258q0 -158 101 -262q102 -102 252 -102z" />
    <glyph glyph-name="uni0435" unicode="&#x435;" horiz-adv-x="1261" 
d="M1186 573q0 -53 -8 -108h-863q26 -134 119 -211.5t248 -77.5q94 0 198 32.5t177 86.5l94 -166q-90 -67 -217 -110.5t-260 -43.5q-120 0 -220 32.5t-168 87.5t-114.5 130t-68 158t-21.5 172q0 249 156 412t407 163q240 0 389 -149q152 -152 152 -408zM645 936
q-127 0 -216 -78.5t-114 -208.5h643q-13 129 -100 208t-213 79z" />
    <glyph glyph-name="uni0436" unicode="&#x436;" horiz-adv-x="1744" 
d="M1698 178l10 -172q-70 -24 -135 -24q-144 0 -223 79q-40 40 -66.5 76.5t-73.5 112.5l-18 31q-40 60 -45 67q-11 18 -37 47q-24 30 -45.5 40.5t-52.5 10.5h-33v-450h-213v450h-33q-31 0 -53 -10.5t-47 -40.5l-37 -47l-43 -67q-94 -154 -139 -203q-96 -96 -242 -96
q-68 0 -135 24l8 172q49 -12 94 -12q67 0 111 57q1 1 20.5 25t34.5 45l33 49l94 135q27 40 66 70q-53 32 -95 96q-23 38 -28 59q-1 5 -13.5 32.5t-13.5 29.5q-3 7 -10 22.5t-9.5 20.5t-7.5 16t-7 15t-6.5 12t-7.5 13t-7.5 12t-9.5 14q-19 28 -44.5 38.5t-64.5 10.5
q-19 0 -74 -10l-24 168q59 26 129 26q133 0 201 -59q67 -58 126 -201q5 -9 18.5 -44t14.5 -38l15 -30q5 -11 30 -52q35 -49 133 -49h23v455h213v-455h22q99 0 134 49q25 41 30 52l15 30q2 4 14.5 38.5t17.5 43.5q59 142 127 201t199 59q72 0 131 -26l-24 -168q-55 10 -74 10
q-39 0 -64.5 -10.5t-44.5 -38.5q-5 -7 -9.5 -14t-7.5 -12t-7.5 -13t-6.5 -12t-7 -15t-7.5 -16t-9.5 -20.5t-10 -22.5q-1 -2 -13.5 -29.5t-13.5 -32.5q-2 -6 -13.5 -29t-17.5 -30q-28 -55 -92 -96q39 -30 66 -70q156 -234 190 -268q43 -43 103 -43q46 0 92 12z" />
    <glyph glyph-name="uni0437" unicode="&#x437;" horiz-adv-x="1124" 
d="M518 -467q-269 0 -495 162l90 178q193 -135 381 -135q147 0 236 74.5t89 193.5q0 114 -80.5 178t-216.5 64h-237v203h164q153 0 241 69t88 180q0 103 -75.5 164.5t-194.5 61.5q-166 0 -350 -140l-113 158q90 82 224 134t266 52q206 0 339 -118q136 -118 136 -287
q0 -116 -66 -208t-184 -136v-8q134 -27 213 -135q80 -109 80 -250q0 -194 -148 -324q-143 -131 -387 -131z" />
    <glyph glyph-name="uni0438" unicode="&#x438;" horiz-adv-x="1308" 
d="M938 1104h225v-1104h-217v158q-48 -81 -154 -133t-233 -52q-185 0 -305 111q-121 115 -121 356v664h225v-643q0 -136 64.5 -207.5t187.5 -71.5q153 0 240.5 91.5t87.5 254.5v576z" />
    <glyph glyph-name="uni0439" unicode="&#x439;" horiz-adv-x="1308" 
d="M659 1180q-223 0 -378 198l110 117q67 -81 130 -116.5t138 -35.5q139 0 267 152l112 -117q-165 -198 -379 -198zM938 1104h225v-1104h-217v158q-48 -81 -154 -133t-233 -52q-185 0 -305 111q-121 115 -121 356v664h225v-643q0 -136 64.5 -207.5t187.5 -71.5
q153 0 240.5 91.5t87.5 254.5v576z" />
    <glyph glyph-name="uni043A" unicode="&#x43a;" horiz-adv-x="1140" 
d="M1155 0h-291l-397 502l-96 -88v-414h-226v1552h226v-874l465 426h297l-508 -459z" />
    <glyph glyph-name="uni043B" unicode="&#x43b;" horiz-adv-x="1187" 
d="M270 0h-250l490 1104h174l483 -1104h-247l-322 788z" />
    <glyph glyph-name="uni043C" unicode="&#x43c;" horiz-adv-x="1585" 
d="M367 0h-222v1104h146l504 -655l497 655h148v-1104h-223v670l-390 -504h-71l-389 504v-670z" />
    <glyph glyph-name="uni043D" unicode="&#x43d;" horiz-adv-x="1263" 
d="M893 657v447h225v-1104h-225v457h-522v-457h-226v1104h226v-447h522z" />
    <glyph glyph-name="uni043E" unicode="&#x43e;" horiz-adv-x="1327" 
d="M80 553q0 240 164 410q167 170 420 170t417 -170q166 -169 166 -410q0 -245 -166 -414q-162 -168 -417 -168t-420 168q-164 170 -164 414zM1020 553q0 152 -105 260q-102 111 -251 111t-254 -111q-103 -109 -103 -260q0 -153 103 -262q106 -109 254 -109t251 109
q105 108 105 262z" />
    <glyph glyph-name="uni043F" unicode="&#x43f;" horiz-adv-x="1282" 
d="M371 0h-226v1104h222v-156q50 87 141.5 136t208.5 49q182 0 307 -119q127 -121 127 -342v-672h-227v608q0 150 -72 233t-193 83q-127 0 -207.5 -89.5t-80.5 -230.5v-604z" />
    <glyph glyph-name="uni0440" unicode="&#x440;" horiz-adv-x="1378" 
d="M750 1130q237 0 391 -167q157 -171 157 -412q0 -239 -157 -410q-155 -168 -393 -168q-233 0 -377 181v-609h-226v1559h226v-160q149 186 379 186zM1071 553q0 155 -98 262q-100 109 -256 109t-256 -109q-96 -110 -96 -262q0 -156 96 -266q98 -107 256 -107t256 107
t98 266z" />
    <glyph glyph-name="uni0441" unicode="&#x441;" horiz-adv-x="1228" 
d="M664 -25q-258 0 -420 162q-164 164 -164 414q0 253 166 416t426 163q167 0 304.5 -79t203.5 -215l-187 -105q-52 89 -137 141t-182 52q-158 0 -262 -107q-105 -108 -105 -266q0 -153 103 -262q101 -107 256 -107q98 0 188 53.5t133 135.5l187 -109
q-68 -130 -206.5 -208.5t-303.5 -78.5z" />
    <glyph glyph-name="uni0442" unicode="&#x442;" horiz-adv-x="2013" 
d="M1440 1135q199 0 319 -129q123 -126 123 -347v-659h-225v623q0 144 -67.5 222.5t-184.5 78.5q-124 0 -200.5 -84.5t-76.5 -223.5v-616h-225v618q0 142 -68.5 224t-185.5 82q-124 0 -201 -86t-77 -226v-612h-226v1104h222v-160q50 89 138 140t195 51q112 -2 204.5 -55
t135.5 -148q57 93 165 148t235 55z" />
    <glyph glyph-name="uni0443" unicode="&#x443;" horiz-adv-x="1165" 
d="M606 307l283 797h248l-457 -1204q-73 -194 -171.5 -281.5t-240.5 -87.5q-117 0 -188 47l33 195q78 -35 137 -35q134 0 217 188l35 82l-479 1096h260z" />
    <glyph glyph-name="uni0444" unicode="&#x444;" horiz-adv-x="1699" 
d="M954 -25v-436h-209v436q-305 9 -485 164t-180 412q0 260 184 416q186 157 481 166v419h209v-419q296 -9 482 -166q184 -156 184 -416q0 -261 -182 -414q-185 -153 -484 -162zM954 936v-768q208 2 329.5 105.5t121.5 281.5q0 177 -118.5 276.5t-332.5 104.5zM295 553
q0 -178 122.5 -280.5t327.5 -104.5v768q-211 -5 -330.5 -106t-119.5 -277z" />
    <glyph glyph-name="uni0445" unicode="&#x445;" horiz-adv-x="1071" 
d="M676 557l371 -557h-263l-247 397l-254 -397h-269l381 569l-342 535h262l226 -373l233 373h262z" />
    <glyph glyph-name="uni0446" unicode="&#x446;" horiz-adv-x="1415" 
d="M1163 1104v-813q-1 -81 58.5 -112.5t179.5 -31.5v-516h-203v353q-94 0 -162 56t-75 140q-44 -90 -156 -147q-117 -60 -246 -60q-185 0 -305 111q-121 115 -121 356v664h225v-643q0 -136 64.5 -207.5t187.5 -71.5q153 0 240.5 91.5t87.5 254.5v576h225z" />
    <glyph glyph-name="uni0447" unicode="&#x447;" horiz-adv-x="1165" 
d="M793 563v541h227v-1104h-227v360q-132 -38 -271 -38q-440 0 -440 421v361h225v-344q0 -122 58 -177t178 -55q128 0 250 35z" />
    <glyph glyph-name="uni0448" unicode="&#x448;" horiz-adv-x="1984" 
d="M1614 522v582h225v-1104h-213v158q-43 -80 -141.5 -132.5t-210.5 -52.5t-199 51t-129 148q-54 -97 -157.5 -148t-229.5 -51q-65 0 -124 15t-115 50t-97 88t-65.5 134.5t-24.5 183.5v660h227v-633q0 -289 236 -289q129 0 202.5 90t73.5 250v582h228v-647q0 -133 60 -204
t173 -71q128 0 204.5 94.5t76.5 245.5z" />
    <glyph glyph-name="uni0449" unicode="&#x449;" horiz-adv-x="2095" 
d="M1839 1104v-813q0 -81 58 -112.5t178 -31.5v-516h-203v353q-94 0 -160 55.5t-74 140.5q-45 -92 -147 -149.5t-225 -57.5q-109 0 -195.5 50.5t-126.5 146.5q-54 -95 -157.5 -146t-225.5 -51q-180 0 -305 113q-123 114 -123 358v660h225v-633q0 -289 238 -289
q129 0 202.5 90t73.5 250v582h228v-647q0 -133 60 -204t171 -71q130 0 206.5 93.5t76.5 246.5v582h225z" />
    <glyph glyph-name="uni044A" unicode="&#x44a;" horiz-adv-x="1325" 
d="M795 891q200 0 331 -131q131 -128 131 -328q0 -192 -122 -326q-124 -133 -367 -133q-83 0 -151.5 18t-116.5 48t-85 73t-58.5 88t-35.5 98.5t-19 100t-5 95.5v409h-274v201h499v-291q125 78 273 78zM772 174q121 0 189.5 72t68.5 188q0 118 -68.5 187t-195.5 69
q-131 0 -244 -72v-141q0 -303 250 -303z" />
    <glyph glyph-name="uni044B" unicode="&#x44b;" horiz-adv-x="1574" 
d="M367 743h254q100 0 179 -23t128 -59.5t80.5 -86.5t44 -99t12.5 -102q0 -159 -111 -267q-109 -106 -323 -106h-486v1104h222v-361zM1206 0v1104h226v-1104h-226zM367 190h239q236 0 236 185q0 78 -56.5 128t-167.5 50h-251v-363z" />
    <glyph glyph-name="uni044C" unicode="&#x44c;" horiz-adv-x="1157" 
d="M627 891q203 0 331 -131q132 -129 132 -328q0 -191 -123 -326q-124 -133 -367 -133q-110 0 -197.5 33.5t-140.5 87.5q-50 53 -80 127q-51 122 -51 273v610h223v-289q125 76 273 76zM604 174q124 0 192 72t68 188q0 118 -69 187t-195 69q-137 0 -246 -74v-139
q0 -303 250 -303z" />
    <glyph glyph-name="uni044D" unicode="&#x44d;" horiz-adv-x="1234" 
d="M573 1130q255 0 418 -163q164 -164 164 -416t-162 -414t-411 -162q-171 0 -310.5 79t-208.5 208l183 107q43 -82 136 -135.5t196 -53.5q123 0 219 78q99 83 125 203h-451v184h451q-29 125 -127.5 203t-227.5 78q-103 0 -189 -52t-138 -141l-183 103q67 138 205.5 216
t310.5 78z" />
    <glyph glyph-name="uni044E" unicode="&#x44e;" horiz-adv-x="1753" 
d="M1090 1133q253 0 417 -170q166 -169 166 -410q0 -245 -166 -414q-162 -168 -417 -168q-229 0 -385 135q-156 138 -191 347h-143v-453h-226v1552h226v-911h141q30 210 188 350q160 142 390 142zM1446 553q0 152 -105 260q-102 111 -251 111t-254 -111q-103 -109 -103 -260
q0 -153 103 -262q106 -109 254 -109t251 109q105 108 105 262z" />
    <glyph glyph-name="uni044F" unicode="&#x44f;" horiz-adv-x="1150" 
d="M565 1104h441v-1104h-222v399q-95 -14 -219 -14l-252 -385h-256l289 412q-118 40 -179 128.5t-61 202.5q0 160 119 260.5t340 100.5zM573 571q95 0 211 17v325h-215q-237 0 -237 -170q0 -172 241 -172z" />
    <glyph glyph-name="uni0451" unicode="&#x451;" horiz-adv-x="1261" 
d="M451 1217q-66 0 -109 42.5t-43 108.5q0 63 43 105.5t109 42.5q63 0 106 -42.5t43 -105.5q0 -66 -43 -108.5t-106 -42.5zM870 1217q-66 0 -108.5 42.5t-42.5 108.5q0 63 42.5 105.5t108.5 42.5q62 0 105 -42.5t43 -105.5q0 -65 -43 -108t-105 -43zM1186 573q0 -53 -8 -108
h-863q26 -134 119 -211.5t248 -77.5q94 0 198 32.5t177 86.5l94 -166q-90 -67 -217 -110.5t-260 -43.5q-120 0 -220 32.5t-168 87.5t-114.5 130t-68 158t-21.5 172q0 249 156 412t407 163q240 0 389 -149q152 -152 152 -408zM645 936q-127 0 -216 -78.5t-114 -208.5h643
q-13 129 -100 208t-213 79z" />
    <glyph glyph-name="Wgrave" unicode="&#x1e80;" horiz-adv-x="2131" 
d="M1053 1980l125 -354h-205l-195 354h275zM694 0h-162l-514 1513h254l346 -1079l383 1079h125l392 -1079l340 1079h253l-512 -1513h-157l-375 1085z" />
    <glyph glyph-name="wgrave" unicode="&#x1e81;" horiz-adv-x="1744" 
d="M868 1624l123 -348h-198l-191 348h266zM590 2h-193l-377 1102h238l248 -793l285 793h159l293 -793l240 793h237l-370 -1102h-193l-287 782z" />
    <glyph glyph-name="Wacute" unicode="&#x1e82;" horiz-adv-x="2131" 
d="M1180 1624h-201l125 354h270zM694 0h-162l-514 1513h254l346 -1079l383 1079h125l392 -1079l340 1079h253l-512 -1513h-157l-375 1085z" />
    <glyph glyph-name="wacute" unicode="&#x1e83;" horiz-adv-x="1744" 
d="M981 1278h-199l123 348h266zM590 2h-193l-377 1102h238l248 -793l285 793h159l293 -793l240 793h237l-370 -1102h-193l-287 782z" />
    <glyph glyph-name="Wdieresis" unicode="&#x1e84;" horiz-adv-x="2131" 
d="M731 1786q0 57 40.5 97t100.5 40t100 -40t40 -97q0 -61 -40 -101t-100 -40t-100.5 40t-40.5 101zM1122 1786q0 60 40 98.5t100 38.5q57 0 97 -40t40 -97q0 -62 -38.5 -101.5t-98.5 -39.5t-100 40t-40 101zM694 0h-162l-514 1513h254l346 -1079l383 1079h125l392 -1079
l340 1079h253l-512 -1513h-157l-375 1085z" />
    <glyph glyph-name="wdieresis" unicode="&#x1e85;" horiz-adv-x="1744" 
d="M662 1262q-66 0 -109 42.5t-43 108.5q0 63 43 105.5t109 42.5q63 0 106 -42.5t43 -105.5q0 -65 -42.5 -108t-106.5 -43zM1081 1262q-66 0 -108.5 42.5t-42.5 108.5q0 63 42.5 105.5t108.5 42.5q62 0 105 -42.5t43 -105.5q0 -65 -43 -108t-105 -43zM590 2h-193l-377 1102
h238l248 -793l285 793h159l293 -793l240 793h237l-370 -1102h-193l-287 782z" />
    <glyph glyph-name="Ygrave" unicode="&#x1ef2;" horiz-adv-x="1335" 
d="M666 1980l125 -354h-205l-195 354h275zM1038 1513h267l-521 -974v-539h-235v539l-514 974h266l367 -733z" />
    <glyph glyph-name="ygrave" unicode="&#x1ef3;" horiz-adv-x="1165" 
d="M594 1626l123 -348h-199l-190 348h266zM608 307l283 797h248l-457 -1204q-73 -194 -171.5 -281.5t-240.5 -87.5q-117 0 -188 47l33 195q78 -35 137 -35q134 0 217 188l35 82l-479 1096h260z" />
    <glyph glyph-name="uni2009" unicode="&#x2009;" horiz-adv-x="159" 
 />
    <glyph glyph-name="endash" unicode="&#x2013;" horiz-adv-x="1468" 
d="M1337 461h-1206v213h1206v-213z" />
    <glyph glyph-name="emdash" unicode="&#x2014;" horiz-adv-x="2121" 
d="M1991 461h-1860v213h1860v-213z" />
    <glyph glyph-name="quoteleft" unicode="&#x2018;" horiz-adv-x="493" 
d="M252 1337h4q51 0 87 -37.5t36 -91.5q0 -57 -41.5 -98t-101.5 -41q-66 0 -110 47t-44 119q0 182 268 358l70 -98q-138 -102 -168 -158z" />
    <glyph glyph-name="quoteright" unicode="&#x2019;" horiz-adv-x="489" 
d="M270 1587q66 0 110 -47t44 -119q0 -189 -270 -358l-68 96q143 108 170 162q-2 -2 -8 -2q-50 0 -86.5 37.5t-36.5 91.5q0 57 42.5 98t102.5 41z" />
    <glyph glyph-name="quotesinglbase" unicode="&#x201a;" horiz-adv-x="505" 
d="M250 248q66 0 109.5 -47t43.5 -119q0 -189 -270 -358l-67 96q143 108 170 162q-2 -2 -9 -2q-50 0 -86.5 37.5t-36.5 91.5q0 57 43 98t103 41z" />
    <glyph glyph-name="quotedblleft" unicode="&#x201c;" horiz-adv-x="993" 
d="M356 1593l70 -98q-138 -102 -168 -158h4q51 0 87 -37.5t36 -91.5q0 -57 -41.5 -98t-101.5 -41q-66 0 -110 47t-44 119q0 182 268 358zM752 1337h4q51 0 87 -37.5t36 -91.5q0 -57 -42 -98t-102 -41q-66 0 -109.5 47t-43.5 119q0 182 268 358l70 -98q-138 -102 -168 -158z
" />
    <glyph glyph-name="quotedblright" unicode="&#x201d;" horiz-adv-x="974" 
d="M264 1593q66 0 110 -47t44 -119q0 -182 -268 -358l-70 98q138 102 168 158h-4q-51 0 -87 37.5t-36 91.5q0 57 41.5 98t101.5 41zM754 1593q66 0 109.5 -47t43.5 -119q0 -182 -268 -358l-70 98q138 102 168 158h-4q-51 0 -87 37.5t-36 91.5q0 57 42 98t102 41z" />
    <glyph glyph-name="quotedblbase" unicode="&#x201e;" horiz-adv-x="987" 
d="M240 244q66 0 109.5 -47t43.5 -119q0 -183 -268 -359l-70 99q138 102 168 157h-4q-51 0 -87 37.5t-36 91.5q0 57 42 98.5t102 41.5zM729 244q66 0 110 -47t44 -119q0 -182 -269 -359l-69 99q138 102 168 157h-4q-51 0 -87 37.5t-36 91.5q0 57 41.5 98.5t101.5 41.5z" />
    <glyph glyph-name="dagger" unicode="&#x2020;" horiz-adv-x="1003" 
d="M608 1063h320v-201h-320v-1227h-213v1227h-321v201h321v676h213v-676z" />
    <glyph glyph-name="daggerdbl" unicode="&#x2021;" horiz-adv-x="1003" 
d="M930 1149v-201h-322v-522h322v-201h-322v-590h-213v590h-321v201h321v522h-321v201h321v590h213v-590h322z" />
    <glyph glyph-name="bullet" unicode="&#x2022;" horiz-adv-x="884" 
d="M440 403q-120 0 -209 86q-86 86 -86 209t86 209q88 88 209 88q124 0 209 -88q88 -85 88 -209t-88 -209q-86 -86 -209 -86z" />
    <glyph glyph-name="ellipsis" unicode="&#x2026;" horiz-adv-x="1460" 
d="M242 -33q-62 0 -104 41.5t-42 102.5q0 60 42 100.5t104 40.5q60 0 100.5 -40.5t40.5 -100.5q0 -61 -40.5 -102.5t-100.5 -41.5zM729 -33q-62 0 -103.5 41.5t-41.5 102.5q0 60 41.5 100.5t103.5 40.5q60 0 100.5 -40.5t40.5 -100.5q0 -61 -40.5 -102.5t-100.5 -41.5z
M1217 -33q-62 0 -104 41.5t-42 102.5q0 60 42 100.5t104 40.5q60 0 100.5 -40.5t40.5 -100.5q0 -61 -40.5 -102.5t-100.5 -41.5z" />
    <glyph glyph-name="perthousand" unicode="&#x2030;" horiz-adv-x="2664" 
d="M727 901q-114 -108 -272 -108q-161 0 -275 108q-112 109 -112 264q0 156 112 265q113 110 275 110q159 0 272 -110t113 -265q0 -154 -113 -264zM461 0h-228l1110 1513h232zM455 958q87 0 147 60t60 147t-60 147t-147 60q-88 0 -148.5 -59.5t-60.5 -147.5t60.5 -147.5
t148.5 -59.5zM1364 -25q-159 0 -274 109q-113 107 -113 262q0 154 113 264q114 111 274 111q158 0 272 -111q115 -112 115 -264q0 -153 -115 -262t-272 -109zM2228 -25q-159 0 -274 109q-113 107 -113 262t113 262q114 111 274 111q159 0 273 -111q114 -108 114 -262
t-114 -262q-115 -109 -273 -109zM2439 346q0 90 -61.5 150.5t-149.5 60.5q-91 0 -151 -60t-60 -151q0 -87 61.5 -147t149.5 -60t149.5 60t61.5 147zM1573 346q0 90 -60.5 149.5t-148.5 59.5t-148.5 -59.5t-60.5 -149.5q0 -86 61 -145.5t148 -59.5t148 59.5t61 145.5z" />
    <glyph glyph-name="guilsinglleft" unicode="&#x2039;" horiz-adv-x="696" 
d="M594 180h-229l-287 416l287 416h229l-291 -416z" />
    <glyph glyph-name="guilsinglright" unicode="&#x203a;" horiz-adv-x="696" 
d="M618 596l-286 -416h-230l291 416l-291 416h230z" />
    <glyph glyph-name="fraction" unicode="&#x2044;" horiz-adv-x="405" 
d="M-287 0h-194l1183 1513h191z" />
    <glyph glyph-name="uni2070" unicode="&#x2070;" horiz-adv-x="772" 
d="M385 1026q-166 0 -252 121q-84 122 -84 299t84 299q85 123 252 123q169 0 252 -121q86 -121 86 -301q0 -178 -86 -299q-83 -121 -252 -121zM385 1178q170 0 170 268q0 123 -41.5 195.5t-128.5 72.5q-84 0 -126 -72.5t-42 -195.5t42 -195.5t126 -72.5z" />
    <glyph glyph-name="uni2074" unicode="&#x2074;" horiz-adv-x="751" 
d="M590 1362h88v-129h-88v-195h-144v195h-374l-33 94l436 522h115v-487zM446 1628l-223 -266h223v266z" />
    <glyph glyph-name="uni2075" unicode="&#x2075;" horiz-adv-x="706" 
d="M360 1563q122 0 199.5 -74.5t77.5 -190.5q0 -119 -85.5 -196.5t-219.5 -77.5q-154 0 -279 94l66 123q103 -74 203 -74q72 0 115.5 38t43.5 98q0 57 -40.5 94t-106.5 37q-80 0 -144 -58l-86 68l50 403h430v-133h-320l-22 -176q58 25 118 25z" />
    <glyph glyph-name="uni2076" unicode="&#x2076;" horiz-adv-x="716" 
d="M393 1563q119 0 195 -74t76 -189q0 -121 -83 -198.5t-214 -77.5q-155 0 -238 111q-82 113 -82 282q0 192 94 320q94 131 275 131q133 0 227 -70l-63 -117q-70 52 -156 52q-102 0 -164 -80q-61 -76 -67 -185q65 95 200 95zM367 1157q63 0 105 40.5t42 100.5t-41.5 99
t-103.5 39q-63 0 -105.5 -39t-42.5 -99t42 -100.5t104 -40.5z" />
    <glyph glyph-name="uni2077" unicode="&#x2077;" horiz-adv-x="598" 
d="M27 1702v141h544v-108l-315 -695h-168l305 662h-366z" />
    <glyph glyph-name="uni2078" unicode="&#x2078;" horiz-adv-x="780" 
d="M78 1262q0 68 44 123.5t122 84.5v3q-60 25 -95.5 72t-35.5 104q0 97 76.5 158t199.5 61t200 -61t77 -158q0 -118 -131 -176v-5q78 -29 121.5 -83.5t43.5 -122.5q0 -101 -86 -168.5t-225 -67.5q-140 0 -225.5 66t-85.5 170zM297 1559q35 -31 92 -31t92 31t35 75.5
t-37 75.5q-35 31 -90 31t-92 -31q-35 -31 -35 -75.5t35 -75.5zM543 1280q0 52 -43 86.5t-111 34.5t-110.5 -34.5t-42.5 -86.5q0 -54 43 -88.5t110 -34.5q68 0 111 34.5t43 88.5z" />
    <glyph glyph-name="uni2079" unicode="&#x2079;" horiz-adv-x="761" 
d="M367 1868q151 0 232 -107.5t81 -290.5q0 -189 -90 -317q-89 -127 -268 -127q-142 0 -230 70l60 116q74 -51 161 -51q102 0 161 73t65 193q-73 -98 -201 -98q-120 0 -195 73t-75 187q0 123 84 201t215 78zM362 1456q61 0 103.5 40t42.5 97q0 60 -41 102t-102 42
q-63 0 -104.5 -41t-41.5 -103q0 -60 40 -98.5t103 -38.5z" />
    <glyph glyph-name="uni2080" unicode="&#x2080;" horiz-adv-x="772" 
d="M385 -330q-166 0 -252 121q-84 122 -84 299t84 299q85 123 252 123q169 0 252 -121q86 -121 86 -301q0 -178 -86 -299q-83 -121 -252 -121zM385 -178q170 0 170 268q0 123 -41.5 195.5t-128.5 72.5q-84 0 -126 -72.5t-42 -195.5t42 -195.5t126 -72.5z" />
    <glyph glyph-name="uni2081" unicode="&#x2081;" horiz-adv-x="550" 
d="M31 268l278 219h123v-804h-164v579l-151 -119z" />
    <glyph glyph-name="uni2082" unicode="&#x2082;" horiz-adv-x="706" 
d="M504 31l-195 -203h314v-145h-543v129l266 270q107 110 107 178q0 45 -33 75t-84 30q-88 0 -193 -97l-82 119q125 125 285 125q119 0 194.5 -70t75.5 -180q0 -119 -112 -231z" />
    <glyph glyph-name="uni2083" unicode="&#x2083;" horiz-adv-x="679" 
d="M301 -330q-137 0 -270 80l65 125q113 -61 199 -61q66 0 104.5 30t38.5 78q0 47 -40 78t-103 31h-107v137h99q56 0 95.5 27t39.5 73t-35 72.5t-88 26.5q-82 0 -170 -64l-78 113q110 96 266 96q115 0 192 -62t77 -153q0 -65 -40.5 -114t-107.5 -70v-4q77 -17 121.5 -71
t44.5 -128q0 -106 -84.5 -173t-218.5 -67z" />
    <glyph glyph-name="uni2084" unicode="&#x2084;" horiz-adv-x="751" 
d="M590 6h88v-129h-88v-194h-144v194h-374l-33 94l436 523h115v-488zM446 272l-223 -266h223v266z" />
    <glyph glyph-name="uni2085" unicode="&#x2085;" horiz-adv-x="706" 
d="M360 207q123 0 200 -74t77 -190q0 -119 -85.5 -197t-219.5 -78q-154 0 -279 94l66 123q101 -73 203 -73q72 0 115.5 37.5t43.5 97.5q0 57 -40.5 94t-106.5 37q-80 0 -144 -58l-86 68l50 404h430v-134h-320l-22 -176q58 25 118 25z" />
    <glyph glyph-name="uni2086" unicode="&#x2086;" horiz-adv-x="716" 
d="M393 207q119 0 195 -73.5t76 -188.5q0 -122 -83.5 -199.5t-213.5 -77.5q-156 0 -238 113q-82 110 -82 280q0 192 94 320q94 131 275 131q133 0 227 -70l-63 -116q-68 51 -156 51q-102 0 -164 -80q-61 -76 -67 -184q64 94 200 94zM367 -199q63 0 105 41t42 101t-41.5 98.5
t-103.5 38.5q-63 0 -105.5 -38.5t-42.5 -98.5t42 -101t104 -41z" />
    <glyph glyph-name="uni2087" unicode="&#x2087;" horiz-adv-x="598" 
d="M27 346v141h544v-108l-315 -694h-168l305 661h-366z" />
    <glyph glyph-name="uni2088" unicode="&#x2088;" horiz-adv-x="780" 
d="M78 -94q0 68 44 124t122 85v2q-60 25 -95.5 72t-35.5 104q0 97 76.5 158t199.5 61t200 -61t77 -158q0 -118 -131 -176v-4q78 -29 121.5 -84t43.5 -123q0 -101 -86 -168.5t-225 -67.5q-140 0 -225.5 66t-85.5 170zM297 203q35 -31 92 -31t92 31t35 75.5t-37 75.5
q-35 31 -90 31t-92 -31q-35 -31 -35 -75.5t35 -75.5zM543 -76q0 52 -43 86.5t-111 34.5t-110.5 -34.5t-42.5 -86.5q0 -54 43 -88.5t110 -34.5q68 0 111 34.5t43 88.5z" />
    <glyph glyph-name="uni2089" unicode="&#x2089;" horiz-adv-x="761" 
d="M367 512q151 0 232 -107t81 -290q0 -190 -90 -318q-89 -127 -268 -127q-142 0 -230 70l60 117q76 -52 161 -52q102 0 161 73.5t65 193.5q-73 -99 -201 -99q-120 0 -195 73t-75 187q0 123 84 201t215 78zM362 100q61 0 103.5 40.5t42.5 97.5q0 60 -41 101.5t-102 41.5
q-63 0 -104.5 -40.5t-41.5 -102.5q0 -60 40 -99t103 -39z" />
    <glyph glyph-name="Euro" unicode="&#x20ac;" horiz-adv-x="1544" 
d="M1112 516h-573q62 -149 189.5 -236t287.5 -87q192 0 383 108v-225q-175 -99 -402 -99q-249 0 -444 148q-197 153 -266 391h-224l72 174h119q-4 69 0 129h-170l72 174h127q70 248 264 398q195 149 450 149q273 0 473 -141l-108 -187q-155 113 -344 113q-156 0 -289 -92
q-127 -87 -190 -240h761l-77 -174h-727q-4 -54 -4 -65q0 -8 1 -32.5t1 -31.5h686z" />
    <glyph glyph-name="trademark" unicode="&#x2122;" horiz-adv-x="1671" 
d="M272 1382h-202v131h555v-131h-201v-585h-152v585zM1104 1092l330 421h77v-716h-145v407l-236 -301h-51l-233 301v-407h-146v716h78z" />
    <glyph glyph-name="estimated" unicode="&#x212e;" horiz-adv-x="1961" 
d="M995 -35q-378 0 -639 225q-260 224 -260 560q0 337 260 561q260 227 639 227q376 0 635 -223q264 -225 264 -576v-43q0 -10 -14 -10h-1405v-471q0 -5 8 -8q213 -148 512 -148q212 0 388 76t280 215l72 -59q-124 -153 -319 -239.5t-421 -86.5zM475 1286v-498h1041v500
q0 4 -7 8q-217 150 -514 150q-299 0 -516 -150q-4 -4 -4 -10z" />
    <glyph glyph-name="uni2150" unicode="&#x2150;" horiz-adv-x="1767" 
d="M475 709h-162v581l-151 -119l-86 125l278 220h121v-807zM190 0l1184 1513h191l-1180 -1513h-195zM1124 664v141h545v-109l-315 -694h-168l305 662h-367z" />
    <glyph glyph-name="uni2151" unicode="&#x2151;" horiz-adv-x="1798" 
d="M469 709h-162v581l-151 -119l-86 125l278 220h121v-807zM174 0l1184 1513h190l-1179 -1513h-195zM1409 829q151 0 232 -107t81 -290q0 -189 -90 -317q-89 -127 -268 -127q-142 0 -229 69l59 117q74 -51 162 -51q102 0 160.5 72.5t64.5 193.5q-73 -98 -201 -98
q-120 0 -195 73t-75 187q0 123 84 200.5t215 77.5zM1405 418q61 0 103 40t42 97q0 60 -41 101.5t-102 41.5q-63 0 -104 -40.5t-41 -102.5q0 -60 40 -98.5t103 -38.5z" />
    <glyph glyph-name="uni2153" unicode="&#x2153;" horiz-adv-x="1740" 
d="M469 709h-162v581l-151 -119l-86 125l278 220h121v-807zM170 0l1184 1513h190l-1182 -1513h-192zM1493 432v-4q77 -17 121.5 -71t44.5 -128q0 -106 -84.5 -172.5t-218.5 -66.5q-138 0 -271 80l66 125q115 -62 199 -62q66 0 104.5 30.5t38.5 78.5q0 47 -40 77.5t-103 30.5
h-107v137h98q56 0 96 27.5t40 73.5t-35 72t-88 26q-84 0 -170 -63l-78 112q110 96 266 96q115 0 191.5 -62t76.5 -153q0 -65 -40 -114t-107 -70z" />
    <glyph glyph-name="uni2154" unicode="&#x2154;" horiz-adv-x="1742" 
d="M92 711v129l266 270q107 110 107 178q0 45 -33 75t-84 30q-87 0 -192 -97l-82 119q125 125 284 125q119 0 195 -70t76 -180q0 -118 -113 -231l-194 -203h313v-145h-543zM242 0l1183 1513h191l-1180 -1513h-194zM1462 428v-4q77 -17 121.5 -71t44.5 -128
q0 -106 -84.5 -172.5t-218.5 -66.5q-137 0 -270 80l65 124q113 -61 199 -61q66 0 104.5 30.5t38.5 78.5q0 47 -40 77.5t-103 30.5h-107v137h99q56 0 95.5 27.5t39.5 73.5t-35 72t-88 26q-82 0 -170 -64l-78 113q110 96 266 96q115 0 192 -62t77 -153q0 -65 -40.5 -114
t-107.5 -70z" />
    <glyph glyph-name="uni2155" unicode="&#x2155;" horiz-adv-x="1736" 
d="M469 709h-162v581l-151 -119l-86 125l278 220h121v-807zM166 0l1184 1513h190l-1182 -1513h-192zM1401 524q122 0 199 -74t77 -190q0 -119 -85.5 -196.5t-219.5 -77.5q-153 0 -278 94l65 123q103 -74 203 -74q72 0 116 37.5t44 97.5q0 57 -41 94t-107 37q-80 0 -143 -57
l-86 68l49 403h430v-133h-319l-23 -176q56 24 119 24z" />
    <glyph glyph-name="uni2156" unicode="&#x2156;" horiz-adv-x="1746" 
d="M92 711v129l266 270q107 110 107 178q0 45 -33 75t-84 30q-87 0 -192 -97l-82 119q125 125 284 125q119 0 195 -70t76 -180q0 -118 -113 -231l-194 -203h313v-145h-543zM240 0l1183 1513h191l-1180 -1513h-194zM1382 524q123 0 200 -74t77 -190q0 -119 -85.5 -196.5
t-219.5 -77.5q-154 0 -279 94l66 123q103 -74 202 -74q72 0 116 37.5t44 97.5q0 57 -40.5 94t-106.5 37q-81 0 -144 -57l-86 68l50 403h430v-133h-320l-22 -176q56 24 118 24z" />
    <glyph glyph-name="uni2157" unicode="&#x2157;" horiz-adv-x="1701" 
d="M309 842q66 0 105 30t39 78q0 47 -40.5 78t-103.5 31h-106v137h98q56 0 95.5 27t39.5 73t-35 72.5t-88 26.5q-82 0 -170 -64l-77 113q110 96 266 96q115 0 191.5 -62t76.5 -153q0 -65 -40 -114t-107 -70v-4q77 -17 121 -71t44 -128q0 -106 -84.5 -173t-218.5 -67
q-137 0 -270 80l66 125q113 -61 198 -61zM190 0l1184 1513h193l-1182 -1513h-195zM1339 524q123 0 200 -74t77 -190q0 -119 -85.5 -196.5t-219.5 -77.5q-154 0 -279 94l66 123q103 -74 202 -74q72 0 116 37.5t44 97.5q0 57 -40.5 94t-106.5 37q-81 0 -144 -57l-86 68l50 403
h430v-133h-320l-22 -176q55 24 118 24z" />
    <glyph glyph-name="uni2158" unicode="&#x2158;" horiz-adv-x="1810" 
d="M610 711h-143v194h-375l-33 94l437 523h114v-488h88v-129h-88v-194zM291 0l1184 1513h190l-1180 -1513h-194zM467 1300l-223 -266h223v266zM1425 524q123 0 200 -74t77 -190q0 -119 -85.5 -196.5t-219.5 -77.5q-154 0 -279 94l66 123q103 -74 202 -74q72 0 116 37.5
t44 97.5q0 57 -40.5 94t-106.5 37q-81 0 -144 -57l-86 68l50 403h430v-133h-320l-22 -176q55 24 118 24z" />
    <glyph glyph-name="uni2159" unicode="&#x2159;" horiz-adv-x="1738" 
d="M307 709v581l-151 -119l-86 125l278 220h121v-807h-162zM154 0l1183 1513h191l-1180 -1513h-194zM1376 524q123 0 200 -74t77 -190q0 -119 -85.5 -196.5t-219.5 -77.5q-154 0 -279 94l66 123q103 -74 202 -74q72 0 116 37.5t44 97.5q0 57 -40.5 94t-106.5 37
q-81 0 -144 -57l-86 68l49 403h430v-133h-319l-23 -176q55 24 119 24z" />
    <glyph glyph-name="uni215A" unicode="&#x215a;" horiz-adv-x="1767" 
d="M334 840q72 0 116 37.5t44 97.5q0 57 -41 94t-107 37q-80 0 -143 -57l-86 67l49 404h430v-134h-320l-22 -176q58 25 119 25q122 0 199 -74t77 -190q0 -119 -85.5 -197t-219.5 -78q-151 0 -278 95l65 122q101 -73 203 -73zM219 0l1184 1513h190l-1179 -1513h-195z
M1382 524q119 0 195 -73.5t76 -188.5q0 -121 -83 -198.5t-214 -77.5q-156 0 -238 110q-82 113 -82 283q0 191 94 319q94 131 275 131q135 0 227 -69l-63 -117q-68 51 -156 51q-102 0 -164 -80q-61 -76 -67 -184q64 94 200 94zM1356 119q63 0 105 40.5t42 100.5t-41.5 98.5
t-103.5 38.5q-63 0 -105.5 -38.5t-42.5 -98.5t42 -100.5t104 -40.5z" />
    <glyph glyph-name="oneeighth" unicode="&#x215b;" horiz-adv-x="1792" 
d="M469 709h-162v581l-151 -119l-86 125l278 220h121v-807zM186 0l1184 1513h191l-1180 -1513h-195zM1548 434v-4q78 -29 122 -84t44 -123q0 -101 -86 -168t-225 -67q-140 0 -225.5 65.5t-85.5 169.5q0 68 44 124t121 85v2q-60 25 -95.5 72t-35.5 104q0 97 77 158t200 61
t199.5 -61t76.5 -158q0 -118 -131 -176zM1493 672q-35 31 -90 31t-92 -31q-35 -31 -35 -76t35 -76t92 -31t92 31t35 76t-37 76zM1556 242q0 52 -42.5 86t-110.5 34t-111 -34t-43 -86q0 -54 43 -88.5t111 -34.5q67 0 110 34.5t43 88.5z" />
    <glyph glyph-name="threeeighths" unicode="&#x215c;" horiz-adv-x="1773" 
d="M313 698q-137 0 -270 80l66 125q113 -61 198 -61q66 0 105 30t39 78q0 47 -40.5 78t-103.5 31h-106v137h98q56 0 95.5 27t39.5 73t-35 72.5t-88 26.5q-82 0 -170 -64l-78 113q110 96 267 96q115 0 191.5 -62t76.5 -153q0 -65 -40 -114t-107 -70v-4q77 -17 121 -71
t44 -128q0 -106 -84.5 -173t-218.5 -67zM410 0h-195l1184 1513h190zM1079 223q0 68 44 124t122 85v2q-60 25 -95.5 72t-35.5 104q0 97 77 158t200 61t199.5 -61t76.5 -158q0 -118 -131 -176v-4q78 -29 122 -84t44 -123q0 -101 -86 -168t-225 -67q-140 0 -226 65.5t-86 169.5
zM1298 520q35 -31 92.5 -31t92.5 31t35 76t-37 76q-35 31 -90.5 31t-92.5 -31q-35 -31 -35 -76t35 -76zM1544 242q0 52 -42.5 86t-110.5 34t-111 -34t-43 -86q0 -54 43 -88.5t111 -34.5q67 0 110 34.5t43 88.5z" />
    <glyph glyph-name="fiveeighths" unicode="&#x215d;" horiz-adv-x="1779" 
d="M334 840q72 0 116 37.5t44 97.5q0 57 -41 94t-107 37q-80 0 -143 -57l-86 67l49 404h430v-134h-320l-22 -176q58 25 119 25q122 0 199 -74t77 -190q0 -119 -85.5 -197t-219.5 -78q-151 0 -278 95l65 122q101 -73 203 -73zM223 0l1184 1513h190l-1179 -1513h-195z
M1542 434v-4q78 -29 122 -84t44 -123q0 -101 -86 -168t-225 -67q-140 0 -226 65.5t-86 169.5q0 68 44 124t122 85v2q-60 25 -95.5 72t-35.5 104q0 97 77 158t200 61t199.5 -61t76.5 -158q0 -118 -131 -176zM1487 672q-35 31 -90 31t-92 -31q-35 -31 -35 -76t35 -76t92 -31
t92 31t35 76t-37 76zM1550 242q0 52 -42.5 86t-110.5 34t-111 -34t-43 -86q0 -54 43 -88.5t111 -34.5q67 0 110 34.5t43 88.5z" />
    <glyph glyph-name="seveneighths" unicode="&#x215e;" horiz-adv-x="1671" 
d="M279 713h-168l305 661h-367v142h545v-109zM96 0l1184 1513h190l-1179 -1513h-195zM1434 434v-4q78 -29 121.5 -84t43.5 -123q0 -101 -86 -168t-225 -67q-140 0 -225.5 65.5t-85.5 169.5q0 68 44 124t122 85v2q-60 25 -95.5 72t-35.5 104q0 97 76.5 158t199.5 61t200 -61
t77 -158q0 -118 -131 -176zM1378 672q-35 31 -90 31t-92 -31q-35 -31 -35 -76t35 -76t92 -31t92 31t35 76t-37 76zM1442 242q0 52 -43 86t-111 34t-110.5 -34t-42.5 -86q0 -54 43 -88.5t110 -34.5q68 0 111 34.5t43 88.5z" />
    <glyph glyph-name="partialdiff" unicode="&#x2202;" horiz-adv-x="1277" 
d="M596 -25q-221 0 -369 148q-145 148 -145 369q0 223 141 370t355 150q124 0 226.5 -60.5t156.5 -163.5q-21 209 -166 398q-142 189 -377 299l133 151q175 -81 323 -229q138 -130 222.5 -311t85.5 -404q0 -307 -166 -512q-163 -205 -420 -205zM600 172q132 0 223 94
q92 95 92 234q0 133 -90 223q-89 92 -219 92q-133 0 -221 -94q-88 -91 -88 -229q0 -131 86 -226q88 -94 217 -94z" />
    <glyph glyph-name="product" unicode="&#x220f;" horiz-adv-x="1517" 
d="M72 1503h1374v-229h-195v-1516h-237v1516h-510v-1516h-238v1516h-194v229z" />
    <glyph glyph-name="summation" unicode="&#x2211;" horiz-adv-x="1316" 
d="M1245 -367h-1153v201l440 737l-440 742v200h1153v-229h-858l412 -713l-412 -708h858v-230z" />
    <glyph glyph-name="minus" unicode="&#x2212;" horiz-adv-x="1224" 
d="M1085 584h-946v211h946v-211z" />
    <glyph glyph-name="radical" unicode="&#x221a;" horiz-adv-x="1429" 
d="M784 -242h-198l-346 885h-236v213h406l278 -743l524 1542h252z" />
    <glyph glyph-name="infinity" unicode="&#x221e;" horiz-adv-x="1888" 
d="M1393 1159q159 0 280 -121t121 -282q0 -164 -121 -285q-119 -119 -284 -119q-106 0 -204 62t-241 213q-143 -149 -244 -213q-103 -62 -208 -62q-162 0 -281 119t-119 285q0 161 121 282t285 121q104 0 204 -59t244 -209q141 147 241.5 207.5t205.5 60.5zM494 537
q68 0 139 47q73 48 188 172q-118 124 -188 172q-65 45 -127 45q-90 0 -156 -66q-63 -63 -63 -155q0 -91 59.5 -153t147.5 -62zM1380 537q93 0 157.5 64t64.5 157q0 88 -62.5 151.5t-150.5 63.5q-75 0 -140 -45q-70 -48 -184 -168q121 -129 188 -178q62 -45 127 -45z" />
    <glyph glyph-name="integral" unicode="&#x222b;" horiz-adv-x="911" 
d="M193 -430q-133 0 -236 65l63 181q70 -43 144 -43q84 0 134 56.5t50 174.5v1266q0 199 101 308.5t266 109.5q131 0 241 -70l-69 -178q-64 43 -144 43q-84 0 -133 -58t-49 -176v-1265q0 -203 -108 -308q-106 -106 -260 -106z" />
    <glyph glyph-name="approxequal" unicode="&#x2248;" horiz-adv-x="1343" 
d="M872 801q-100 0 -237 67q-136 68 -189 68q-56 0 -97.5 -27t-100.5 -96l-139 107q119 210 348 210q99 0 235 -65q138 -66 191 -66q59 0 101 26.5t97 96.5l144 -108q-130 -213 -353 -213zM879 383q-99 0 -238 68q-134 67 -188 67q-56 0 -98.5 -27t-100.5 -96l-139 107
q120 211 348 211q97 0 235 -66q136 -65 191 -65q59 0 101 26.5t97 96.5l144 -109q-130 -213 -352 -213z" />
    <glyph glyph-name="notequal" unicode="&#x2260;" horiz-adv-x="1224" 
d="M1085 954v-196h-358l-76 -174h434v-197h-520l-98 -225h-160l99 225h-267v197h353l75 174h-428v196h514l101 228h159l-100 -228h272z" />
    <glyph glyph-name="lessequal" unicode="&#x2264;" horiz-adv-x="1200" 
d="M1047 616v-223l-922 402v141l922 401v-225l-621 -246zM1047 299v-197h-936v197h936z" />
    <glyph glyph-name="greaterequal" unicode="&#x2265;" horiz-adv-x="1200" 
d="M1075 795l-921 -402v223l620 250l-620 246v225l921 -401v-141zM1090 102h-936v197h936v-197z" />
    <glyph glyph-name="lozenge" unicode="&#x25ca;" horiz-adv-x="1437" 
d="M811 -86h-184l-564 856l564 852h184l563 -852zM328 774l391 -610l393 610l-393 602z" />
    <glyph glyph-name="NULL" horiz-adv-x="0" 
 />
    <glyph glyph-name="Euro.osf" horiz-adv-x="1175" 
d="M901 451h-518q27 -103 100 -177t172.5 -106.5t223.5 -17.5t245 83v-178q-147 -78 -338 -78q-230 0 -393 132q-164 132 -207 342h-174l62 137h-58l62 143h108q47 220 211 350q171 136 394 136q224 0 395 -115l-84 -146q-137 88 -295 88q-148 0 -266 -86
q-117 -86 -158 -227h635l-68 -137h13z" />
    <glyph glyph-name="I_J.loclNLD" horiz-adv-x="1757" 
d="M184 0v1513h236v-1513h-236zM1063 -25q-272 0 -447 193l134 176q122 -143 305 -143q135 0 215 86.5t80 238.5v987h237v-997q0 -263 -147 -401q-146 -140 -377 -140z" />
    <glyph glyph-name="Iacute_J.loclNLD" horiz-adv-x="1755" 
d="M401 1628h-200l125 354h270zM1563 1624h-201l125 354h270zM184 0v1513h236v-1513h-236zM1063 -25q-272 0 -447 193l134 176q122 -143 305 -143q135 0 215 86.5t80 238.5v987h237v-997q0 -263 -147 -401q-146 -140 -377 -140z" />
    <glyph glyph-name="J.loclNLD" horiz-adv-x="1157" 
d="M967 1624h-201l125 354h270zM467 -25q-272 0 -447 193l134 176q122 -143 305 -143q135 0 215 86.5t80 238.5v987h237v-997q0 -263 -147 -401q-146 -140 -377 -140z" />
    <glyph glyph-name="Jacute" horiz-adv-x="1157" 
d="M971 1624h-201l125 354h270zM467 -25q-272 0 -447 193l134 176q122 -143 305 -143q135 0 215 86.5t80 238.5v987h237v-997q0 -263 -147 -401q-146 -140 -377 -140z" />
    <glyph glyph-name="_1" horiz-adv-x="0" 
 />
    <glyph glyph-name="a.ss02" horiz-adv-x="1181" 
d="M553 1130q216 0 354 -114q142 -115 142 -352v-664h-209v139q-126 -170 -373 -170q-185 0 -297 103q-109 103 -109 258q0 158 126.5 251.5t355.5 94.5q205 0 291 12q-21 242 -287 242q-177 0 -340 -99l-94 168q183 131 440 131zM496 164q140 0 233 96t102 244
q-85 -10 -208 -10q-181 0 -257.5 -34t-76.5 -130q0 -77 57 -121.5t150 -44.5z" />
    <glyph glyph-name="aacute.ss02" horiz-adv-x="1181" 
d="M588 1626h266l-190 -348h-199zM553 1130q216 0 354 -114q142 -115 142 -352v-664h-209v139q-126 -170 -373 -170q-185 0 -297 103q-109 103 -109 258q0 158 126.5 251.5t355.5 94.5q205 0 291 12q-21 242 -287 242q-177 0 -340 -99l-94 168q183 131 440 131zM496 164
q140 0 233 96t102 244q-85 -10 -208 -10q-181 0 -257.5 -34t-76.5 -130q0 -77 57 -121.5t150 -44.5z" />
    <glyph glyph-name="abreve.ss02" horiz-adv-x="1181" 
d="M215 1626h188q5 -91 51.5 -142.5t127.5 -51.5t127 51t51 143h190q-6 -165 -106 -262.5t-262 -97.5t-261.5 97.5t-105.5 262.5zM553 1130q216 0 354 -114q142 -115 142 -352v-664h-209v139q-126 -170 -373 -170q-185 0 -297 103q-109 103 -109 258q0 158 126.5 251.5
t355.5 94.5q205 0 291 12q-21 242 -287 242q-177 0 -340 -99l-94 168q183 131 440 131zM496 164q140 0 233 96t102 244q-85 -10 -208 -10q-181 0 -257.5 -34t-76.5 -130q0 -77 57 -121.5t150 -44.5z" />
    <glyph glyph-name="acircumflex.ss02" horiz-adv-x="1181" 
d="M719 1276l-141 182l-144 -182h-229l293 344h164l292 -344h-235zM553 1130q216 0 354 -114q142 -115 142 -352v-664h-209v139q-126 -170 -373 -170q-185 0 -297 103q-109 103 -109 258q0 158 126.5 251.5t355.5 94.5q205 0 291 12q-21 242 -287 242q-177 0 -340 -99
l-94 168q183 131 440 131zM496 164q140 0 233 96t102 244q-85 -10 -208 -10q-181 0 -257.5 -34t-76.5 -130q0 -77 57 -121.5t150 -44.5z" />
    <glyph glyph-name="acute.case" horiz-adv-x="661" 
d="M285 1628h-201l125 354h270z" />
    <glyph glyph-name="adieresis.ss02" horiz-adv-x="1181" 
d="M373 1266q-66 0 -109 42.5t-43 108.5q0 63 43 105.5t109 42.5q63 0 106 -42.5t43 -105.5q0 -65 -43 -108t-106 -43zM793 1266q-66 0 -109 42.5t-43 108.5q0 63 43 105.5t109 42.5q62 0 104.5 -42.5t42.5 -105.5q0 -65 -42.5 -108t-104.5 -43zM553 1130q216 0 354 -114
q142 -115 142 -352v-664h-209v139q-126 -170 -373 -170q-185 0 -297 103q-109 103 -109 258q0 158 126.5 251.5t355.5 94.5q205 0 291 12q-21 242 -287 242q-177 0 -340 -99l-94 168q183 131 440 131zM496 164q140 0 233 96t102 244q-85 -10 -208 -10q-181 0 -257.5 -34
t-76.5 -130q0 -77 57 -121.5t150 -44.5z" />
    <glyph glyph-name="agrave.ss02" horiz-adv-x="1181" 
d="M584 1626l123 -348h-199l-191 348h267zM553 1130q216 0 354 -114q142 -115 142 -352v-664h-209v139q-126 -170 -373 -170q-185 0 -297 103q-109 103 -109 258q0 158 126.5 251.5t355.5 94.5q205 0 291 12q-21 242 -287 242q-177 0 -340 -99l-94 168q183 131 440 131z
M496 164q140 0 233 96t102 244q-85 -10 -208 -10q-181 0 -257.5 -34t-76.5 -130q0 -77 57 -121.5t150 -44.5z" />
    <glyph glyph-name="amacron.ss02" horiz-adv-x="1181" 
d="M258 1507h643v-198l-643 -2v200zM553 1130q216 0 354 -114q142 -115 142 -352v-664h-209v139q-126 -170 -373 -170q-185 0 -297 103q-109 103 -109 258q0 158 126.5 251.5t355.5 94.5q205 0 291 12q-21 242 -287 242q-177 0 -340 -99l-94 168q183 131 440 131zM496 164
q140 0 233 96t102 244q-85 -10 -208 -10q-181 0 -257.5 -34t-76.5 -130q0 -77 57 -121.5t150 -44.5z" />
    <glyph glyph-name="aogonek.ss02" horiz-adv-x="1179" 
d="M1010 -322l71 -153q-102 -60 -202 -60q-109 0 -176.5 64.5t-67.5 163.5q0 180 213 307h-8v139q-126 -170 -373 -170q-185 0 -297 103q-109 103 -109 258q0 158 126.5 251.5t355.5 94.5q205 0 291 12q-21 242 -287 242q-177 0 -340 -99l-94 168q183 131 440 131
q216 0 354 -114q142 -115 142 -352v-664h2q-96 -41 -158 -111.5t-62 -138.5q0 -43 26 -69.5t67 -26.5q34 0 86 24zM496 164q140 0 233 96t102 244q-85 -10 -208 -10q-181 0 -257.5 -34t-76.5 -130q0 -77 57 -121.5t150 -44.5z" />
    <glyph glyph-name="aring.ss02" horiz-adv-x="1181" 
d="M760 1305q-71 -68 -176 -68q-104 0 -178 68q-72 72 -72 170t72 170q74 71 178 71q105 0 176 -71q74 -71 74 -170t-74 -170zM584 1585q-47 0 -79 -31t-32 -75q0 -47 32 -79t79 -32q44 0 76 32t32 79q0 43 -32.5 74.5t-75.5 31.5zM553 1130q216 0 354 -114
q142 -115 142 -352v-664h-209v139q-126 -170 -373 -170q-185 0 -297 103q-109 103 -109 258q0 158 126.5 251.5t355.5 94.5q205 0 291 12q-21 242 -287 242q-177 0 -340 -99l-94 168q183 131 440 131zM496 164q140 0 233 96t102 244q-85 -10 -208 -10q-181 0 -257.5 -34
t-76.5 -130q0 -77 57 -121.5t150 -44.5z" />
    <glyph glyph-name="at.case" horiz-adv-x="1988" 
d="M1243 1063v98h178v-553q0 -66 30.5 -104.5t76.5 -38.5q84 0 149 102q64 104 64 264q0 280 -211 476q-211 199 -512 196q-310 -3 -524 -223q-215 -218 -215 -537q0 -311 225 -536q223 -223 553 -223q319 0 561 196l90 -141q-114 -97 -291 -160q-176 -68 -374.5 -67
t-374.5 75q-259 103 -416.5 337t-159.5 517q0 254 123 469q122 212 336 340q210 125 463 125q376 0 641 -250q266 -248 266 -591q0 -230 -123 -383q-125 -152 -299 -152q-90 0 -152 44.5t-83 113.5q-115 -158 -320 -158q-176 0 -297 127t-121 317q0 188 121 318
q122 131 303 131q188 0 293 -129zM1243 741q0 121 -76 203t-188 82q-115 0 -191 -82q-75 -78 -75 -199t73 -200q77 -80 189 -80q113 0 190 80q78 81 78 196z" />
    <glyph glyph-name="atilde.ss02" horiz-adv-x="1181" 
d="M461 1384q-76 0 -125 -98l-146 70q71 209 261 209q67 0 153 -45t127 -45q76 0 119 94l143 -68q-32 -98 -99 -153.5t-153 -55.5q-65 0 -151 45q-89 47 -129 47zM553 1130q216 0 354 -114q142 -115 142 -352v-664h-209v139q-126 -170 -373 -170q-185 0 -297 103
q-109 103 -109 258q0 158 126.5 251.5t355.5 94.5q205 0 291 12q-21 242 -287 242q-177 0 -340 -99l-94 168q183 131 440 131zM496 164q140 0 233 96t102 244q-85 -10 -208 -10q-181 0 -257.5 -34t-76.5 -130q0 -77 57 -121.5t150 -44.5z" />
    <glyph glyph-name="backslash.case" horiz-adv-x="1148" 
d="M272 1513l832 -1513h-232l-831 1513h231z" />
    <glyph glyph-name="braceleft.case" horiz-adv-x="798" 
d="M295 748v-9q91 -28 153 -101t62 -171q0 -43 -10 -203q-8 -128 -8 -205q0 -182 184 -182h65v-201h-106q-365 0 -365 369q0 76 9 217q8 125 8 191q0 109 -76 155q-34 22 -66.5 32t-93.5 22v163q98 21 160 54q76 46 76 155q0 65 -8 193q-9 144 -9 223q0 360 371 360h100
v-198h-65q-184 0 -184 -180q0 -81 8 -209q10 -160 10 -201q0 -98 -61.5 -170.5t-153.5 -103.5z" />
    <glyph glyph-name="braceright.case" horiz-adv-x="798" 
d="M506 741v7q-92 28 -154.5 101.5t-62.5 172.5q0 75 8 203q10 160 10 207q0 180 -184 180h-64v200h99q370 0 370 -362q0 -93 -8 -221q-6 -144 -6 -193q0 -72 37 -118q36 -41 77 -58.5t122 -32.5v-163q-61 -12 -93.5 -22t-68.5 -32q-74 -47 -74 -155q0 -49 6 -193
q8 -125 8 -217q0 -367 -364 -367h-105v199h64q184 0 184 182q0 45 -10 205q-8 128 -8 205q0 96 62.5 170.5t154.5 101.5z" />
    <glyph glyph-name="bracketleft.case" horiz-adv-x="800" 
d="M758 -313h-574v2125h574v-192h-342v-1741h342v-192z" />
    <glyph glyph-name="bracketright.case" horiz-adv-x="800" 
d="M616 -313h-573v192h342v1741h-342v192h573v-2125z" />
    <glyph glyph-name="breve.case" horiz-adv-x="937" 
d="M84 1980h190q5 -93 52.5 -145.5t128.5 -52.5t129 52.5t53 145.5h192q-6 -169 -107.5 -267.5t-266.5 -98.5t-265 98t-106 268z" />
    <glyph glyph-name="brevecombcy" horiz-adv-x="0" 
d="M-457 1221q-243 0 -420 219l123 131q137 -168 297 -168q83 0 153 38.5t144 129.5l125 -131q-186 -219 -422 -219z" />
    <glyph glyph-name="caron.alt" horiz-adv-x="622" 
d="M248 1274h-191l119 350h246z" />
    <glyph glyph-name="caron.case" horiz-adv-x="1028" 
d="M428 1618l-293 344h230l143 -182l141 182h236l-293 -344h-164z" />
    <glyph glyph-name="cedilla.case" horiz-adv-x="663" 
d="M375 -98h6q94 0 155.5 -52.5t61.5 -142.5q0 -98 -73.5 -164.5t-202.5 -66.5q-110 0 -240 59l55 141q87 -43 166 -43q54 0 84.5 24t30.5 62q0 74 -109 74h-114l-17 47l80 201l172 -4z" />
    <glyph glyph-name="circumflex.case" horiz-adv-x="1021" 
d="M311 1628h-231l297 350h166l297 -350h-238l-145 184z" />
    <glyph glyph-name="colon.case" horiz-adv-x="565" 
d="M285 926q-62 0 -104 41t-42 102q0 60 42 100.5t104 40.5q60 0 100.5 -40.5t40.5 -100.5q0 -61 -40.5 -102t-100.5 -41zM285 229q-62 0 -104 41.5t-42 102.5q0 60 42 100.5t104 40.5q60 0 100.5 -40.5t40.5 -100.5q0 -61 -40.5 -102.5t-100.5 -41.5z" />
    <glyph glyph-name="comma.ss03" horiz-adv-x="452" 
d="M25 -362l151 616h221l-207 -616h-165z" />
    <glyph glyph-name="commaccent" horiz-adv-x="485" 
d="M268 -150q64 0 108 -46.5t44 -114.5q0 -173 -268 -355l-76 103q132 102 164 145q-50 5 -84.5 41.5t-34.5 87.5q0 57 43 98t104 41z" />
    <glyph glyph-name="commaccent.case" horiz-adv-x="389" 
d="M272 -152q64 0 109 -46t45 -117q0 -179 -270 -357l-78 103q125 94 166 147q-50 5 -84.5 42.5t-34.5 88.5q0 57 43 98t104 41z" />
    <glyph glyph-name="dieresis.case" horiz-adv-x="872" 
d="M92 1802q0 57 40.5 97t100.5 40t100 -40t40 -97q0 -61 -40 -101t-100 -40t-100.5 40t-40.5 101zM483 1802q0 60 40 98.5t100 38.5q57 0 97 -40t40 -97q0 -62 -38.5 -101.5t-98.5 -39.5t-100 40t-40 101z" />
    <glyph glyph-name="dollar.osf" horiz-adv-x="1024" 
d="M969 330q0 -130 -94.5 -224t-247.5 -120v-236h-197v232q-126 19 -225.5 83t-155.5 166l152 131q108 -190 321 -190q98 0 155.5 41t57.5 109q0 47 -31 77.5t-102 63.5l-131 55q-104 45 -156 74q-196 114 -196 287q0 130 88.5 218t241.5 111v217h198v-221q173 -35 291 -164
l-131 -141q-122 125 -275 125q-87 0 -140.5 -36t-53.5 -97q0 -81 133 -146q42 -22 150 -67q83 -34 157 -72q191 -108 191 -276z" />
    <glyph glyph-name="dotaccent.case" horiz-adv-x="618" 
d="M238 1651q-66 0 -111 43.5t-45 109.5q0 63 45 106.5t111 43.5q63 0 106 -43.5t43 -106.5q0 -66 -43 -109.5t-106 -43.5z" />
    <glyph glyph-name="eight.dnom" horiz-adv-x="780" 
d="M78 223q0 68 44 124t122 85v2q-60 25 -95.5 72t-35.5 104q0 97 76.5 158t199.5 61t200 -61t77 -158q0 -118 -131 -176v-4q78 -29 121.5 -84t43.5 -123q0 -101 -86 -168t-225 -67q-140 0 -225.5 65.5t-85.5 169.5zM297 520q35 -31 92 -31t92 31t35 76t-37 76
q-35 31 -90 31t-92 -31q-35 -31 -35 -76t35 -76zM543 242q0 52 -43 86t-111 34t-110.5 -34t-42.5 -86q0 -54 43 -88.5t110 -34.5q68 0 111 34.5t43 88.5z" />
    <glyph glyph-name="eight.lf" horiz-adv-x="1286" 
d="M645 -25q-244 0 -397 123q-154 124 -154 312q0 128 80 235t213 156v4q-107 52 -168 140t-61 196q0 172 135 286q134 113 352 113q217 0 348 -113q135 -114 135 -286q0 -109 -61 -197.5t-170 -138.5v-6q134 -47 214.5 -154t80.5 -235q0 -188 -154 -312
q-150 -123 -393 -123zM905 1118q0 99 -72 162t-190 63t-192 -63t-74 -162q0 -98 73 -161.5t193 -63.5q119 0 190.5 63t71.5 162zM645 182q136 0 224.5 72.5t88.5 185.5q0 110 -87 180t-228 70t-228 -70t-87 -180q0 -113 88.5 -185.5t228.5 -72.5z" />
    <glyph glyph-name="eight.num" horiz-adv-x="780" 
d="M78 934q0 68 44 124t122 85v2q-60 25 -95.5 72t-35.5 104q0 97 76.5 158t199.5 61t200 -61t77 -158q0 -118 -131 -176v-4q78 -29 121.5 -84t43.5 -123q0 -101 -86 -168.5t-225 -67.5q-140 0 -225.5 66t-85.5 170zM297 1231q35 -31 92 -31t92 31t35 75.5t-37 75.5
q-35 31 -90 31t-92 -31q-35 -31 -35 -75.5t35 -75.5zM543 952q0 52 -43 86.5t-111 34.5t-110.5 -34.5t-42.5 -86.5q0 -54 43 -88.5t110 -34.5q68 0 111 34.5t43 88.5z" />
    <glyph glyph-name="eight.osf" horiz-adv-x="1273" 
d="M639 -23q-244 0 -397 117q-154 121 -154 299q0 123 80.5 226t212.5 147v4q-107 50 -168 134t-61 186q0 166 135 274q136 109 352 109q215 0 348 -109q135 -108 135 -274q0 -103 -61 -188t-170 -132v-6q134 -42 214.5 -145t80.5 -226q0 -178 -154 -299
q-150 -117 -393 -117zM901 1069q0 94 -73 154.5t-191 60.5t-192 -60.5t-74 -154.5q0 -93 73 -153t193 -60t192 59.5t72 153.5zM639 178q136 0 224.5 69t88.5 175q0 105 -86.5 171t-228.5 66q-141 0 -229.5 -66.5t-88.5 -170.5q0 -106 90 -175t230 -69z" />
    <glyph glyph-name="eight.tf" horiz-adv-x="1232" 
d="M616 -25q-244 0 -397 123t-153 312q0 128 79.5 235t212.5 156v4q-107 52 -168 140t-61 196q0 172 135 286q134 113 352 113t349 -113q135 -114 135 -286q0 -109 -61.5 -197.5t-170.5 -138.5v-6q134 -47 214.5 -154t80.5 -235q0 -189 -153 -312q-150 -123 -394 -123z
M877 1118q0 99 -72.5 162t-190.5 63t-192 -63t-74 -162q0 -98 73 -161.5t193 -63.5t191.5 63.5t71.5 161.5zM616 182q137 0 225.5 73t88.5 185q0 110 -87.5 180t-228.5 70t-228 -70t-87 -180q0 -113 88.5 -185.5t228.5 -72.5z" />
    <glyph glyph-name="eight_fraction_nine" horiz-adv-x="1755" 
d="M698 934q0 -101 -86 -168.5t-225 -67.5q-140 0 -225.5 66t-85.5 170q0 68 44 124t122 85v2q-60 25 -95.5 72t-35.5 104q0 97 76.5 158t199.5 61t200 -61t77 -158q0 -117 -132 -176v-4q78 -29 122 -84t44 -123zM203 -2l1183 1513h191l-1180 -1513h-194zM477 1382
q-35 31 -90 31t-92 -31q-35 -31 -35 -75.5t35 -75.5t92 -31t92 31t35 75.5t-37 75.5zM233 952q0 -54 43 -88.5t111 -34.5t111 34.5t43 88.5q0 52 -43 86.5t-111 34.5t-111 -34.5t-43 -86.5zM1364 829q151 0 232 -107t81 -290q0 -189 -90 -317q-89 -127 -268 -127
q-142 0 -229 69l59 117q74 -51 162 -51q102 0 160.5 72.5t64.5 193.5q-73 -98 -201 -98q-120 0 -195 73t-75 187q0 123 84 200.5t215 77.5zM1360 418q61 0 103 40t42 97q0 60 -41 101.5t-102 41.5q-63 0 -104 -40.5t-41 -102.5q0 -60 40 -98.5t103 -38.5z" />
    <glyph glyph-name="emdash.case" horiz-adv-x="2138" 
d="M1999 659h-1860v228h1860v-228z" />
    <glyph glyph-name="endash.case" horiz-adv-x="1484" 
d="M1346 659h-1207v228h1207v-228z" />
    <glyph glyph-name="exclamdown.case" horiz-adv-x="595" 
d="M326 1548q60 0 99.5 -40.5t39.5 -102.5q0 -60 -39.5 -99.5t-99.5 -39.5q-62 0 -104 39.5t-42 99.5q0 61 42 102t104 41zM201 -2l10 1141h221l12 -1141h-243z" />
    <glyph glyph-name="five.dnom" horiz-adv-x="706" 
d="M360 524q123 0 200 -74t77 -190q0 -119 -85.5 -196.5t-219.5 -77.5q-154 0 -279 94l66 123q103 -74 203 -74q72 0 115.5 37.5t43.5 97.5q0 57 -40.5 94t-106.5 37q-81 0 -144 -57l-86 68l50 403h430v-133h-320l-22 -176q56 24 118 24z" />
    <glyph glyph-name="five.lf" horiz-adv-x="1183" 
d="M596 983q217 0 362 -139q146 -140 146 -357q0 -223 -154 -368q-150 -144 -393 -144q-270 0 -491 179l104 184q192 -145 379 -145q140 0 229 83q88 82 88 209q0 122 -86 205q-85 82 -217 82q-160 0 -270 -113l-148 99l84 755h772v-213h-591l-45 -368q105 51 231 51z" />
    <glyph glyph-name="five.num" horiz-adv-x="706" 
d="M360 1235q123 0 200 -74t77 -190q0 -119 -85.5 -197t-219.5 -78q-152 0 -279 95l66 122q101 -73 203 -73q72 0 115.5 37.5t43.5 97.5q0 57 -40.5 94t-106.5 37q-81 0 -144 -57l-86 67l50 404h430v-134h-320l-22 -176q58 25 118 25z" />
    <glyph glyph-name="five.osf" horiz-adv-x="1146" 
d="M575 698q217 0 361 -129q145 -127 145 -327q0 -207 -151 -340t-391 -133q-268 0 -488 163l103 174q189 -133 376 -133q141 0 226 76q88 76 88 189t-85.5 187.5t-215.5 74.5q-156 0 -267 -105l-147 94l84 697h766v-199h-588l-43 -338q107 49 227 49z" />
    <glyph glyph-name="five.tf" horiz-adv-x="1232" 
d="M618 983q218 0 363 -139t145 -357q0 -224 -153 -368q-150 -144 -393 -144q-271 0 -492 179l105 184q192 -145 378 -145q141 0 230 83q88 82 88 209q0 122 -86 205q-85 82 -217 82q-161 0 -271 -113l-147 99l84 755h772v-213h-592l-45 -368q105 51 231 51z" />
    <glyph glyph-name="five_fraction_nine" horiz-adv-x="1751" 
d="M334 840q72 0 116 37.5t44 97.5q0 57 -41 94t-107 37q-80 0 -143 -57l-86 67l49 404h430v-134h-320l-22 -176q58 25 119 25q122 0 199 -74t77 -190q0 -119 -85.5 -197t-219.5 -78q-151 0 -278 95l65 122q101 -73 203 -73zM199 -2l1183 1513h191l-1180 -1513h-194z
M1360 829q151 0 232 -107t81 -290q0 -189 -90 -317q-89 -127 -268 -127q-143 0 -230 69l60 117q74 -51 162 -51q102 0 160.5 72.5t64.5 193.5q-73 -98 -201 -98q-120 0 -195 73t-75 187q0 123 84 200.5t215 77.5zM1356 418q61 0 103 40t42 97q0 60 -41 101.5t-102 41.5
q-63 0 -104.5 -40.5t-41.5 -102.5q0 -60 40.5 -98.5t103.5 -38.5z" />
    <glyph glyph-name="five_fraction_seven" horiz-adv-x="1753" 
d="M344 840q72 0 116 37.5t44 97.5q0 57 -41 94t-107 37q-80 0 -143 -57l-86 67l49 404h430v-134h-319l-23 -176q58 25 119 25q122 0 199 -74t77 -190q0 -119 -85.5 -197t-219.5 -78q-151 0 -278 95l65 122q101 -73 203 -73zM209 0l1184 1513h190l-1180 -1513h-194z
M1110 664v141h545v-109l-316 -694h-168l306 662h-367z" />
    <glyph glyph-name="four.dnom" horiz-adv-x="751" 
d="M590 324h88v-129h-88v-195h-144v195h-374l-33 94l436 522h115v-487zM446 590l-223 -266h223v266z" />
    <glyph glyph-name="four.lf" horiz-adv-x="1230" 
d="M981 573h168v-202h-168v-371h-225v371h-693l-47 147l815 995h150v-940zM756 1120l-447 -547h447v547z" />
    <glyph glyph-name="four.num" horiz-adv-x="751" 
d="M590 1034h88v-129h-88v-194h-144v194h-374l-33 94l436 523h115v-488zM446 1300l-223 -266h223v266z" />
    <glyph glyph-name="four.osf" horiz-adv-x="1226" 
d="M979 311h168v-186h-168v-328h-223v328h-674l-49 141l798 926h148v-881zM756 819l-434 -508h434v508z" />
    <glyph glyph-name="four.tf" horiz-adv-x="1232" 
d="M1006 573h168v-202h-168v-371h-226v371h-692l-47 147l815 995h150v-940zM780 1120l-446 -547h446v547z" />
    <glyph glyph-name="four_fraction_nine" horiz-adv-x="1882" 
d="M612 711h-143v194h-375l-33 94l437 523h114v-488h88v-129h-88v-194zM307 -2l1184 1513h190l-1181 -1513h-193zM469 1300l-223 -266h223v266zM1470 829q151 0 232.5 -107.5t81.5 -289.5q0 -189 -90 -317q-89 -127 -269 -127q-142 0 -229 69l59 117q74 -51 162 -51
q102 0 160.5 72.5t64.5 193.5q-73 -98 -200 -98q-121 0 -196 73.5t-75 186.5q0 123 84 200.5t215 77.5zM1466 418q61 0 103.5 40t42.5 97q0 60 -41.5 101.5t-102.5 41.5q-63 0 -104 -40.5t-41 -102.5q0 -60 40 -98.5t103 -38.5z" />
    <glyph glyph-name="four_fraction_seven" horiz-adv-x="1818" 
d="M612 711h-143v194h-375l-33 94l437 523h114v-488h88v-129h-88v-194zM266 0l1184 1513h190l-1179 -1513h-195zM469 1300l-223 -266h223v266zM1169 664v141h545v-109l-315 -694h-168l305 662h-367z" />
    <glyph glyph-name="grave.case" horiz-adv-x="634" 
d="M356 1982l125 -354h-205l-194 354h274z" />
    <glyph glyph-name="guillemotleft.case" horiz-adv-x="1126" 
d="M604 360h-227l-287 416l287 416h227l-289 -416zM1010 360h-230l-284 416l284 416h230l-289 -416z" />
    <glyph glyph-name="guillemotright.case" horiz-adv-x="1126" 
d="M629 776l-283 -416h-231l288 416l-288 416h231zM1036 776l-286 -416h-230l291 416l-291 416h230z" />
    <glyph glyph-name="guilsinglleft.case" horiz-adv-x="720" 
d="M604 360h-227l-287 416l287 416h227l-289 -416z" />
    <glyph glyph-name="guilsinglright.case" horiz-adv-x="720" 
d="M631 776l-287 -416h-229l291 416l-291 416h229z" />
    <glyph glyph-name="hungarumlaut.case" horiz-adv-x="1075" 
d="M291 1628h-191l86 354h269zM676 1628h-193l105 354h270z" />
    <glyph glyph-name="hyphen.case" horiz-adv-x="1085" 
d="M946 659h-807v228h807v-228z" />
    <glyph glyph-name="i.loclTRK" horiz-adv-x="518" 
d="M264 1249q-66 0 -110.5 44t-44.5 110q0 63 44.5 106t110.5 43q63 0 106.5 -43t43.5 -106q0 -66 -43.5 -110t-106.5 -44zM373 1104v-1104h-226v1104h226z" />
    <glyph glyph-name="i_j.loclNLD" horiz-adv-x="1128" 
d="M264 1249q-66 0 -110.5 44t-44.5 110q0 63 44.5 106t110.5 43q63 0 106.5 -43t43.5 -106q0 -66 -43.5 -110t-106.5 -44zM815 1249q-66 0 -111 44t-45 110q0 63 45 106t111 43q63 0 106.5 -43t43.5 -106q0 -66 -43.5 -110t-106.5 -44zM373 1104v-1104h-226v1104h226z
M545 -471q-139 0 -215 49l45 184q86 -28 139 -28q188 0 188 223v1147h226v-1143q0 -210 -101.5 -321t-281.5 -111z" />
    <glyph glyph-name="iacute_j.loclNLD" horiz-adv-x="1075" 
d="M358 1278h-198l123 348h266zM924 1278h-199l123 348h266zM371 1104v-1104h-226v1104h226zM545 -471q-139 0 -215 49l45 184q86 -28 139 -28q188 0 188 223v1147h226v-1143q0 -210 -101.5 -321t-281.5 -111z" />
    <glyph glyph-name="j.loclNLD" horiz-adv-x="567" 
d="M307 1249q-66 0 -110.5 44t-44.5 110q0 63 44.5 106t110.5 43q63 0 106.5 -43t43.5 -106q0 -66 -43.5 -110t-106.5 -44zM37 -471q-139 0 -215 49l45 184q86 -28 139 -28q189 0 189 223v1147h225v-1143q0 -210 -101.5 -321t-281.5 -111z" />
    <glyph glyph-name="jacute" horiz-adv-x="567" 
d="M399 1278h-198l123 348h266zM37 -471q-139 0 -215 49l45 184q86 -28 139 -28q189 0 189 223v1147h225v-1143q0 -210 -101.5 -321t-281.5 -111z" />
    <glyph glyph-name="macron.case" horiz-adv-x="974" 
d="M803 1683l-715 -2v201h715v-199z" />
    <glyph glyph-name="nine.dnom" horiz-adv-x="761" 
d="M367 829q151 0 232 -107t81 -290q0 -189 -90 -317q-89 -127 -268 -127q-143 0 -230 69l60 117q74 -51 161 -51q102 0 161 73t65 193q-73 -98 -201 -98q-120 0 -195 73t-75 187q0 123 84 200.5t215 77.5zM362 418q61 0 103.5 40t42.5 97q0 60 -41 101.5t-102 41.5
q-63 0 -104.5 -40.5t-41.5 -102.5q0 -60 40 -98.5t103 -38.5z" />
    <glyph glyph-name="nine.lf" horiz-adv-x="1259" 
d="M610 1540q269 0 410 -203q141 -200 141 -532q0 -133 -22 -253t-71 -226.5t-120.5 -183.5t-176 -122t-232.5 -45q-246 0 -402 129l88 181q142 -103 303 -103q198 0 301 158q102 156 111 397q-56 -89 -157 -141.5t-222 -52.5q-208 0 -342 137q-135 138 -135 350
q0 221 147 365q148 145 379 145zM893 1034q0 126 -84 213q-82 88 -203 88q-126 0 -209 -86q-84 -87 -84 -215q0 -125 82.5 -208t206.5 -83q125 0 207 82q84 84 84 209z" />
    <glyph glyph-name="nine.num" horiz-adv-x="761" 
d="M367 1540q151 0 232 -107t81 -290q0 -190 -90 -318q-89 -127 -268 -127q-142 0 -230 70l60 117q74 -51 161 -51q102 0 161 73t65 193q-73 -99 -201 -99q-120 0 -195 73.5t-75 187.5q0 123 84 200.5t215 77.5zM362 1128q61 0 103.5 40.5t42.5 97.5q0 60 -41 101.5
t-102 41.5q-63 0 -104.5 -40.5t-41.5 -102.5q0 -60 40 -99t103 -39z" />
    <glyph glyph-name="nine.osf" horiz-adv-x="1228" 
d="M592 1251q270 0 407 -192q142 -192 142 -504q0 -127 -22.5 -241t-71.5 -214.5t-120.5 -173.5t-175.5 -115t-231 -42q-240 0 -399 120l88 174q146 -96 301 -96q199 0 301 150q103 152 109 377q-54 -87 -154 -137t-221 -50q-208 0 -342 131q-133 133 -133 332
q0 208 145 344q146 137 377 137zM584 500q123 0 207 78q83 77 83 194q0 119 -83 199q-82 82 -203 82q-125 0 -208 -79.5t-83 -201.5q0 -118 82 -195t205 -77z" />
    <glyph glyph-name="nine.tf" horiz-adv-x="1232" 
d="M598 1540q269 0 410 -203q141 -200 141 -532q0 -133 -22.5 -253t-71.5 -226.5t-120.5 -183.5t-176 -122t-232.5 -45q-245 0 -401 129l88 181q142 -103 303 -103q198 0 301 158q102 156 111 397q-56 -89 -157 -141.5t-222 -52.5q-208 0 -342 137q-135 138 -135 350
q0 221 147 365q148 145 379 145zM881 1034q0 126 -84 213q-82 88 -203 88q-126 0 -209 -86q-84 -87 -84 -215q0 -125 82.5 -208t206.5 -83q125 0 207 82q84 84 84 209z" />
    <glyph glyph-name="ogonek.case" horiz-adv-x="665" 
d="M457 -322l71 -153q-102 -60 -202 -60q-109 0 -176.5 64.5t-67.5 163.5q0 204 276 342l140 -35q-96 -41 -157.5 -111.5t-61.5 -138.5q0 -43 25.5 -69.5t66.5 -26.5q33 0 86 24z" />
    <glyph glyph-name="one.dnom" horiz-adv-x="550" 
d="M31 586l278 219h121v-807h-162v582l-151 -119z" />
    <glyph glyph-name="one.lf" horiz-adv-x="811" 
d="M4 1149l440 364h183v-1513h-234v1196l-262 -213z" />
    <glyph glyph-name="one.num" horiz-adv-x="550" 
d="M31 1296l278 220h123v-805h-164v579l-151 -119z" />
    <glyph glyph-name="one.numalt" horiz-adv-x="681" 
d="M55 1296l279 220h121v-807h-162v581l-152 -119z" />
    <glyph glyph-name="one.osf" horiz-adv-x="985" 
d="M670 1198v-1003h288v-195h-876v195h362v731l-338 -224l-110 170l485 326h189z" />
    <glyph glyph-name="one.tf" horiz-adv-x="1232" 
d="M776 1513v-1296h320v-217h-887v217h334v979l-262 -213l-127 166l440 364h182z" />
    <glyph glyph-name="parenleft.case" horiz-adv-x="823" 
d="M801 -133l-101 -172q-296 160 -456 433.5t-160 619.5q0 347 160.5 621t460.5 433l96 -174q-471 -318 -471 -880q0 -557 471 -881z" />
    <glyph glyph-name="parenright.case" horiz-adv-x="823" 
d="M121 -305l-98 172q471 324 471 881q0 562 -471 880l94 174q300 -159 461 -433t161 -621t-160 -620.5t-458 -432.5z" />
    <glyph glyph-name="periodcentered.case" horiz-adv-x="530" 
d="M266 610q-62 0 -103.5 41.5t-41.5 102.5q0 60 41.5 100.5t103.5 40.5q60 0 101 -40.5t41 -100.5q0 -61 -41 -102.5t-101 -41.5z" />
    <glyph glyph-name="questiondown.case" horiz-adv-x="1073" 
d="M606 1548q62 0 105 -41t43 -102q0 -59 -43 -99t-105 -40q-58 0 -98.5 40t-40.5 99q0 61 40.5 102t98.5 41zM504 1163h215v-145q0 -78 -39 -150.5t-102 -126.5q-16 -14 -49.5 -42.5t-52 -45.5t-47 -44t-45 -49t-33.5 -49.5t-24.5 -56.5t-7.5 -59q0 -99 71.5 -163
t180.5 -64q158 0 310 168l139 -158q-85 -104 -208.5 -163.5t-256.5 -59.5q-195 0 -334 121q-135 123 -135 309q0 89 40.5 170.5t106.5 140.5q22 20 72 61.5t76.5 66t59.5 60.5t48 70.5t15 69.5v139z" />
    <glyph glyph-name="quotedblbase.ss03" horiz-adv-x="987" 
d="M74 -303l151 616h221l-206 -616h-166zM537 -303l151 616h221l-207 -616h-165z" />
    <glyph glyph-name="quotedblleft.ss03" horiz-adv-x="944" 
d="M453 1714l-152 -616h-221l207 616h166zM920 1714l-152 -616h-221l207 616h166z" />
    <glyph glyph-name="quotedblright.ss03" horiz-adv-x="974" 
d="M80 1100l151 616h222l-207 -616h-166zM543 1100l151 616h221l-206 -616h-166z" />
    <glyph glyph-name="quoteleft.ss03" horiz-adv-x="493" 
d="M444 1714l-151 -616h-221l207 616h165z" />
    <glyph glyph-name="quoteright.ss03" horiz-adv-x="489" 
d="M90 1100l152 616h221l-207 -616h-166z" />
    <glyph glyph-name="quotesinglbase.ss03" horiz-adv-x="505" 
d="M20 -303l152 616h221l-207 -616h-166z" />
    <glyph glyph-name="ring.case" horiz-adv-x="692" 
d="M516 1663q-70 -70 -178 -70q-107 0 -180 70q-74 71 -74 172q0 103 74 174q75 72 180 72q106 0 178 -72q74 -71 74 -174q0 -101 -74 -172zM338 1726q43 0 75.5 33t32.5 80q0 44 -32.5 76.5t-75.5 32.5q-47 0 -80 -32t-33 -77q0 -47 33 -80t80 -33z" />
    <glyph glyph-name="semicolon.case" horiz-adv-x="600" 
d="M317 928q-62 0 -104.5 42t-42.5 103q0 60 42.5 100.5t104.5 40.5q60 0 102 -40.5t42 -100.5q0 -61 -42 -103t-102 -42zM311 539q66 0 110 -47t44 -119q0 -189 -275 -369l-69 96q147 113 176 170h-8q-51 0 -88 37.5t-37 91.5q0 57 43.5 98.5t103.5 41.5z" />
    <glyph glyph-name="semicolon.case.ss03" horiz-adv-x="600" 
d="M317 928q-62 0 -104.5 42t-42.5 103q0 60 42.5 100.5t104.5 40.5q60 0 102 -40.5t42 -100.5q0 -61 -42 -103t-102 -42zM45 -299l152 616h221l-207 -616h-166z" />
    <glyph glyph-name="semicolon.ss03" horiz-adv-x="563" 
d="M305 715q-62 0 -104.5 42t-42.5 103q0 60 42.5 100.5t104.5 40.5q60 0 102 -40.5t42 -100.5q0 -61 -42 -103t-102 -42zM45 -362l152 616h221l-207 -616h-166z" />
    <glyph glyph-name="seven.dnom" horiz-adv-x="598" 
d="M27 664v141h544v-109l-315 -694h-168l305 662h-366z" />
    <glyph glyph-name="seven.lf" horiz-adv-x="1044" 
d="M43 1300v213h963v-149l-574 -1364h-250l559 1300h-698z" />
    <glyph glyph-name="seven.num" horiz-adv-x="598" 
d="M27 1374v142h544v-109l-315 -694h-168l305 661h-366z" />
    <glyph glyph-name="seven.osf" horiz-adv-x="1028" 
d="M33 981v205h962v-146l-573 -1243h-252l557 1184h-694z" />
    <glyph glyph-name="seven.tf" horiz-adv-x="1232" 
d="M143 1303v210h998v-143l-674 -1370h-252l653 1303h-725z" />
    <glyph glyph-name="seven_fraction_nine" horiz-adv-x="1658" 
d="M276 713h-167l305 661h-367v142h545v-109zM66 -2l1183 1513h191l-1180 -1513h-194zM1264 829q151 0 232 -107t81 -290q0 -189 -90 -317q-89 -127 -268 -127q-143 0 -230 69l60 117q74 -51 161 -51q102 0 161 73t65 193q-73 -98 -201 -98q-120 0 -195 73t-75 187
q0 123 84 200.5t215 77.5zM1260 418q61 0 103 40t42 97q0 60 -41 101.5t-102 41.5q-63 0 -104.5 -40.5t-41.5 -102.5q0 -60 40.5 -98.5t103.5 -38.5z" />
    <glyph glyph-name="six.dnom" horiz-adv-x="716" 
d="M393 524q119 0 195 -73.5t76 -188.5q0 -121 -83 -198.5t-214 -77.5q-156 0 -238 110q-82 113 -82 283q0 191 94 319q94 131 275 131q135 0 227 -69l-63 -117q-68 51 -156 51q-102 0 -164 -80q-61 -76 -67 -184q64 94 200 94zM367 119q63 0 105 40.5t42 100.5t-41.5 98.5
t-103.5 38.5q-63 0 -105.5 -38.5t-42.5 -98.5t42 -100.5t104 -40.5z" />
    <glyph glyph-name="six.lf" 
d="M707 977q205 0 344 -139q137 -137 137 -349q0 -220 -150 -364q-146 -143 -376 -143q-109 0 -201 37.5t-159 104.5t-113 158t-67.5 200t-19.5 229q0 215 66 401q64 183 213 305q150 123 358 123q233 0 396 -129l-101 -176q-131 98 -280 98q-135 0 -238 -92
q-183 -169 -186 -473q51 98 150.5 153.5t226.5 55.5zM664 188q123 0 206 86q84 87 84 213q0 123 -84 207q-82 82 -204 82q-127 0 -209 -82q-84 -84 -84 -209q0 -124 84 -211q83 -86 207 -86z" />
    <glyph glyph-name="six.num" horiz-adv-x="716" 
d="M393 1235q119 0 195 -73.5t76 -188.5q0 -122 -83.5 -199.5t-213.5 -77.5q-155 0 -238 111q-82 113 -82 283q0 191 94 319q94 131 275 131q133 0 227 -70l-63 -116q-68 51 -156 51q-102 0 -164 -80q-61 -76 -67 -184q64 94 200 94zM367 829q63 0 105 41t42 101t-41.5 98.5
t-103.5 38.5q-63 0 -105.5 -38.5t-42.5 -98.5t42 -101t104 -41z" />
    <glyph glyph-name="six.osf" horiz-adv-x="1245" 
d="M682 934q206 0 342 -133q137 -131 137 -336q0 -208 -147 -346q-146 -137 -375 -137q-270 0 -414 196q-143 195 -143 500q0 206 65 383q64 175 213 293q146 116 355 116q227 0 395 -122l-100 -170q-133 92 -281 92q-139 0 -240 -88q-179 -159 -182 -451l-2 -2
q51 97 150.5 151t226.5 54zM639 180q127 0 209 82q84 84 84 203q0 116 -84 194t-205 78q-125 0 -209 -78t-84 -196q0 -117 84 -201q82 -82 205 -82z" />
    <glyph glyph-name="six.tf" horiz-adv-x="1232" 
d="M690 977q205 0 344 -139q137 -137 137 -349q0 -221 -149 -364q-146 -143 -377 -143q-180 0 -310 100t-191.5 263t-57.5 366q0 215 66 401q64 183 213 305q150 123 358 123q231 0 395 -129l-100 -176q-131 98 -281 98q-134 0 -237 -92q-184 -170 -187 -473
q51 98 150.5 153.5t226.5 55.5zM647 188q124 0 207 86q84 87 84 213q0 123 -84 207q-82 82 -205 82q-127 0 -209 -82q-84 -84 -84 -209q0 -124 84 -211q83 -86 207 -86z" />
    <glyph glyph-name="six_fraction_seven" horiz-adv-x="1763" 
d="M668 973q0 -122 -83.5 -199.5t-213.5 -77.5q-155 0 -238 111q-82 113 -82 283q0 191 94 319q94 131 275 131q133 0 227 -70l-63 -116q-68 51 -156 51q-102 0 -164 -80q-61 -76 -67 -184q64 94 200 94q119 0 195 -73.5t76 -188.5zM211 0l1184 1513h190l-1179 -1513h-195z
M371 829q63 0 105 41t42 101t-41.5 98.5t-103.5 38.5q-63 0 -105.5 -38.5t-42.5 -98.5t42 -101t104 -41zM1122 664v141h545v-109l-315 -694h-168l305 662h-367z" />
    <glyph glyph-name="slash.case" horiz-adv-x="1148" 
d="M276 0h-231l829 1513h234z" />
    <glyph glyph-name="sterling.osf" horiz-adv-x="983" 
d="M330 193h633v-193h-895v154q81 57 128.5 133.5t47.5 150.5q0 38 -15 84h-163v158h98q-31 79 -31 143q0 172 121 281q119 107 303 110q277 3 404 -231l-154 -106q-80 153 -238 153q-96 0 -157.5 -63t-61.5 -158q0 -57 29 -129h452v-158h-389q11 -46 11 -73
q0 -145 -123 -256z" />
    <glyph glyph-name="three.dnom" horiz-adv-x="679" 
d="M301 -12q-137 0 -270 80l65 125q115 -62 199 -62q66 0 104.5 30.5t38.5 78.5q0 47 -40 77.5t-103 30.5h-107v137h99q56 0 95.5 27.5t39.5 73.5t-35 72t-88 26q-84 0 -170 -63l-78 112q110 96 266 96q115 0 192 -62t77 -153q0 -65 -40.5 -114t-107.5 -70v-4
q77 -17 121.5 -71t44.5 -128q0 -106 -84.5 -172.5t-218.5 -66.5z" />
    <glyph glyph-name="three.lf" horiz-adv-x="1140" 
d="M512 -25q-247 0 -475 150l104 190q192 -122 363 -122q132 0 210.5 65t78.5 170q0 106 -80 173t-207 67h-189v213h181q119 0 192.5 61.5t73.5 161.5q0 98 -72 157.5t-180 59.5q-151 0 -322 -127l-118 166q84 84 208 132t255 48q202 0 335 -115q134 -116 134 -282
q0 -120 -72 -213.5t-189 -130.5v-8q138 -32 216.5 -132t78.5 -241q0 -194 -147 -320q-144 -123 -379 -123z" />
    <glyph glyph-name="three.num" horiz-adv-x="679" 
d="M301 698q-137 0 -270 80l65 125q113 -61 199 -61q66 0 104.5 30t38.5 78q0 47 -40 78t-103 31h-107v137h99q56 0 95.5 27t39.5 73t-35 72.5t-88 26.5q-82 0 -170 -64l-78 113q110 96 266 96q115 0 192 -62t77 -153q0 -65 -40.5 -114t-107.5 -70v-4q77 -17 121.5 -71
t44.5 -128q0 -106 -84.5 -173t-218.5 -67z" />
    <glyph glyph-name="three.osf" horiz-adv-x="1103" 
d="M494 -229q-252 0 -471 137l104 180q192 -113 362 -113q132 0 209.5 60t77.5 155q0 97 -78.5 157.5t-205.5 60.5h-191v200h180q118 0 192.5 56.5t74.5 144.5q0 90 -71 144.5t-179 54.5q-154 0 -324 -117l-117 158q82 78 205 123t254 45q203 0 334 -107t131 -262
q0 -110 -71 -196.5t-187 -121.5v-6q138 -29 215.5 -121.5t77.5 -222.5q0 -179 -146 -295q-144 -114 -376 -114z" />
    <glyph glyph-name="three.tf" horiz-adv-x="1232" 
d="M547 -25q-247 0 -475 150l104 190q192 -122 363 -122q132 0 210 65t78 170q0 106 -79.5 173t-206.5 67h-189v213h180q119 0 193 61.5t74 161.5q0 98 -72 157.5t-180 59.5q-151 0 -322 -127l-119 166q84 84 208 132t255 48q203 0 336 -115t133 -282q0 -120 -71.5 -213.5
t-188.5 -130.5v-8q138 -32 216.5 -132t78.5 -241q0 -194 -147 -320q-144 -123 -379 -123z" />
    <glyph glyph-name="three_fraction_seven" horiz-adv-x="1771" 
d="M317 842q66 0 105 30t39 78q0 47 -40.5 78t-103.5 31h-106v137h98q56 0 95.5 27t39.5 73t-34.5 72.5t-87.5 26.5q-82 0 -170 -64l-78 113q110 96 266 96q115 0 191.5 -62t76.5 -153q0 -65 -40 -114t-107 -70v-4q77 -17 121.5 -71t44.5 -128q0 -106 -84.5 -173t-218.5 -67
q-138 0 -271 80l66 125q113 -61 198 -61zM213 0l1184 1513h190l-1179 -1513h-195zM1130 664v141h545v-109l-315 -694h-168l305 662h-367z" />
    <glyph glyph-name="tilde.case" horiz-adv-x="1120" 
d="M229 1677l-147 72q73 211 264 211q67 0 156 -47q86 -45 127 -45q74 0 121 96l143 -70q-32 -98 -100 -154.5t-154 -56.5q-63 0 -154 48q-89 47 -129 47q-78 0 -127 -101z" />
    <glyph glyph-name="two.dnom" horiz-adv-x="706" 
d="M504 348l-195 -203h314v-145h-543v129l266 270q107 110 107 179q0 45 -33 74.5t-84 29.5q-89 0 -193 -96l-82 119q124 124 285 124q119 0 194.5 -69.5t75.5 -179.5q0 -120 -112 -232z" />
    <glyph glyph-name="two.lf" horiz-adv-x="1163" 
d="M807 625l-373 -408h625v-217h-959v197l482 512l114 127q42 49 76.5 120t34.5 129q0 103 -73.5 169.5t-180.5 66.5q-176 0 -358 -170l-129 168q226 221 497 221q209 0 342 -127q135 -126 135 -330q0 -207 -233 -458z" />
    <glyph glyph-name="two.num" horiz-adv-x="706" 
d="M504 1059l-195 -203h314v-145h-543v129l266 270q107 110 107 178q0 45 -33 75t-84 30q-88 0 -193 -97l-82 119q125 125 285 125q119 0 194.5 -70t75.5 -180q0 -119 -112 -231z" />
    <glyph glyph-name="two.osf" horiz-adv-x="1097" 
d="M715 436l-279 -241h561v-195h-891v178l416 357q136 116 185 177.5t49 129.5q0 73 -58 119.5t-151 46.5q-88 0 -169.5 -42.5t-191.5 -138.5l-120 168q122 110 236.5 164.5t248.5 54.5q193 0 311 -106q121 -106 121 -260q0 -97 -62.5 -193t-205.5 -219z" />
    <glyph glyph-name="two.tf" horiz-adv-x="1232" 
d="M842 625l-373 -408h625v-217h-959v197l481 512l115 127q42 49 76.5 120t34.5 129q0 103 -73.5 169.5t-180.5 66.5q-177 0 -359 -170l-129 168q226 221 498 221q209 0 342 -127q135 -126 135 -330q0 -207 -233 -458z" />
    <glyph glyph-name="two_fraction_nine" horiz-adv-x="1808" 
d="M90 711v129l266 270q107 110 107 178q0 45 -33 75t-84 30q-87 0 -192 -97l-82 119q125 125 284 125q119 0 195 -70t76 -180q0 -118 -113 -231l-195 -203h314v-145h-543zM256 0l1184 1513h190l-1179 -1513h-195zM1419 829q151 0 232.5 -107.5t81.5 -289.5q0 -187 -91 -317
q-89 -127 -268 -127q-142 0 -229 69l59 117q74 -51 162 -51q102 0 160.5 72.5t64.5 193.5q-73 -98 -200 -98q-121 0 -196 73.5t-75 186.5q0 123 84 200.5t215 77.5zM1415 418q61 0 103.5 40t42.5 97q0 60 -41.5 101.5t-102.5 41.5q-63 0 -104 -40.5t-41 -102.5
q0 -60 40 -98.5t103 -38.5z" />
    <glyph glyph-name="two_fraction_seven" horiz-adv-x="1808" 
d="M100 711v129l267 270q106 109 106 178q0 45 -33 75t-84 30q-87 0 -192 -97l-82 119q125 125 285 125q119 0 194.5 -70t75.5 -180q0 -118 -113 -231l-194 -203h313v-145h-543zM264 0l1184 1513h190l-1179 -1513h-195zM1165 664v141h545v-109l-315 -694h-168l305 662h-367z
" />
    <glyph glyph-name="uni0414.ss01" horiz-adv-x="1538" 
d="M1300 1513v-1290h150v-530h-236v307h-915v-307h-236v530h121q66 110 115 303q46 171 96 568l54 419h851zM442 223h623v1065h-408l-12 -100q-88 -715 -203 -965z" />
    <glyph glyph-name="uni0416.ss01" horiz-adv-x="1847" 
d="M1235 774l620 -774h-282l-533 672v-672h-231v674l-533 -674h-284l622 776l-596 737h275l516 -643v643h231v-643l516 643h275z" />
    <glyph glyph-name="uni041B.ss01" horiz-adv-x="1484" 
d="M141 -14q-52 0 -90 10l-26 211q30 -6 57 -6q121 0 184 100q33 53 53 102q40 101 74 306q15 74 27 190l22 193q10 81 21 213q11 97 20 208h820v-1513h-240v1286h-367l-16 -166l-18 -182q-2 -35 -19 -162q-15 -113 -27 -172q-18 -89 -32 -145q-32 -144 -99 -262
q-120 -211 -344 -211z" />
    <glyph glyph-name="uni0424.ss01" horiz-adv-x="1961" 
d="M1882 760q0 -300 -221 -488q-217 -187 -561 -196v-240h-238v240q-349 12 -567 194q-215 185 -215 490t215 487q221 184 567 193v237h238v-237q343 -9 561 -197q221 -188 221 -483zM1100 1221v-926q238 6 389 133q151 130 151 332q0 200 -151 327q-152 128 -389 134z
M862 295v926q-241 -6 -391 -129q-149 -122 -149 -332t147 -336q150 -126 393 -129z" />
    <glyph glyph-name="uni042A.ss01" horiz-adv-x="1536" 
d="M629 979h311q127 0 225.5 -34.5t156.5 -86.5t95.5 -121t50.5 -131.5t13 -124.5q0 -204 -135 -342q-136 -139 -383 -139h-568v1298h-364v215h598v-534zM629 217h295q149 0 230 75t81 200q0 121 -77 195.5t-224 74.5h-305v-545z" />
    <glyph glyph-name="uni042C.ss01" horiz-adv-x="1325" 
d="M418 979h311q127 0 225.5 -34.5t156.5 -86.5t95.5 -121t50.5 -131.5t13 -124.5q0 -204 -135 -342q-136 -139 -383 -139h-568v1513h234v-534zM418 217h295q149 0 230 75t81 200q0 121 -77 195.5t-224 74.5h-305v-545z" />
    <glyph glyph-name="uni0431.ss01" horiz-adv-x="1366" 
d="M737 1083q219 0 381 -149q166 -150 166 -404q0 -235 -162 -397q-158 -162 -409 -162q-127 0 -232 44t-175 116.5t-118 169t-69 199.5t-21 211q0 204 52 350q53 153 126 231q75 81 201 144q117 62 228 90q28 7 253 69q157 43 240 80v-223q-88 -41 -233 -80l-230 -63
q-95 -24 -190 -74q-191 -96 -240 -373q62 104 179 162.5t253 58.5zM715 178q144 0 243 105q101 107 101 252q0 142 -101 243q-100 103 -239 103q-138 0 -246 -97q-104 -94 -104 -245q0 -144 96 -254q94 -107 250 -107z" />
    <glyph glyph-name="uni0432.ss01" horiz-adv-x="1185" 
d="M883 614q106 -24 164.5 -101.5t58.5 -182.5q0 -141 -102 -236q-101 -94 -277 -94h-582v1104h555q164 0 252 -82q90 -84 90 -191q0 -77 -42.5 -134.5t-116.5 -82.5zM688 920h-330v-246h336q66 0 101.5 35.5t35.5 89.5q0 53 -36.5 87t-106.5 34zM358 186h353
q81 0 127.5 42.5t46.5 115.5q0 70 -44.5 114t-127.5 44h-355v-316z" />
    <glyph glyph-name="uni0433.ss01" horiz-adv-x="899" 
d="M145 1104h736v-197h-510v-907h-226v1104z" />
    <glyph glyph-name="uni0434.ss01" horiz-adv-x="1314" 
d="M1116 1104v-905h117v-443h-213v244h-758v-244h-213v443h125q104 176 168 622l41 283h733zM573 913l-12 -73q-64 -456 -153 -641h487v714h-322z" />
    <glyph glyph-name="uni0436.ss01" horiz-adv-x="1513" 
d="M1032 565l486 -565h-254l-406 479v-479h-205v477l-405 -477h-252l487 565l-463 539h244l389 -461v461h205v-463l389 463h246z" />
    <glyph glyph-name="uni0437.ss01" horiz-adv-x="1050" 
d="M485 -25q-236 0 -440 115l80 176q187 -96 358 -96q122 0 192 44t70 118q0 139 -231 139h-235v186h170q128 0 195 38.5t67 107.5q0 65 -57 99t-156 34q-153 0 -328 -96l-94 159q81 61 198.5 96t235.5 35q188 0 303 -86q117 -86 117 -206q0 -84 -59.5 -148t-165.5 -96v-6
q119 -25 191.5 -101t72.5 -178q0 -145 -131 -239q-133 -95 -353 -95z" />
    <glyph glyph-name="uni0438.ss01" horiz-adv-x="1314" 
d="M287 0h-142v1104h220v-758l663 758h141v-1104h-221v750z" />
    <glyph glyph-name="uni0439.ss01" horiz-adv-x="1314" 
d="M672 1176q-224 0 -379 198l110 117q67 -81 130 -116.5t139 -35.5q138 0 266 152l113 -117q-165 -198 -379 -198zM287 0h-142v1104h220v-758l663 758h141v-1104h-221v750z" />
    <glyph glyph-name="uni043A.ss01" horiz-adv-x="1130" 
d="M1139 0h-281l-391 494l-98 -93v-401h-224v1104h224v-436l467 436h292l-501 -465z" />
    <glyph glyph-name="uni043B.ss01" horiz-adv-x="1261" 
d="M143 -12q-42 0 -73 8l-52 166q23 -2 62 -2q98 0 156 76q39 52 61 129q32 101 45 176l18 98l15 113l14 110l12 123l15 119h700v-1104h-225v905h-281q-1 -3 -2 -13.5t-3.5 -31t-4.5 -39.5l-10 -86l-10 -80l-13 -86l-14 -77q-5 -34 -9.5 -55.5t-14 -51t-13.5 -45.5
q-22 -89 -84 -195q-100 -157 -289 -157z" />
    <glyph glyph-name="uni043F.ss01" horiz-adv-x="1236" 
d="M145 1104h947v-1104h-226v905h-495v-905h-226v1104z" />
    <glyph glyph-name="uni0442.ss01" horiz-adv-x="976" 
d="M20 1104h938v-195h-356v-909h-225v909h-357v195z" />
    <glyph glyph-name="uni0444.ss01" horiz-adv-x="1701" 
d="M1622 551q0 -261 -184 -414q-181 -153 -484 -162v-294h-206v294q-306 9 -486 164q-182 156 -182 412q0 262 184 418q183 155 484 164v294h206v-294q299 -9 482 -164q186 -155 186 -418zM954 936v-768q208 2 329.5 105.5t121.5 281.5q0 176 -119.5 276t-331.5 105z
M297 553q0 -178 122.5 -280.5t328.5 -104.5v768q-211 -5 -331 -106t-120 -277z" />
    <glyph glyph-name="uni0446.ss01" horiz-adv-x="1314" 
d="M1266 -369h-217v369h-904v1104h226v-899h497v899h226v-899h172v-574z" />
    <glyph glyph-name="uni0448.ss01" horiz-adv-x="1857" 
d="M1712 0h-1567v1104h226v-899h446v899h225v-899h445v899h225v-1104z" />
    <glyph glyph-name="uni0449.ss01" horiz-adv-x="1935" 
d="M1712 1104v-899h174v-574h-219v369h-1522v1104h226v-899h446v899h225v-899h445v899h225z" />
    <glyph glyph-name="uni044A.ss01" horiz-adv-x="1245" 
d="M510 743h242q122 0 215 -33.5t141 -91.5q88 -106 88 -245q0 -159 -111 -267q-109 -106 -323 -106h-473v907h-260v197h481v-361zM508 190h231q118 0 176 49.5t58 135.5q0 79 -56 128.5t-167 49.5h-242v-363z" />
    <glyph glyph-name="uni044C.ss01" horiz-adv-x="1114" 
d="M367 743h254q100 0 179 -23t128 -59.5t80.5 -86.5t44 -99t12.5 -102q0 -159 -111 -267q-109 -106 -323 -106h-486v1104h222v-361zM367 190h239q236 0 236 185q0 78 -56.5 128t-167.5 50h-251v-363z" />
    <glyph glyph-name="uni044E.ss01" horiz-adv-x="1753" 
d="M1090 1133q253 0 417 -170q166 -169 166 -410q0 -245 -166 -414q-162 -168 -417 -168q-229 0 -385 135q-156 138 -191 347h-143v-453h-226v1104h226v-463h141q30 210 188 350q160 142 390 142zM1446 553q0 152 -105 260q-102 111 -251 111t-254 -111q-103 -109 -103 -260
q0 -153 103 -262q106 -109 254 -109t251 109q105 108 105 262z" />
    <glyph glyph-name="yen.osf" horiz-adv-x="993" 
d="M784 1198h230l-320 -573h213v-154h-299v-74h299v-153h-299v-244h-215v244h-299v153h299v74h-299v154h217l-319 573h231l279 -534z" />
    <glyph glyph-name="zero.dnom" horiz-adv-x="772" 
d="M385 -10q-166 0 -252 121q-84 122 -84 299t84 299q85 122 252 122q169 0 252 -120q86 -121 86 -301q0 -178 -86 -299q-83 -121 -252 -121zM385 141q170 0 170 269q0 123 -41.5 195.5t-128.5 72.5q-84 0 -126 -72.5t-42 -195.5t42 -196t126 -73z" />
    <glyph glyph-name="zero.lf" horiz-adv-x="1396" 
d="M973 43q-121 -68 -275 -68q-153 0 -274 68q-210 120 -291 430q-31 140 -31 285.5t31 282.5t105.5 252t185.5 180q119 67 274 67q156 0 275 -67q215 -119 289 -431q35 -135 35 -284.5t-35 -284.5q-74 -311 -289 -430zM698 197q183 0 271 155q90 159 90 406q0 244 -90 403
q-90 158 -271 158q-180 0 -270 -158q-88 -155 -88 -403q-2 -159 34 -282t119 -200t205 -79z" />
    <glyph glyph-name="zero.num" horiz-adv-x="772" 
d="M385 698q-166 0 -252 121q-84 122 -84 299t84 299q85 123 252 123q169 0 252 -121q86 -121 86 -301q0 -178 -86 -299q-83 -121 -252 -121zM385 850q170 0 170 268q0 123 -41.5 195.5t-128.5 72.5q-84 0 -126 -72.5t-42 -195.5t42 -195.5t126 -72.5z" />
    <glyph glyph-name="zero.osf" horiz-adv-x="1243" 
d="M623 -25q-171 0 -297 91q-226 172 -226 528q0 260 131 440q133 183 392 183q107 0 194.5 -34.5t147 -93.5t100.5 -139t59.5 -169.5t18.5 -186.5q0 -96 -18.5 -184.5t-59.5 -168.5t-100.5 -138.5t-147 -93t-194.5 -34.5zM623 176q140 0 216 112.5t76 305.5
q0 195 -75 308.5t-215 113.5q-143 0 -218 -113t-75 -309q0 -194 74 -306t217 -112z" />
    <glyph glyph-name="zero.slash" horiz-adv-x="1396" 
d="M424 1473q119 67 274 67q156 0 275 -67q215 -119 289 -431q35 -135 35 -284.5t-35 -284.5q-74 -311 -289 -430q-121 -68 -275 -68q-153 0 -274 68q-210 120 -291 430q-31 140 -31 285.5t31 282.5t105.5 252t185.5 180zM698 1339q-187 0 -278 -163q-92 -164 -92 -418
q0 -200 51 -334l557 811q-91 104 -238 104zM698 176q190 0 281 162q92 164 92 420q0 176 -43 309l-551 -803q88 -88 221 -88z" />
    <glyph glyph-name="zero.tf" horiz-adv-x="1232" 
d="M616 -25q-117 0 -213 45t-160.5 120t-108.5 177t-63.5 212.5t-19.5 228.5t19.5 228.5t63.5 212t108.5 176.5t160.5 120t213 45q118 0 215 -45t161.5 -120t108.5 -176.5t63.5 -211.5t19.5 -229t-19.5 -229t-63.5 -212t-108.5 -177t-161.5 -120t-215 -45zM954 758
q0 244 -84 403q-84 158 -254 158q-167 0 -251 -158q-84 -159 -84 -403q0 -253 81 -406q82 -155 254 -155t254 155q84 159 84 406z" />
    </font>
</defs>
</svg>
