<?xml version="1.0" standalone="no"?>
<!DOCTYPE svg PUBLIC "-//W3C//DTD SVG 1.1//EN" "http://www.w3.org/Graphics/SVG/1.1/DTD/svg11.dtd" >
<svg xmlns="http://www.w3.org/2000/svg" xmlns:xlink="http://www.w3.org/1999/xlink" version="1.1">
<metadata>
Created by FontForge 20170731 at Tue Jun  8 08:01:15 2021
 By Aleksey,,,
Copyright (c) 2017 by Kastelov. All rights reserved.
</metadata>
<defs>
<font id="Axiforma-Regular" horiz-adv-x="1251" >
  <font-face 
    font-family="Axiforma"
    font-weight="400"
    font-stretch="normal"
    units-per-em="2048"
    panose-1="0 0 5 0 0 0 0 0 0 0"
    ascent="1579"
    descent="-469"
    x-height="1096"
    cap-height="1513"
    bbox="-850 -649 2603 2062"
    underline-thickness="102"
    underline-position="-307"
    unicode-range="U+000D-25CA"
  />
<missing-glyph horiz-adv-x="266" 
 />
    <glyph glyph-name="f_b" unicode="fb" horiz-adv-x="2174" 
d="M244 1098v69q0 192 101 301t271 109q135 0 248 -61l-61 -160q-91 39 -162 39q-201 0 -201 -230v-67h351v-168h-351v-930h-196v930h-191v168h191zM1544 1124q234 0 389 -168q158 -169 158 -407t-158 -410q-156 -166 -391 -166q-238 0 -385 187v-160h-196v1550h196v-618
q149 192 387 192zM1520 158q168 0 268 112q104 113 104 281q0 163 -104 276q-101 113 -268 113q-170 0 -271 -113q-100 -112 -100 -276q0 -169 100 -281t271 -112z" />
    <glyph glyph-name="f_f" unicode="ff" horiz-adv-x="1574" 
d="M1438 1395q-113 0 -172.5 -59t-59.5 -171v-67h348v-168h-348v-930h-196v930h-570v-930h-196v930h-191v168h191v71q0 193 119 300.5t323 107.5q158 0 311 -78l-69 -160q-139 56 -223 56q-124 0 -194.5 -60.5t-70.5 -169.5v-67h570v71q0 192 109.5 300t295.5 108
q135 0 250 -59l-61 -162q-91 39 -166 39z" />
    <glyph glyph-name="f_f_i" unicode="ffi" horiz-adv-x="2086" 
d="M1407 1395q-201 0 -201 -230v-67h400v-168h-400v-930h-196v930h-570v-930h-196v930h-191v168h191v71q0 193 119 300.5t323 107.5q158 0 311 -78l-67 -160q-139 56 -228 56q-124 0 -193 -60t-69 -170v-67h570v69q0 193 101 301.5t273 108.5q135 0 248 -61l-63 -160
q-91 39 -162 39zM1839 1536q57 0 98 -41t41 -98q0 -61 -39.5 -101.5t-99.5 -40.5t-100.5 40.5t-40.5 101.5q0 60 40.5 99.5t100.5 39.5zM1935 0h-196v1098h196v-1098z" />
    <glyph glyph-name="f_f_j" unicode="ffj" horiz-adv-x="2086" 
d="M1577 1098v-168h-371v-930h-196v930h-570v-930h-196v930h-191v168h191v71q0 193 119 300.5t323 107.5q155 0 311 -78l-67 -160q-139 56 -228 56q-124 0 -193 -60t-69 -170v-67h570v69q0 193 101 301.5t273 108.5q135 0 248 -61l-63 -160q-91 39 -162 39q-201 0 -201 -230
v-67h371zM1839 1536q57 0 98 -41t41 -98q0 -61 -39.5 -101.5t-99.5 -40.5t-100.5 40.5t-40.5 101.5q0 60 40.5 99.5t100.5 39.5zM1739 -63v1161h196v-1149q0 -200 -96.5 -309t-265.5 -109q-127 0 -195 45l39 164q82 -29 131 -29q191 0 191 226z" />
    <glyph glyph-name="f_h" unicode="fh" horiz-adv-x="2070" 
d="M244 1098v69q0 192 101 301t271 109q135 0 248 -61l-61 -160q-91 39 -162 39q-201 0 -201 -230v-67h351v-168h-351v-930h-196v930h-191v168h191zM1499 1126q183 0 307 -118q125 -119 125 -342v-666h-194v610q0 158 -76 246t-203 88q-133 0 -217 -93t-84 -241v-610h-196
v1550h190v-587q52 75 144.5 119t203.5 44z" />
    <glyph glyph-name="f_i" unicode="fi" horiz-adv-x="1320" 
d="M244 1098v69q0 193 101 301.5t273 108.5q135 0 248 -61l-63 -160q-91 39 -162 39q-201 0 -201 -230v-67h351v-168h-351v-930h-196v930h-191v168h191zM1073 1534q58 0 98.5 -40t40.5 -99q0 -61 -39.5 -101.5t-99.5 -40.5t-100.5 40.5t-40.5 101.5q0 60 40.5 99.5
t100.5 39.5zM1169 0h-196v1098h196v-1098z" />
    <glyph glyph-name="f_j" unicode="fj" horiz-adv-x="1320" 
d="M809 1098v-168h-369v-930h-196v930h-191v168h191v69q0 193 101 301.5t273 108.5q135 0 248 -61l-63 -160q-91 39 -162 39q-201 0 -201 -230v-67h369zM1073 1534q58 0 98.5 -40t40.5 -99q0 -61 -39.5 -101.5t-99.5 -40.5t-100.5 40.5t-40.5 101.5q0 60 40.5 99.5
t100.5 39.5zM973 -63v1161h196v-1149q0 -200 -96.5 -309t-265.5 -109q-127 0 -195 45l39 164q82 -29 131 -29q191 0 191 226z" />
    <glyph glyph-name="f_k" unicode="fk" horiz-adv-x="1923" 
d="M244 1098v69q0 192 101 301t271 109q135 0 248 -61l-61 -160q-91 39 -162 39q-201 0 -201 -230v-67h351v-168h-351v-930h-196v930h-191v168h191zM1933 0h-258l-413 512l-105 -94v-418h-196v1550h196v-897l492 445h266l-514 -461z" />
    <glyph glyph-name="f_l" unicode="fl" horiz-adv-x="1308" 
d="M244 1098v69q0 195 97 302.5t269 107.5q135 0 248 -61l-55 -160q-91 39 -162 39q-201 0 -201 -230v-67h351v-168h-351v-930h-196v930h-191v168h191zM961 0v1550h196v-1550h-196z" />
    <glyph glyph-name=".notdef" horiz-adv-x="266" 
 />
    <glyph glyph-name=".null" horiz-adv-x="0" 
 />
    <glyph glyph-name="nonmarkingreturn" horiz-adv-x="682" 
 />
    <glyph glyph-name="CR.001" horiz-adv-x="266" 
 />
    <glyph glyph-name="CR.001" horiz-adv-x="266" 
 />
    <glyph glyph-name="CR" unicode="&#xd;" horiz-adv-x="681" 
 />
    <glyph glyph-name="space" unicode=" " horiz-adv-x="505" 
 />
    <glyph glyph-name="exclam" unicode="!" horiz-adv-x="604" 
d="M399 369h-196l-8 1149h217zM305 -25q-57 0 -95 38.5t-38 95.5q0 54 38 90.5t95 36.5q54 0 91.5 -36.5t37.5 -90.5q0 -57 -37 -95.5t-92 -38.5z" />
    <glyph glyph-name="quotedbl" unicode="&#x22;" horiz-adv-x="958" 
d="M276 913h-182l168 600h238zM692 913h-182l168 600h237z" />
    <glyph glyph-name="numbersign" unicode="#" horiz-adv-x="1441" 
d="M1372 1106l-33 -162h-219l-65 -350h219l-31 -162h-219l-82 -432h-182l82 432h-355l-81 -432h-185l84 432h-233l28 162h236l67 350h-237l33 162h235l80 407h180l-78 -407h355l78 407h180l-78 -407h221zM518 594h354l68 350h-354z" />
    <glyph glyph-name="dollar" unicode="$" horiz-adv-x="1157" 
d="M1071 410q0 -172 -110 -285q-111 -114 -287 -141v-213h-152v206q-150 12 -272 93.5t-187 218.5l154 125q117 -242 356 -242q124 0 199.5 65t75.5 160q0 125 -156 213q-22 12 -147 70q-123 60 -176 94q-226 142 -226 359q0 162 108.5 274t287.5 131v188h151v-192
q217 -40 348 -217l-139 -131q-122 162 -301 162q-102 0 -169 -56t-67 -147q0 -117 132 -199q69 -39 174 -90q138 -65 192 -98q211 -129 211 -348z" />
    <glyph glyph-name="percent" unicode="%" horiz-adv-x="1802" 
d="M725 903q-114 -108 -270 -108q-159 0 -273 108q-112 109 -112 264q0 157 112 263q113 110 273 110q157 0 270 -110q113 -107 113 -263q0 -154 -113 -264zM440 0h-204l1114 1513h206zM455 1389q-96 0 -160 -64t-64 -158t65 -158.5t159 -64.5t158.5 64.5t64.5 158.5
t-64.5 158t-158.5 64zM963 344q0 155 112 264q114 111 273 111q158 0 272 -111q115 -112 115 -264q0 -151 -115 -260t-272 -109q-158 0 -273 109q-112 106 -112 260zM1348 125q97 0 161 62.5t64 156.5q0 97 -64 162t-161 65q-94 0 -159 -65.5t-65 -161.5q0 -92 65.5 -155.5
t158.5 -63.5z" />
    <glyph glyph-name="ampersand" unicode="&#x26;" horiz-adv-x="1429" 
d="M1178 328l245 -215l-108 -127l-248 219q-228 -225 -487 -225q-209 0 -353 129q-143 131 -143 315q0 279 278 442q-90 131 -90 283q0 158 117 272q118 115 281 115q141 0 245 -90q105 -88 105 -225q0 -150 -119 -242q-91 -70 -250 -145l-33 -15q40 -38 117 -104l316 -277
q67 81 147 213l131 -102q-60 -106 -151 -221zM666 1391q-93 0 -157.5 -69t-64.5 -171q0 -118 64 -209q194 88 246 129q88 64 88 150q0 72 -50.5 121t-125.5 49zM600 147q171 0 342 168l-356 316q-82 73 -117 108q-190 -123 -190 -305q0 -121 90 -205q91 -82 231 -82z" />
    <glyph glyph-name="quotesingle" unicode="'" horiz-adv-x="536" 
d="M272 913h-182l168 600h238z" />
    <glyph glyph-name="parenleft" unicode="(" horiz-adv-x="800" 
d="M784 -303l-84 -148q-289 152 -456 435q-160 275 -160 618q0 346 161 620.5t457 434.5l82 -148q-487 -324 -487 -907q0 -581 487 -905z" />
    <glyph glyph-name="parenright" unicode=")" horiz-adv-x="800" 
d="M98 -451l-82 148q488 325 488 905q0 582 -488 907l82 148q296 -160 457.5 -434.5t161.5 -620.5t-161.5 -620.5t-457.5 -432.5z" />
    <glyph glyph-name="asterisk" unicode="*" horiz-adv-x="933" 
d="M469 1036l-193 -241l-118 96l194 225l-274 123l67 137l252 -127l-6 299h152l-4 -299l254 127l61 -137l-270 -123l192 -225l-119 -96z" />
    <glyph glyph-name="plus" unicode="+" horiz-adv-x="1097" 
d="M643 807h385v-184h-385v-387l-184 -3v390h-389v184h389v387h184v-387z" />
    <glyph glyph-name="comma" unicode="," horiz-adv-x="495" 
d="M244 221q62 0 101.5 -42.5t39.5 -108.5q0 -175 -254 -338l-63 88q125 93 151 135q6 6 14 22h-8q-47 0 -80.5 34.5t-33.5 82.5q0 51 39.5 89t93.5 38z" />
    <glyph glyph-name="hyphen" unicode="-" horiz-adv-x="1060" 
d="M926 475h-791v184h791v-184z" />
    <glyph glyph-name="period" unicode="." horiz-adv-x="475" 
d="M106 100q0 54 38 90.5t94 36.5t93.5 -36.5t37.5 -90.5q0 -57 -37.5 -95t-93.5 -38t-94 38t-38 95z" />
    <glyph glyph-name="slash" unicode="/" horiz-adv-x="1243" 
d="M233 -252h-192l967 1942h192z" />
    <glyph glyph-name="zero" unicode="0" horiz-adv-x="1390" 
d="M696 -25q-155 0 -274.5 68t-188.5 188q-129 229 -129 527q0 297 129 526q69 120 188.5 188t274.5 68q127 0 229 -46.5t168 -122.5t110.5 -179.5t63.5 -211t19 -222.5t-19 -223t-63.5 -211t-110.5 -179.5t-168 -123t-229 -46.5zM1079 758q0 258 -94 424q-94 168 -289 168
q-194 0 -288 -168q-95 -167 -95 -424q0 -259 95 -426q94 -166 288 -166q195 0 289 166t94 426z" />
    <glyph glyph-name="one" unicode="1" horiz-adv-x="790" 
d="M8 1153l428 360h162v-1513h-203v1241l-274 -229z" />
    <glyph glyph-name="two" unicode="2" horiz-adv-x="1144" 
d="M813 653l-422 -465h651v-188h-944v170l486 520q131 136 186 224t55 182q0 112 -78 184t-196 72q-189 0 -367 -172l-112 145q218 215 483 215q207 0 338 -125t131 -330q0 -199 -211 -432z" />
    <glyph glyph-name="three" unicode="3" horiz-adv-x="1134" 
d="M508 -25q-244 0 -465 150l92 166q201 -127 371 -127q140 0 223.5 71t83.5 187q0 117 -87 190.5t-224 73.5h-187v182h185q125 0 204.5 68.5t79.5 177.5q0 108 -76 173t-194 65q-158 0 -332 -133l-104 143q82 82 203.5 130t248.5 48q204 0 334 -115q129 -114 129 -284
q0 -122 -72 -215.5t-190 -130.5v-9q136 -31 215.5 -132t79.5 -238q0 -194 -145 -318q-144 -123 -373 -123z" />
    <glyph glyph-name="four" unicode="4" horiz-adv-x="1216" 
d="M963 559h170v-178h-170v-381h-197v381h-705l-43 123l828 1009h117v-954zM766 1143l-477 -584h477v584z" />
    <glyph glyph-name="five" unicode="5" horiz-adv-x="1171" 
d="M584 987q219 0 362 -143q146 -143 146 -359q0 -220 -152 -366q-150 -144 -385 -144q-266 0 -485 183l96 159q184 -153 381 -153q148 0 244 90q94 91 94 229q0 137 -92 226q-92 92 -234 92q-163 0 -278 -121l-136 78l86 755h758v-182h-600l-51 -403q115 59 246 59z" />
    <glyph glyph-name="six" unicode="6" horiz-adv-x="1259" 
d="M655 -18q-267 0 -407 204q-142 207 -142 525q0 128 23.5 247.5t74 225.5t123 185t177 125t229.5 46q230 0 387 -127l-86 -153q-132 102 -289 102q-89 1 -164 -38t-125 -102t-85.5 -144t-51 -162.5t-14.5 -159.5v-8q48 104 153 166.5t238 62.5q204 0 340 -139
q135 -138 135 -351q0 -217 -145 -362q-143 -143 -371 -143zM657 164q135 0 224 92q92 95 92 231q0 134 -90 224q-88 88 -221 88q-136 0 -226 -90t-90 -224q0 -133 90 -229q89 -92 221 -92z" />
    <glyph glyph-name="seven" unicode="7" horiz-adv-x="1030" 
d="M43 1331v182h952v-120l-589 -1393h-220l578 1331h-721z" />
    <glyph glyph-name="eight" unicode="8" horiz-adv-x="1280" 
d="M641 -25q-241 0 -391 123q-152 125 -152 310q0 128 81 235t216 158v4q-109 51 -171 141t-62 197q0 169 133 284q131 113 346 113q213 0 344 -113q133 -115 133 -284q0 -108 -62 -197.5t-173 -140.5v-6q136 -49 217.5 -156t81.5 -235q0 -185 -152 -310
q-150 -123 -389 -123zM922 1124q0 106 -78.5 175t-202.5 69q-128 0 -207.5 -68.5t-79.5 -175.5q0 -104 79 -172.5t206 -68.5t205 68.5t78 172.5zM641 154q149 0 243.5 78.5t94.5 201.5q0 120 -93 196.5t-245 76.5q-154 0 -248 -76.5t-94 -196.5q0 -123 95 -201.5t247 -78.5z
" />
    <glyph glyph-name="nine" unicode="9" horiz-adv-x="1253" 
d="M604 1540q264 0 402 -203q139 -201 139 -534q0 -133 -21.5 -253t-69 -226t-117 -183t-172.5 -121.5t-230 -44.5q-243 0 -394 127l78 158q141 -106 309 -106q89 0 161 34t121 91.5t82 136.5t47.5 166.5t14.5 183.5q-52 -100 -157 -161.5t-236 -61.5q-204 0 -340 139
q-135 138 -135 350q0 220 145 365q143 143 373 143zM911 1034q0 136 -90 232q-88 94 -221 94q-137 0 -225 -94q-90 -93 -90 -234q0 -137 88 -225t223 -88q133 0 223 90q92 89 92 225z" />
    <glyph glyph-name="colon" unicode=":" horiz-adv-x="534" 
d="M135 856q0 54 37.5 90.5t93.5 36.5t93.5 -36.5t37.5 -90.5q0 -57 -37.5 -95t-93.5 -38t-93.5 38t-37.5 95zM135 100q0 54 37.5 90.5t93.5 36.5t93.5 -36.5t37.5 -90.5q0 -57 -37.5 -95t-93.5 -38t-93.5 38t-37.5 95z" />
    <glyph glyph-name="semicolon" unicode=";" horiz-adv-x="587" 
d="M170 854q0 54 37.5 90.5t93.5 36.5t94.5 -36.5t38.5 -90.5q0 -57 -38.5 -95t-94.5 -38t-93.5 38t-37.5 95zM295 221q62 0 101.5 -42.5t39.5 -108.5q0 -175 -254 -338l-63 88q125 93 151 135q8 8 15 22h-9q-47 0 -80.5 34.5t-33.5 82.5q0 51 39.5 89t93.5 38z" />
    <glyph glyph-name="less" unicode="&#x3c;" horiz-adv-x="1171" 
d="M1022 328v-207l-952 469v178l952 469v-205l-743 -354z" />
    <glyph glyph-name="equal" unicode="=" horiz-adv-x="1232" 
d="M1090 762h-947v176h947v-176zM1090 403h-947v177h947v-177z" />
    <glyph glyph-name="greater" unicode="&#x3e;" horiz-adv-x="1118" 
d="M1057 590l-930 -496v207l682 352l-682 351v206l930 -497v-123z" />
    <glyph glyph-name="question" unicode="?" horiz-adv-x="1046" 
d="M537 342h-185v150q0 59 22.5 112t58.5 94t80 80.5t88 78t80 77.5t58.5 88.5t22.5 103.5q0 108 -78.5 177t-196.5 69q-165 0 -311 -162l-121 138q83 95 201.5 151.5t243.5 56.5q190 0 323 -118q135 -120 135 -305q0 -90 -41 -172t-108 -142q-23 -21 -73 -62.5t-77 -66.5
t-59.5 -61t-47.5 -70.5t-15 -69.5v-147zM313 109q0 54 38.5 90.5t94.5 36.5q54 0 91.5 -36.5t37.5 -90.5q0 -57 -37 -95.5t-92 -38.5q-56 0 -94.5 38.5t-38.5 95.5z" />
    <glyph glyph-name="at" unicode="@" horiz-adv-x="1994" 
d="M1264 899v102h157v-563q0 -68 32.5 -109.5t82.5 -41.5q94 0 158 108q67 107 67 275q0 285 -217 487q-215 203 -524 203q-318 -3 -535 -227q-219 -227 -219 -549q0 -320 230 -547t567 -227q322 0 569 200l84 -129q-122 -101 -293 -162q-180 -67 -374 -67q-191 -4 -370 72
t-308.5 203t-205 300t-71.5 355q0 385 271 659q272 275 651 275q184 0 352.5 -68.5t289.5 -183.5t193 -270.5t72 -323.5q0 -228 -121 -379q-122 -152 -293 -152q-90 0 -151.5 45.5t-79.5 116.5q-54 -75 -141 -118.5t-185 -43.5q-173 0 -297 127q-120 129 -120 318t122 317
q125 131 306 131q192 0 301 -133zM1262 582q0 129 -80 215q-76 88 -199 88q-120 0 -203 -86q-80 -83 -80 -213q0 -128 78 -215q81 -84 201 -84t201 84q82 85 82 211z" />
    <glyph glyph-name="A" unicode="A" horiz-adv-x="1380" 
d="M1354 0h-224l-153 393h-576l-153 -393h-223l612 1513h111zM907 586l-217 571l-219 -571h436z" />
    <glyph glyph-name="B" unicode="B" horiz-adv-x="1376" 
d="M999 827q136 -37 210.5 -144.5t74.5 -248.5q0 -177 -125 -305q-123 -129 -344 -129h-625v1513h598q198 0 306 -114q110 -113 110 -264q0 -103 -56 -188t-149 -120zM762 1323h-369v-422h363q109 0 174 64.5t65 156.5q0 83 -64 142t-169 59zM393 193h389q136 0 211 75
q80 77 80 181q0 113 -80.5 189.5t-218.5 76.5h-381v-522z" />
    <glyph glyph-name="C" unicode="C" horiz-adv-x="1589" 
d="M872 -23q-324 0 -553 218q-225 217 -225 557q0 345 230 565q229 223 555 223q205 0 381 -92q170 -86 272 -240l-152 -127q-193 260 -497 260q-243 0 -410 -167q-168 -168 -168 -424q0 -250 164 -414q165 -162 412 -162q151 0 282.5 67.5t225.5 188.5l147 -125
q-108 -151 -283.5 -239.5t-380.5 -88.5z" />
    <glyph glyph-name="D" unicode="D" horiz-adv-x="1552" 
d="M733 0h-543v1513h564q322 0 508 -204q188 -206 188 -555t-193 -551q-191 -203 -524 -203zM395 1319v-1124h346q232 0 365 157q131 158 131 408q0 246 -131 401q-134 158 -365 158h-346z" />
    <glyph glyph-name="E" unicode="E" horiz-adv-x="1247" 
d="M1133 0h-943v1513h943v-194h-738v-453h682v-194h-682v-477h738v-195z" />
    <glyph glyph-name="F" unicode="F" horiz-adv-x="1173" 
d="M395 0h-205v1513h926v-198h-721v-449h629v-198h-629v-668z" />
    <glyph glyph-name="G" unicode="G" horiz-adv-x="1662" 
d="M868 -23q-333 0 -555 222q-219 222 -219 557q0 341 230 561q229 223 557 223q188 0 357 -76t273 -202l-145 -134q-192 213 -483 213q-246 0 -414 -165q-166 -166 -166 -422q0 -250 166 -416q167 -164 408 -164q134 0 262 57t223 156v301h-506v189h698v-580
q-276 -320 -686 -320z" />
    <glyph glyph-name="H" unicode="H" horiz-adv-x="1552" 
d="M397 0h-207v1513h207v-639h760v639h205v-1513h-205v678h-760v-678z" />
    <glyph glyph-name="I" unicode="I" horiz-adv-x="585" 
d="M190 0v1513h205v-1513h-205z" />
    <glyph glyph-name="J" unicode="J" horiz-adv-x="1142" 
d="M461 -25q-263 0 -434 195l125 149q122 -149 309 -149q136 0 218.5 87.5t82.5 244.5v1011h205v-1021q0 -245 -142 -381q-139 -136 -364 -136z" />
    <glyph glyph-name="K" unicode="K" horiz-adv-x="1363" 
d="M1389 0h-254l-533 664l-207 -244v-420h-205v1513h205v-823l695 823h243l-598 -712z" />
    <glyph glyph-name="L" unicode="L" horiz-adv-x="1234" 
d="M1208 0h-1018v1513h205v-1314h813v-199z" />
    <glyph glyph-name="M" unicode="M" horiz-adv-x="1882" 
d="M393 0h-203v1513h99l653 -960l649 960h101v-1513h-205v1022l-520 -764h-54l-520 764v-1022z" />
    <glyph glyph-name="N" unicode="N" horiz-adv-x="1597" 
d="M1204 434v1079h203v-1513h-107l-907 1073v-1073h-203v1513h93z" />
    <glyph glyph-name="O" unicode="O" horiz-adv-x="1751" 
d="M92 748q0 331 230 561q231 231 552 231q322 0 553 -231q232 -232 232 -553t-232 -553q-231 -228 -559 -228q-329 0 -553 224q-223 223 -223 549zM1446 754q0 248 -166 417q-165 168 -406 168q-236 0 -403 -170q-166 -169 -166 -415q0 -244 164 -414q163 -166 405 -166
q243 0 406 166q166 166 166 414z" />
    <glyph glyph-name="P" unicode="P" horiz-adv-x="1245" 
d="M190 1513h506q238 0 365 -139q125 -137 125 -327q0 -195 -131 -332q-132 -135 -377 -135h-283v-580h-205v1513zM395 770h287q142 0 220.5 80t78.5 201q0 115 -73 192.5t-199 77.5h-314v-551z" />
    <glyph glyph-name="Q" unicode="Q" horiz-adv-x="1751" 
d="M1454 -82q90 0 180 33l25 -172q-95 -39 -217 -39q-284 0 -504 237q-14 -2 -61 -2q-325 0 -555 230t-230 553q0 321 230 551q231 231 555 231t553 -229t229 -553q0 -247 -137 -445q-137 -195 -359 -284q132 -111 291 -111zM305 754q0 -248 166 -414t406 -166
q242 0 405 166q166 166 166 414t-166 417q-162 168 -405 168q-241 0 -406 -168q-166 -169 -166 -417z" />
    <glyph glyph-name="R" unicode="R" horiz-adv-x="1312" 
d="M1249 0h-252l-393 614h-209v-614h-205v1513h515q227 0 350 -135q125 -131 125 -315q0 -154 -94 -274.5t-259 -157.5zM707 1319h-312v-512h271q148 0 226.5 72t78.5 186q0 112 -70 183t-194 71z" />
    <glyph glyph-name="S" unicode="S" horiz-adv-x="1155" 
d="M571 -25q-168 0 -306 81.5t-210 230.5l152 125q60 -119 154.5 -180.5t207.5 -61.5q126 0 202.5 65t76.5 164q0 121 -158 211q-45 23 -155 74t-170 86q-228 144 -228 360q0 175 125 291q125 119 332 119q282 0 444 -223l-137 -131q-122 162 -305 162q-104 0 -172 -57
t-68 -148q0 -119 129 -195q58 -34 177 -90q121 -56 190 -96q219 -133 219 -352q0 -195 -143 -314q-142 -121 -357 -121z" />
    <glyph glyph-name="T" unicode="T" horiz-adv-x="1159" 
d="M477 0v1315h-448v198h1101v-198h-448v-1315h-205z" />
    <glyph glyph-name="U" unicode="U" horiz-adv-x="1445" 
d="M174 510v1003h205v-966q0 -180 89.5 -276.5t254.5 -96.5q162 0 252 98t90 275v966h207v-1003q0 -247 -152 -393q-150 -144 -397 -144t-397 144q-152 146 -152 393z" />
    <glyph glyph-name="V" unicode="V" horiz-adv-x="1449" 
d="M729 352l477 1161h224l-644 -1513h-116l-654 1513h234z" />
    <glyph glyph-name="W" unicode="W" horiz-adv-x="2107" 
d="M657 0h-114l-520 1513h217l364 -1107l402 1107h92l411 -1107l359 1107h215l-516 -1513h-113l-399 1130z" />
    <glyph glyph-name="X" unicode="X" horiz-adv-x="1284" 
d="M262 0h-246l504 768l-479 745h238l364 -589l369 589h245l-495 -745l500 -768h-238l-381 600z" />
    <glyph glyph-name="Y" unicode="Y" horiz-adv-x="1308" 
d="M1047 1513h227l-518 -968v-545h-205v545l-512 968h227l387 -765z" />
    <glyph glyph-name="Z" unicode="Z" horiz-adv-x="1265" 
d="M1196 0h-1133v127l824 1194h-787v192h1074v-129l-816 -1191h838v-193z" />
    <glyph glyph-name="bracketleft" unicode="[" horiz-adv-x="757" 
d="M723 -465h-545v2126h545v-162h-342v-1802h342v-162z" />
    <glyph glyph-name="backslash" unicode="\" horiz-adv-x="1239" 
d="M236 1690l964 -1942h-192l-965 1942h193z" />
    <glyph glyph-name="bracketright" unicode="]" horiz-adv-x="757" 
d="M578 -465h-543v162h342v1802h-342v162h543v-2126z" />
    <glyph glyph-name="asciicircum" unicode="^" horiz-adv-x="1064" 
d="M281 883h-199l395 637h115l391 -637h-195l-253 434z" />
    <glyph glyph-name="underscore" unicode="_" horiz-adv-x="1191" 
d="M1192 -348h-1192v178h1192v-178z" />
    <glyph glyph-name="grave" unicode="`" horiz-adv-x="862" 
d="M322 1612l120 -342h-170l-190 342h240z" />
    <glyph glyph-name="a" unicode="a" horiz-adv-x="1361" 
d="M1020 938v160h188v-1098h-188v156q-148 -183 -387 -183q-238 0 -393 168q-156 169 -156 416t156 406q154 161 393 161q235 0 387 -186zM1032 551q0 165 -104 278q-106 115 -273 115t-270 -115q-102 -114 -102 -280q0 -167 102 -281t270 -114t273 114q104 113 104 283z
" />
    <glyph glyph-name="b" unicode="b" horiz-adv-x="1368" 
d="M735 1124q234 0 389 -168q158 -169 158 -407t-158 -410q-156 -166 -391 -166q-238 0 -385 187v-160h-196v1550h196v-618q149 192 387 192zM711 158q168 0 268 112q104 113 104 281q0 163 -104 276q-101 113 -268 113q-170 0 -271 -113q-100 -112 -100 -276
q0 -169 100 -281t271 -112z" />
    <glyph glyph-name="c" unicode="c" horiz-adv-x="1226" 
d="M664 -25q-256 0 -418 162t-162 412t164 414q164 161 426 161q162 0 298 -78t199 -208l-161 -95q-56 94 -144.5 147.5t-191.5 53.5q-168 0 -281 -113q-110 -113 -110 -282q0 -167 108 -281q106 -112 273 -112q103 0 198 55t142 141l163 -94q-70 -131 -204 -205
q-141 -78 -299 -78z" />
    <glyph glyph-name="d" unicode="d" horiz-adv-x="1366" 
d="M1018 938v612h196v-1550h-196v154q-144 -181 -381 -181q-241 0 -397 166q-156 169 -156 412q0 239 156 405q155 168 393 168q236 0 385 -186zM1032 551q0 165 -104 278q-103 115 -271 115q-166 0 -272 -115q-102 -114 -102 -278q0 -169 102 -283q105 -114 272 -114
q169 0 271 114q104 113 104 283z" />
    <glyph glyph-name="e" unicode="e" 
d="M1171 569q0 -21 -6 -100h-874q26 -146 122.5 -229.5t262.5 -83.5q98 0 203 33.5t180 89.5l84 -150q-86 -67 -213 -110.5t-258 -43.5q-120 0 -219.5 33t-166 88.5t-113 130t-67 156.5t-20.5 170q0 245 154 410q154 161 401 161q235 0 381 -149q149 -149 149 -406zM291 639
h678q-7 141 -99 226t-229 85q-134 0 -229.5 -86.5t-120.5 -224.5z" />
    <glyph glyph-name="f" unicode="f" horiz-adv-x="808" 
d="M678 1395q-238 0 -238 -230v-67h351v-168h-351v-930h-196v930h-191v168h191v71q0 192 111 300t298 108q131 0 246 -59l-59 -162q-91 39 -162 39z" />
    <glyph glyph-name="g" unicode="g" horiz-adv-x="1366" 
d="M1020 954v144h194v-985q0 -266 -159 -422q-161 -158 -428 -158q-268 0 -486 156l92 155q180 -133 392 -133q180 0 288 105q107 101 107 264v90q-147 -172 -385 -172t-393 162q-158 166 -158 403q0 242 162 400q161 161 399 161q228 0 375 -170zM389 285
q108 -111 268 -111q161 0 269 111q106 109 106 276q0 169 -106 275q-107 110 -269 110q-161 0 -268 -110q-106 -106 -106 -275q0 -167 106 -276z" />
    <glyph glyph-name="h" unicode="h" horiz-adv-x="1261" 
d="M348 0h-196v1550h190v-587q52 75 144.5 119t203.5 44q183 0 307 -118q125 -119 125 -342v-666h-194v610q0 158 -76 246t-203 88q-133 0 -217 -93t-84 -241v-610z" />
    <glyph glyph-name="i" unicode="i" horiz-adv-x="501" 
d="M254 1253q-62 0 -102.5 40.5t-40.5 101.5q0 60 40.5 98.5t102.5 38.5q57 0 98 -40t41 -97q0 -61 -40.5 -101.5t-98.5 -40.5zM348 1098v-1098h-196v1098h196z" />
    <glyph glyph-name="j" unicode="j" horiz-adv-x="550" 
d="M301 1253q-62 0 -102.5 40.5t-40.5 101.5q0 60 40.5 98.5t102.5 38.5q57 0 98 -40t41 -97q0 -61 -40.5 -101.5t-98.5 -40.5zM35 -469q-124 0 -195 45l39 164q82 -29 133 -29q189 0 189 226v1161h196v-1149q0 -200 -96.5 -309t-265.5 -109z" />
    <glyph glyph-name="k" unicode="k" horiz-adv-x="1116" 
d="M1124 0h-258l-413 512l-105 -94v-418h-196v1550h196v-897l492 445h266l-514 -461z" />
    <glyph glyph-name="l" unicode="l" horiz-adv-x="501" 
d="M348 1550v-1550h-196v1550h196z" />
    <glyph glyph-name="m" unicode="m" horiz-adv-x="1994" 
d="M1419 1126q200 0 320 -129q119 -125 119 -344v-653h-197v623q0 153 -70 237t-194 84q-130 0 -211.5 -90t-81.5 -236v-618h-195v618q0 153 -71 239.5t-195 86.5q-130 0 -212.5 -91t-82.5 -239v-614h-196v1098h192v-162q50 91 137 141t195 49q112 0 206.5 -54.5
t137.5 -149.5q56 94 163 149t236 55z" />
    <glyph glyph-name="n" unicode="n" horiz-adv-x="1265" 
d="M348 0h-196v1098h192v-156q105 184 348 184q185 0 309 -118q125 -119 125 -342v-666h-194v610q0 157 -77 245.5t-204 88.5q-134 0 -219 -94q-84 -96 -84 -242v-608z" />
    <glyph glyph-name="o" unicode="o" horiz-adv-x="1320" 
d="M662 -27q-253 0 -416 166q-162 168 -162 412q0 242 162 407q162 168 416 168q249 0 411 -168q164 -170 164 -407q0 -242 -164 -412q-163 -166 -411 -166zM1040 551q0 163 -110 276q-111 117 -268 117q-158 0 -269 -117q-110 -113 -110 -276q0 -165 110 -281t269 -116
q158 0 268 116t110 281z" />
    <glyph glyph-name="p" unicode="p" horiz-adv-x="1372" 
d="M739 1124q236 0 391 -168q158 -172 158 -407q0 -238 -158 -410q-156 -166 -393 -166q-239 0 -389 187v-613h-196v1551h196v-166q152 192 391 192zM1092 551q0 164 -105 278q-106 115 -272 115q-167 0 -273 -115q-102 -114 -102 -278q0 -169 102 -283q105 -114 273 -114
q167 0 272 114t105 283z" />
    <glyph glyph-name="q" unicode="q" horiz-adv-x="1372" 
d="M1024 934v164h195v-1551h-197v611q-150 -185 -389 -185q-237 0 -393 166q-156 169 -156 412q0 236 158 405q155 168 391 168q238 0 391 -190zM1032 551q0 165 -104 278q-103 115 -271 115q-166 0 -272 -115q-102 -114 -102 -278q0 -169 102 -283q105 -114 272 -114
q169 0 271 114q104 113 104 283z" />
    <glyph glyph-name="r" unicode="r" horiz-adv-x="796" 
d="M348 0h-196v1098h186v-162q94 190 315 190q60 0 129 -16l-18 -190q-58 18 -115 18q-135 0 -218 -92t-83 -264v-582z" />
    <glyph glyph-name="s" unicode="s" horiz-adv-x="929" 
d="M459 -25q-127 0 -237 61.5t-171 176.5l142 109q46 -85 119.5 -130t152.5 -45q86 0 140 44t54 108q0 88 -100 139q-38 20 -137 62t-135 61q-168 91 -168 266q0 135 98 220q98 88 260 88q107 0 200.5 -45t147.5 -129l-125 -119q-89 127 -235 127q-72 0 -115 -38t-43 -95
q0 -85 92 -129l121 -54q101 -41 148 -67q186 -94 186 -277q0 -143 -111 -237q-114 -97 -284 -97z" />
    <glyph glyph-name="t" unicode="t" horiz-adv-x="874" 
d="M795 217l73 -151q-122 -93 -293 -93q-172 0 -261 107t-89 305v545h-194v168h196v389h193v-389h389v-168h-389v-559q0 -217 178 -217q97 0 197 63z" />
    <glyph glyph-name="u" unicode="u" horiz-adv-x="1218" 
d="M608 -27q-215 0 -343 127t-128 342v656h197v-649q0 -136 73 -214.5t201 -78.5q130 0 203.5 78.5t73.5 214.5v649h194v-656q0 -220 -125.5 -344.5t-345.5 -124.5z" />
    <glyph glyph-name="v" unicode="v" horiz-adv-x="1153" 
d="M580 276l331 822h217l-483 -1096h-137l-483 1096h219z" />
    <glyph glyph-name="w" unicode="w" horiz-adv-x="1720" 
d="M561 2h-162l-376 1096h206l260 -824l299 824h138l311 -824l250 824h205l-367 -1096h-164l-303 821z" />
    <glyph glyph-name="x" unicode="x" horiz-adv-x="1040" 
d="M635 555l377 -555h-228l-266 412l-266 -412h-238l387 569l-348 529h228l243 -385l248 385h232z" />
    <glyph glyph-name="y" unicode="y" horiz-adv-x="1136" 
d="M594 274l295 824h217l-461 -1221q-68 -182 -159 -263t-222 -81q-106 0 -176 43l25 172q73 -33 133 -33q135 0 217 193l41 96l-477 1094h227z" />
    <glyph glyph-name="z" unicode="z" horiz-adv-x="1040" 
d="M952 981l-624 -813h643v-168h-910v125l627 803h-590v168h854v-115z" />
    <glyph glyph-name="braceleft" unicode="{" horiz-adv-x="759" 
d="M248 598v-8q95 -31 158 -106.5t63 -174.5q0 -80 -8 -213t-8 -213q0 -192 194 -192h68v-164h-88q-363 0 -363 360q0 99 8 230q9 150 9 196q0 111 -78 158q-56 34 -158 55v136q61 14 90.5 23.5t65.5 31.5q80 48 80 157q0 47 -9 197q-8 133 -8 234q0 177 92 266.5t271 89.5
h88v-164h-68q-194 0 -194 -190q0 -82 8 -215t8 -211q0 -101 -63.5 -178.5t-157.5 -104.5z" />
    <glyph glyph-name="bar" unicode="|" horiz-adv-x="534" 
d="M354 -367h-176v2102h176v-2102z" />
    <glyph glyph-name="braceright" unicode="}" horiz-adv-x="759" 
d="M512 590v8q-94 27 -157.5 104.5t-63.5 178.5q0 78 8 211t8 215q0 190 -194 190h-68v164h88q178 0 270.5 -90t92.5 -266q0 -84 -9 -234q-6 -150 -6 -197q0 -107 78 -157q35 -21 65.5 -31t92.5 -24v-136q-58 -12 -91.5 -22.5t-68.5 -32.5q-76 -48 -76 -158q0 -46 6 -196
q9 -147 9 -230q0 -177 -93 -268.5t-268 -91.5h-90v164h68q194 0 194 192q0 80 -8 213t-8 213q0 99 63 174.5t158 106.5z" />
    <glyph glyph-name="asciitilde" unicode="~" horiz-adv-x="1368" 
d="M897 512q-101 0 -238 70q-135 69 -196 69t-106 -27.5t-101 -95.5l-125 93q117 202 344 202q103 0 238 -69q137 -70 196 -70q64 0 107.5 27.5t99.5 97.5l127 -94q-123 -203 -346 -203z" />
    <glyph glyph-name="exclamdown" unicode="&#xa1;" horiz-adv-x="534" 
d="M291 1077q55 0 92 -38t37 -95q0 -54 -37.5 -90.5t-91.5 -36.5q-57 0 -95 36.5t-38 90.5q0 57 38 95t95 38zM180 -465l8 1149h197l12 -1149h-217z" />
    <glyph glyph-name="cent" unicode="&#xa2;" horiz-adv-x="1249" 
d="M743 938v-774q85 17 157 68t110 120l164 -94q-60 -112 -175.5 -186.5t-255.5 -91.5v-164h-139v161q-225 20 -373 181q-141 156 -141 391q0 233 141 389q146 158 373 182v170h139v-170q143 -14 260.5 -89.5t174.5 -192.5l-162 -95q-103 168 -273 195zM289 549
q0 -151 88 -258q88 -108 227 -129v776q-141 -26 -228 -133.5t-87 -255.5z" />
    <glyph glyph-name="sterling" unicode="&#xa3;" horiz-adv-x="1169" 
d="M350 188h733v-188h-970v162q86 65 143 176q59 115 59 221q0 58 -20 125h-184v168h125q-56 157 -56 250q3 187 133 311t330 127q135 1 250.5 -63t183.5 -177l-151 -108q-43 73 -115.5 117.5t-153.5 44.5q-117 0 -193.5 -78t-76.5 -195q0 -87 53 -229h496v-168h-438
q21 -82 18 -152q-1 -95 -47 -188t-119 -156z" />
    <glyph glyph-name="currency" unicode="&#xa4;" horiz-adv-x="1302" 
d="M1112 752q0 -143 -80 -258l148 -144l-109 -106l-143 139q-122 -94 -281 -94q-149 0 -274 90l-142 -135l-106 106l141 139q-82 119 -82 263q0 153 92 280l-151 150l106 106l154 -149q119 82 262 82q144 0 268 -86l156 153l109 -106l-156 -156q88 -119 88 -274zM944 756
q0 130 -86 219q-85 88 -211 88t-211 -88q-84 -90 -84 -219t84 -219q88 -91 211 -91t211 91q86 89 86 219z" />
    <glyph glyph-name="yen" unicode="&#xa5;" horiz-adv-x="1312" 
d="M1032 1513h219l-407 -759h270v-152h-352l-6 -12v-105h358v-153h-358v-332h-203v332h-363v153h363v109l-4 8h-359v152h277l-404 759h220l374 -725z" />
    <glyph glyph-name="brokenbar" unicode="&#xa6;" horiz-adv-x="534" 
d="M354 889h-176v846h176v-846zM178 479h176v-846h-176v846z" />
    <glyph glyph-name="section" unicode="&#xa7;" horiz-adv-x="1150" 
d="M1073 434q0 -85 -40.5 -156t-112.5 -112q59 -89 59 -205q0 -171 -123 -285q-120 -114 -315 -114q-278 0 -449 219l137 129q131 -162 308 -162q108 0 173.5 60.5t65.5 150.5q0 107 -100 178q-59 46 -96 66q-12 7 -29.5 16t-44.5 23t-45 24l-139 74q-42 27 -111 80
q-123 100 -123 244q0 84 41 154.5t113 111.5q-62 89 -62 209q0 171 121 286q122 113 317 113q258 0 418 -207l-139 -121q-121 142 -268 142q-110 0 -178 -60.5t-68 -148.5q0 -53 22 -94.5t76 -81.5q60 -44 90 -62l121 -65l35 -19q91 -49 137 -78t97 -75q112 -93 112 -234z
M553 434q197 -107 242 -141q75 40 75 121q0 69 -55 120.5t-184 116.5q-207 106 -269 154q-73 -37 -73 -121q0 -43 18 -75t64 -66q54 -38 78 -51q5 -3 22 -12.5t38 -21.5t44 -24z" />
    <glyph glyph-name="dieresis" unicode="&#xa8;" horiz-adv-x="1015" 
d="M244 1290q-62 0 -103 40.5t-41 103.5q0 57 41.5 96t102.5 39q57 0 97 -39t40 -96q0 -61 -40 -102.5t-97 -41.5zM508 1434q0 57 40.5 96t100.5 39t99.5 -39t39.5 -96q0 -62 -39.5 -103t-99.5 -41t-100.5 41.5t-40.5 102.5z" />
    <glyph glyph-name="copyright" unicode="&#xa9;" horiz-adv-x="1761" 
d="M92 756q0 321 232 553q231 231 557 231t557 -231t231 -553q0 -320 -231 -551q-230 -230 -557 -230t-557 230q-232 232 -232 551zM881 113q267 0 458 188q191 191 191 455q0 266 -191 454q-191 191 -458 191q-268 0 -459 -191q-189 -189 -189 -454q0 -264 191 -455
q191 -188 457 -188zM887 336q-176 0 -297 121q-121 124 -121 299q0 178 121 299t297 121q207 0 321 -150l-96 -80q-92 103 -225 103q-123 0 -201 -81.5t-78 -211.5q0 -129 78 -210t201 -81q143 0 227 96l92 -88q-116 -137 -319 -137z" />
    <glyph glyph-name="ordfeminine" unicode="&#xaa;" horiz-adv-x="843" 
d="M399 1507q142 0 228 -84.5t86 -234.5v-387h-123v76q-83 -95 -234 -95q-119 0 -190.5 65.5t-71.5 166.5q0 96 76 151.5t207 55.5q93 0 213 -21q-9 182 -201 182q-123 0 -203 -57l-49 105q103 77 262 77zM371 909q191 0 215 185q-84 20 -197 20q-75 0 -118.5 -26.5
t-43.5 -71.5q0 -49 39 -78t105 -29z" />
    <glyph glyph-name="guillemotleft" unicode="&#xab;" horiz-adv-x="1056" 
d="M569 180h-194l-291 416l291 416h194l-293 -416zM948 180h-196l-287 416l287 416h196l-291 -416z" />
    <glyph glyph-name="logicalnot" unicode="&#xac;" horiz-adv-x="1243" 
d="M918 561h-775v184h949v-434h-174v250z" />
    <glyph glyph-name="uni00AD" unicode="&#xad;" horiz-adv-x="1048" 
d="M915 582h-782v180h782v-180z" />
    <glyph glyph-name="registered" unicode="&#xae;" horiz-adv-x="1163" 
d="M233 1417q146 146 349 146q200 0 346 -146q145 -145 145 -346q0 -203 -145 -348q-143 -143 -346 -143q-206 0 -349 143t-143 348q0 203 143 346zM305 795q115 -115 277 -115q161 0 276 115t115 276q0 162 -115 277q-114 114 -276 114q-163 0 -277 -114
q-115 -115 -115 -277q0 -161 115 -276zM778 1159q0 -105 -94 -145l107 -185h-107l-98 168h-82v-168h-94v494h198q74 0 122 -46t48 -118zM586 1243h-82v-168h82q98 0 98 86q0 82 -98 82z" />
    <glyph glyph-name="overscore" unicode="&#xaf;" horiz-adv-x="964" 
d="M711 1325l-629 -2v176h629v-174z" />
    <glyph glyph-name="degree" unicode="&#xb0;" horiz-adv-x="743" 
d="M580 1190q-85 -82 -207 -82t-207 82q-86 83 -86 201q0 119 86 202q87 84 207 84t207 -84q86 -83 86 -202q0 -118 -86 -201zM532 1391q0 69 -46.5 116t-112.5 47t-113 -47t-47 -116q0 -67 47 -113.5t113 -46.5t112.5 46.5t46.5 113.5z" />
    <glyph glyph-name="plusminus" unicode="&#xb1;" horiz-adv-x="1222" 
d="M707 1378v-387h385v-186h-385v-385l-185 -2v387h-389v186h389v387h185zM1092 168h-959v178h959v-178z" />
    <glyph glyph-name="uni00B2" unicode="&#xb2;" horiz-adv-x="704" 
d="M500 1389l-207 -218h325v-133h-536v119l266 270q115 121 115 191q0 51 -35.5 83t-91.5 32q-92 0 -193 -93l-75 109q122 119 276 119q117 0 191.5 -69t74.5 -179q0 -112 -110 -231z" />
    <glyph glyph-name="uni00B3" unicode="&#xb3;" horiz-adv-x="677" 
d="M301 1026q-139 0 -266 80l61 115q117 -66 201 -66q71 0 111.5 32t40.5 87q0 54 -42.5 86.5t-111.5 32.5h-105v125h99q62 0 102.5 30t40.5 80t-37.5 79.5t-93.5 29.5q-82 0 -174 -68l-72 103q104 96 260 96q115 0 190 -62t75 -153q0 -66 -40 -116.5t-106 -70.5v-4
q78 -17 121 -70t43 -128q0 -104 -83.5 -171t-213.5 -67z" />
    <glyph glyph-name="acute" unicode="&#xb4;" horiz-adv-x="919" 
d="M252 1270h-170l121 342h239z" />
    <glyph glyph-name="paragraph" unicode="&#xb6;" horiz-adv-x="1351" 
d="M514 1503h731v-182h-141v-1737h-191v1737h-153v-1737h-191v1041h-59q-190 0 -320 127q-129 126 -129 315q0 185 129 311q131 125 324 125z" />
    <glyph glyph-name="middot" unicode="&#xb7;" horiz-adv-x="522" 
d="M131 100q0 54 37.5 90.5t93.5 36.5t93.5 -36.5t37.5 -90.5q0 -57 -37.5 -95t-93.5 -38t-93.5 38t-37.5 95z" />
    <glyph glyph-name="cedilla" unicode="&#xb8;" horiz-adv-x="645" 
d="M354 -98h17q90 0 150.5 -51.5t60.5 -137.5q0 -97 -71.5 -162t-195.5 -65q-106 0 -233 59l51 129q87 -43 166 -43q56 0 87.5 25.5t31.5 64.5q0 74 -107 74h-114l-19 45l80 201l152 -4z" />
    <glyph glyph-name="uni00B9" unicode="&#xb9;" horiz-adv-x="542" 
d="M37 1624l270 217h111v-803h-148v600l-155 -125z" />
    <glyph glyph-name="ordmasculine" unicode="&#xba;" horiz-adv-x="901" 
d="M86 1141q0 156 104 260q103 106 261 106q157 0 260 -106q104 -104 104 -260q0 -154 -104 -258q-106 -103 -260 -103q-155 0 -261 103q-104 104 -104 258zM449 903q103 0 171 68.5t68 171.5q0 104 -68 173.5t-171 69.5q-100 0 -167 -69.5t-67 -173.5q0 -103 67 -171.5
t167 -68.5z" />
    <glyph glyph-name="guillemotright" unicode="&#xbb;" horiz-adv-x="1056" 
d="M592 596l-287 -416h-196l290 416l-290 416h196zM973 596l-291 -416h-195l293 416l-293 416h195z" />
    <glyph glyph-name="onequarter" unicode="&#xbc;" horiz-adv-x="1757" 
d="M453 709h-150v600l-153 -123l-80 110l270 217h113v-804zM217 0l1184 1513h170l-1180 -1513h-174zM1581 317h90v-116h-90v-201h-129v201h-379l-31 84l439 526h100v-494zM1452 598l-235 -281h235v281z" />
    <glyph glyph-name="onehalf" unicode="&#xbd;" horiz-adv-x="1716" 
d="M455 709h-150v600l-153 -123l-80 110l270 217h113v-804zM170 0l1184 1513h172l-1180 -1513h-176zM1513 350l-206 -217h325v-133h-536v119l266 270q115 121 115 191q0 51 -35.5 82.5t-91.5 31.5q-93 0 -193 -92l-76 109q121 118 277 118q117 0 191.5 -68.5t74.5 -178.5
q0 -112 -111 -232z" />
    <glyph glyph-name="threequarters" unicode="&#xbe;" horiz-adv-x="1720" 
d="M307 827q71 0 111.5 32t40.5 87q0 54 -42.5 86.5t-111.5 32.5h-104v125h98q62 0 102.5 30t40.5 80t-37.5 79.5t-93.5 29.5q-82 0 -174 -68l-71 103q104 96 260 96q115 0 189.5 -61.5t74.5 -153.5q0 -65 -39.5 -115.5t-106.5 -70.5v-4q77 -17 120.5 -70t43.5 -129
q0 -104 -83.5 -171t-213.5 -67q-139 0 -266 80l61 115q117 -66 201 -66zM274 0l1184 1513h170l-1179 -1513h-175zM1413 811h100v-494h91v-116h-91v-201h-129v201h-378l-31 84zM1384 598l-235 -281h235v281z" />
    <glyph glyph-name="questiondown" unicode="&#xbf;" horiz-adv-x="1030" 
d="M721 946q0 -54 -38.5 -90.5t-94.5 -36.5q-54 0 -91.5 36.5t-37.5 90.5q0 57 37 95t92 38q56 0 94.5 -38t38.5 -95zM498 713h184v-150q0 -59 -22.5 -112t-58.5 -94.5t-80 -80.5t-88 -77.5t-80 -78t-58.5 -89t-22.5 -103.5q0 -108 78.5 -176.5t196.5 -68.5q166 0 311 161
l121 -137q-83 -96 -201 -152.5t-243 -56.5q-190 0 -324 119q-135 120 -135 305q0 89 40.5 170.5t106.5 140.5q25 22 75 64.5t77.5 67.5t60 61t47.5 70t15 69v148z" />
    <glyph glyph-name="Agrave" unicode="&#xc0;" horiz-adv-x="1380" 
d="M659 1970l123 -344h-172l-192 344h241zM1354 0h-224l-153 393h-576l-153 -393h-223l612 1513h111zM907 586l-217 571l-219 -571h436z" />
    <glyph glyph-name="Aacute" unicode="&#xc1;" horiz-adv-x="1380" 
d="M745 1968h242l-190 -344h-172zM1354 0h-224l-153 393h-576l-153 -393h-223l612 1513h111zM907 586l-217 571l-219 -571h436z" />
    <glyph glyph-name="Acircumflex" unicode="&#xc2;" horiz-adv-x="1380" 
d="M838 1622l-148 186l-147 -186h-211l289 338h141l289 -338h-213zM1354 0h-224l-153 393h-576l-153 -393h-223l612 1513h111zM907 586l-217 571l-219 -571h436z" />
    <glyph glyph-name="Atilde" unicode="&#xc3;" horiz-adv-x="1380" 
d="M545 1735q-75 0 -123 -97l-127 60q26 93 90.5 144.5t151.5 51.5q69 0 155 -45q89 -45 131 -45q75 0 119 92l123 -57q-24 -93 -88 -145t-150 -52q-65 0 -153 46q-89 47 -129 47zM1354 0h-224l-153 393h-576l-153 -393h-223l612 1513h111zM907 586l-217 571l-219 -571h436z
" />
    <glyph glyph-name="Adieresis" unicode="&#xc4;" horiz-adv-x="1380" 
d="M508 1651q-56 0 -93.5 37t-37.5 92q0 51 38 87t93 36q51 0 87 -36t36 -87q0 -55 -36 -92t-87 -37zM874 1651q-56 0 -92.5 36.5t-36.5 92.5q0 51 37.5 87t91.5 36t89.5 -35.5t35.5 -87.5q0 -56 -35.5 -92.5t-89.5 -36.5zM1354 0h-224l-153 393h-576l-153 -393h-223
l612 1513h111zM907 586l-217 571l-219 -571h436z" />
    <glyph glyph-name="Aring" unicode="&#xc5;" horiz-adv-x="1380" 
d="M698 1599q-103 0 -172 67t-69 165q0 97 69.5 164t171.5 67q101 0 168 -67q70 -67 70 -164q0 -98 -69 -165t-169 -67zM698 1942q-47 0 -79.5 -31.5t-32.5 -75.5q0 -49 32.5 -82t79.5 -33q45 0 77 33t32 82q0 43 -33 75t-76 32zM1354 0h-224l-153 393h-576l-153 -393h-223
l612 1513h111zM907 586l-217 571l-219 -571h436z" />
    <glyph glyph-name="AE" unicode="&#xc6;" horiz-adv-x="2078" 
d="M1964 1513v-194h-756v-453h695v-194h-695v-477h756v-195h-960v446h-531l-272 -446h-232l949 1513h1046zM1004 1319l-414 -680h414v680z" />
    <glyph glyph-name="Ccedilla" unicode="&#xc7;" horiz-adv-x="1589" 
d="M1389 430l147 -125q-100 -139 -260.5 -226t-349.5 -99l-31 -78h16q90 0 150.5 -51.5t60.5 -137.5q0 -97 -71 -162t-195 -65q-106 0 -233 59l51 129q87 -43 166 -43q55 0 86.5 25t31.5 65q0 74 -106 74h-115l-18 45l57 144q-297 35 -487 243q-195 213 -195 525
q0 345 230 565q229 223 555 223q205 0 381 -92q170 -86 272 -240l-152 -127q-193 260 -497 260q-243 0 -410 -167q-168 -168 -168 -424q0 -250 164 -414q165 -162 412 -162q151 0 282.5 67.5t225.5 188.5z" />
    <glyph glyph-name="Egrave" unicode="&#xc8;" horiz-adv-x="1247" 
d="M651 1970l123 -344h-172l-192 344h241zM1133 0h-943v1513h943v-194h-738v-453h682v-194h-682v-477h738v-195z" />
    <glyph glyph-name="Eacute" unicode="&#xc9;" horiz-adv-x="1247" 
d="M733 1624h-172l121 344h242zM1133 0h-943v1513h943v-194h-738v-453h682v-194h-682v-477h738v-195z" />
    <glyph glyph-name="Ecircumflex" unicode="&#xca;" horiz-adv-x="1247" 
d="M516 1622h-211l289 338h141l289 -338h-213l-147 186zM1133 0h-943v1513h943v-194h-738v-453h682v-194h-682v-477h738v-195z" />
    <glyph glyph-name="Edieresis" unicode="&#xcb;" horiz-adv-x="1247" 
d="M485 1651q-56 0 -93.5 37t-37.5 92q0 51 38 87t93 36q51 0 87 -36t36 -87q0 -55 -36 -92t-87 -37zM852 1651q-56 0 -92.5 36.5t-36.5 92.5q0 51 37.5 87t91.5 36t89.5 -35.5t35.5 -87.5q0 -56 -35.5 -92.5t-89.5 -36.5zM1133 0h-943v1513h943v-194h-738v-453h682v-194
h-682v-477h738v-195z" />
    <glyph glyph-name="Igrave" unicode="&#xcc;" horiz-adv-x="585" 
d="M264 1970l123 -344h-172l-192 344h241zM197 0v1513h204v-1513h-204z" />
    <glyph glyph-name="Iacute" unicode="&#xcd;" horiz-adv-x="579" 
d="M373 1626h-172l121 344h241zM190 0v1513h205v-1513h-205z" />
    <glyph glyph-name="Icircumflex" unicode="&#xce;" horiz-adv-x="585" 
d="M152 1626h-211l288 338h142l288 -338h-213l-147 186zM197 0v1513h204v-1513h-204z" />
    <glyph glyph-name="Idieresis" unicode="&#xcf;" horiz-adv-x="585" 
d="M109 1640q-60 0 -99 38t-39 98q0 54 40.5 91.5t97.5 37.5q54 0 91.5 -37.5t37.5 -91.5q0 -60 -36.5 -98t-92.5 -38zM492 1640q-58 0 -96 38t-38 98q0 54 38.5 91.5t95.5 37.5q56 0 94.5 -37.5t38.5 -91.5q0 -59 -38.5 -97.5t-94.5 -38.5zM197 0v1513h204v-1513h-204z" />
    <glyph glyph-name="Eth" unicode="&#xd0;" horiz-adv-x="1591" 
d="M229 1513h564q321 0 507 -204q189 -207 189 -555q0 -349 -193 -551q-191 -203 -524 -203h-543v670h-204v176h204v667zM434 195h346q232 0 365 157q131 158 131 408q0 246 -131 401q-134 158 -365 158h-346v-473h436v-176h-436v-475z" />
    <glyph glyph-name="Ntilde" unicode="&#xd1;" horiz-adv-x="1597" 
d="M547 1638l-127 60q26 93 90.5 144.5t151.5 51.5q69 0 155 -45q89 -45 131 -45q75 0 119 92l123 -57q-24 -93 -88 -145t-150 -52q-65 0 -153 46q-89 47 -129 47q-75 0 -123 -97zM1204 434v1079h203v-1513h-107l-907 1073v-1073h-203v1513h93z" />
    <glyph glyph-name="Ograve" unicode="&#xd2;" horiz-adv-x="1751" 
d="M870 1970l123 -344h-172l-192 344h241zM92 748q0 331 230 561q231 231 552 231q322 0 553 -231q232 -232 232 -553t-232 -553q-231 -228 -559 -228q-329 0 -553 224q-223 223 -223 549zM1446 754q0 248 -166 417q-165 168 -406 168q-236 0 -403 -170q-166 -169 -166 -415
q0 -244 164 -414q163 -166 405 -166q243 0 406 166q166 166 166 414z" />
    <glyph glyph-name="Oacute" unicode="&#xd3;" horiz-adv-x="1751" 
d="M954 1624h-172l121 344h242zM92 748q0 331 230 561q231 231 552 231q322 0 553 -231q232 -232 232 -553t-232 -553q-231 -228 -559 -228q-329 0 -553 224q-223 223 -223 549zM1446 754q0 248 -166 417q-165 168 -406 168q-236 0 -403 -170q-166 -169 -166 -415
q0 -244 164 -414q163 -166 405 -166q243 0 406 166q166 166 166 414z" />
    <glyph glyph-name="Ocircumflex" unicode="&#xd4;" horiz-adv-x="1751" 
d="M727 1622h-211l289 338h141l289 -338h-213l-148 186zM92 748q0 331 230 561q231 231 552 231q322 0 553 -231q232 -232 232 -553t-232 -553q-231 -228 -559 -228q-329 0 -553 224q-223 223 -223 549zM1446 754q0 248 -166 417q-165 168 -406 168q-236 0 -403 -170
q-166 -169 -166 -415q0 -244 164 -414q163 -166 405 -166q243 0 406 166q166 166 166 414z" />
    <glyph glyph-name="Otilde" unicode="&#xd5;" horiz-adv-x="1751" 
d="M627 1638l-127 60q26 93 90 144.5t151 51.5q70 0 156 -45q89 -45 131 -45q75 0 119 92l123 -57q-24 -93 -88 -145t-150 -52q-65 0 -153 46q-89 47 -129 47q-75 0 -123 -97zM92 748q0 331 230 561q231 231 552 231q322 0 553 -231q232 -232 232 -553t-232 -553
q-231 -228 -559 -228q-329 0 -553 224q-223 223 -223 549zM1446 754q0 248 -166 417q-165 168 -406 168q-236 0 -403 -170q-166 -169 -166 -415q0 -244 164 -414q163 -166 405 -166q243 0 406 166q166 166 166 414z" />
    <glyph glyph-name="Odieresis" unicode="&#xd6;" horiz-adv-x="1751" 
d="M707 1651q-56 0 -94 37t-38 92q0 51 38.5 87t93.5 36q51 0 86.5 -36t35.5 -87q0 -55 -35.5 -92t-86.5 -37zM1073 1651q-55 0 -92 36.5t-37 92.5q0 51 37.5 87t91.5 36q53 0 89 -35.5t36 -87.5q0 -56 -35.5 -92.5t-89.5 -36.5zM92 748q0 331 230 561q231 231 552 231
q322 0 553 -231q232 -232 232 -553t-232 -553q-231 -228 -559 -228q-329 0 -553 224q-223 223 -223 549zM1446 754q0 248 -166 417q-165 168 -406 168q-236 0 -403 -170q-166 -169 -166 -415q0 -244 164 -414q163 -166 405 -166q243 0 406 166q166 166 166 414z" />
    <glyph glyph-name="multiply" unicode="&#xd7;" horiz-adv-x="1062" 
d="M831 1116l121 -117l-303 -305l303 -303l-116 -123l-306 307l-305 -307l-116 123l303 303l-301 301l114 121l303 -303z" />
    <glyph glyph-name="Oslash" unicode="&#xd8;" horiz-adv-x="1751" 
d="M1522 1520l-125 -179q124 -111 193 -263.5t69 -321.5q0 -321 -232 -553q-231 -228 -559 -228q-196 0 -370 91l-115 -162l-133 92l112 160q-129 110 -199.5 262.5t-70.5 329.5q0 331 230 561q231 231 552 231q210 0 390 -104l125 176zM305 754q0 -257 178 -426l666 944
q-128 67 -275 67q-236 0 -403 -170q-166 -169 -166 -415zM874 174q243 0 406 166q166 166 166 414q0 252 -168 420l-662 -941q115 -59 258 -59z" />
    <glyph glyph-name="Ugrave" unicode="&#xd9;" horiz-adv-x="1445" 
d="M705 1970l122 -344h-172l-192 344h242zM174 510v1003h205v-966q0 -180 89.5 -276.5t254.5 -96.5q162 0 252 98t90 275v966h207v-1003q0 -247 -152 -393q-150 -144 -397 -144t-397 144q-152 146 -152 393z" />
    <glyph glyph-name="Uacute" unicode="&#xda;" horiz-adv-x="1445" 
d="M801 1624h-172l121 344h241zM174 510v1003h205v-966q0 -180 89.5 -276.5t254.5 -96.5q162 0 252 98t90 275v966h207v-1003q0 -247 -152 -393q-150 -144 -397 -144t-397 144q-152 146 -152 393z" />
    <glyph glyph-name="Ucircumflex" unicode="&#xdb;" horiz-adv-x="1445" 
d="M575 1622h-210l288 338h142l288 -338h-213l-147 186zM174 510v1003h205v-966q0 -180 89.5 -276.5t254.5 -96.5q162 0 252 98t90 275v966h207v-1003q0 -247 -152 -393q-150 -144 -397 -144t-397 144q-152 146 -152 393z" />
    <glyph glyph-name="Udieresis" unicode="&#xdc;" horiz-adv-x="1445" 
d="M543 1651q-56 0 -93.5 37t-37.5 92q0 51 38 87t93 36q51 0 87 -36t36 -87q0 -55 -36 -92t-87 -37zM909 1651q-55 0 -92 36.5t-37 92.5q0 51 37.5 87t91.5 36q53 0 89 -35.5t36 -87.5q0 -56 -35.5 -92.5t-89.5 -36.5zM174 510v1003h205v-966q0 -180 89.5 -276.5
t254.5 -96.5q162 0 252 98t90 275v966h207v-1003q0 -247 -152 -393q-150 -144 -397 -144t-397 144q-152 146 -152 393z" />
    <glyph glyph-name="Yacute" unicode="&#xdd;" horiz-adv-x="1308" 
d="M725 1624h-172l121 344h241zM1047 1513h227l-518 -968v-545h-205v545l-512 968h227l387 -765z" />
    <glyph glyph-name="Thorn" unicode="&#xde;" horiz-adv-x="1273" 
d="M395 1247h305q236 0 363 -139q125 -137 125 -328q0 -194 -131 -331q-133 -136 -377 -136h-285v-313h-205v1513h205v-266zM395 504h289q142 0 220.5 79.5t78.5 200.5q0 115 -73 192t-199 77h-316v-549z" />
    <glyph glyph-name="germandbls" unicode="&#xdf;" horiz-adv-x="1316" 
d="M971 809q119 -45 190.5 -150t71.5 -239q0 -201 -150 -330t-368 -129q-133 0 -248 47l49 174q72 -35 195 -35q146 0 235 86q88 85 88 203q0 126 -105 202.5t-272 76.5v164q134 0 221 78.5t87 197.5q0 115 -78 185.5t-201 70.5q-154 0 -244 -120t-90 -337v-1316h-200v1366
q0 287 155 436q157 151 385 151q210 0 340 -121q131 -119 131 -305q0 -115 -50.5 -208.5t-141.5 -147.5z" />
    <glyph glyph-name="agrave" unicode="&#xe0;" horiz-adv-x="1361" 
d="M643 1618l121 -342h-170l-191 342h240zM1020 938v160h188v-1098h-188v156q-148 -183 -387 -183q-238 0 -393 168q-156 169 -156 416t156 406q154 161 393 161q235 0 387 -186zM1032 551q0 165 -104 278q-106 115 -273 115t-270 -115q-102 -114 -102 -280q0 -167 102 -281
t270 -114t273 114q104 113 104 283z" />
    <glyph glyph-name="aacute" unicode="&#xe1;" horiz-adv-x="1361" 
d="M709 1618h239l-190 -342h-170zM1020 938v160h188v-1098h-188v156q-148 -183 -387 -183q-238 0 -393 168q-156 169 -156 416t156 406q154 161 393 161q235 0 387 -186zM1032 551q0 165 -104 278q-106 115 -273 115t-270 -115q-102 -114 -102 -280q0 -167 102 -281
t270 -114t273 114q104 113 104 283z" />
    <glyph glyph-name="acircumflex" unicode="&#xe2;" horiz-adv-x="1361" 
d="M819 1272l-147 184l-148 -184h-209l287 336h141l287 -336h-211zM1020 938v160h188v-1098h-188v156q-148 -183 -387 -183q-238 0 -393 168q-156 169 -156 416t156 406q154 161 393 161q235 0 387 -186zM1032 551q0 165 -104 278q-106 115 -273 115t-270 -115
q-102 -114 -102 -280q0 -167 102 -281t270 -114t273 114q104 113 104 283z" />
    <glyph glyph-name="atilde" unicode="&#xe3;" horiz-adv-x="1361" 
d="M537 1389q-73 0 -121 -97l-127 60q26 93 90 144.5t151 51.5q70 0 156 -45t129 -45q75 0 119 92l123 -57q-24 -93 -88 -145t-150 -52q-67 0 -153 45q-91 48 -129 48zM1020 938v160h188v-1098h-188v156q-148 -183 -387 -183q-238 0 -393 168q-156 169 -156 416t156 406
q154 161 393 161q235 0 387 -186zM1032 551q0 165 -104 278q-106 115 -273 115t-270 -115q-102 -114 -102 -280q0 -167 102 -281t270 -114t273 114q104 113 104 283z" />
    <glyph glyph-name="adieresis" unicode="&#xe4;" horiz-adv-x="1361" 
d="M475 1266q-62 0 -102.5 40t-40.5 103q0 57 41 96t102 39q57 0 97 -39t40 -96q0 -61 -40 -102t-97 -41zM881 1266q-61 0 -101.5 40.5t-40.5 102.5q0 57 41 96t101 39t99.5 -39t39.5 -96q0 -62 -39.5 -102.5t-99.5 -40.5zM1020 938v160h188v-1098h-188v156
q-148 -183 -387 -183q-238 0 -393 168q-156 169 -156 416t156 406q154 161 393 161q235 0 387 -186zM1032 551q0 165 -104 278q-106 115 -273 115t-270 -115q-102 -114 -102 -280q0 -167 102 -281t270 -114t273 114q104 113 104 283z" />
    <glyph glyph-name="aring" unicode="&#xe5;" horiz-adv-x="1361" 
d="M844 1298q-68 -65 -168 -65q-99 0 -170 65q-70 67 -70 164t70 164q71 68 170 68q100 0 168 -68q69 -66 69 -164t-69 -164zM676 1573q-47 0 -80 -31.5t-33 -75.5q0 -49 32.5 -80.5t80.5 -31.5q45 0 76.5 31.5t31.5 80.5q0 43 -32.5 75t-75.5 32zM1020 938v160h188v-1098
h-188v156q-148 -183 -387 -183q-238 0 -393 168q-156 169 -156 416t156 406q154 161 393 161q235 0 387 -186zM1032 551q0 165 -104 278q-106 115 -273 115t-270 -115q-102 -114 -102 -280q0 -167 102 -281t270 -114t273 114q104 113 104 283z" />
    <glyph glyph-name="ae" unicode="&#xe6;" horiz-adv-x="2037" 
d="M1960 590q0 -28 -6 -101h-873q21 -148 119 -241.5t254 -93.5q92 0 195.5 34.5t177.5 90.5l88 -154q-82 -65 -210 -107.5t-259 -42.5q-331 0 -481 258q-74 -127 -200 -193.5t-278 -66.5q-193 0 -308.5 98.5t-115.5 258.5q0 97 49.5 166.5t131.5 101.5q141 53 295 53h333
q-44 293 -329 293q-219 0 -342 -102l-90 151q75 55 202 94q121 37 234 37q138 0 254.5 -58.5t181.5 -166.5q156 225 459 225q226 0 370 -141q148 -139 148 -393zM1440 948q-138 0 -233.5 -80.5t-121.5 -216.5h678q-10 138 -99.5 217.5t-223.5 79.5zM498 154q153 0 254 94
q104 94 122 241h-335q-283 0 -283 -165q0 -77 67.5 -123.5t174.5 -46.5z" />
    <glyph glyph-name="ccedilla" unicode="&#xe7;" horiz-adv-x="1226" 
d="M664 156q103 0 198 55t142 141l163 -94q-63 -118 -187 -194.5t-271 -86.5l-31 -75h16q90 0 150.5 -51.5t60.5 -137.5q0 -97 -71 -162t-195 -65q-106 0 -233 59l51 129q87 -43 166 -43q55 0 86.5 25t31.5 65q0 74 -106 74h-115l-18 45l57 144q-215 35 -346 186
q-129 156 -129 379q0 250 164 414q164 161 426 161q162 0 298 -78t199 -208l-161 -95q-56 94 -144.5 147.5t-191.5 53.5q-168 0 -281 -113q-110 -113 -110 -282q0 -167 108 -281q106 -112 273 -112z" />
    <glyph glyph-name="egrave" unicode="&#xe8;" 
d="M612 1614l121 -342h-170l-190 342h239zM1171 569q0 -21 -6 -100h-874q26 -146 122.5 -229.5t262.5 -83.5q98 0 203 33.5t180 89.5l84 -150q-86 -67 -213 -110.5t-258 -43.5q-120 0 -219.5 33t-166 88.5t-113 130t-67 156.5t-20.5 170q0 245 154 410q154 161 401 161
q235 0 381 -149q149 -149 149 -406zM291 639h678q-7 141 -99 226t-229 85q-134 0 -229.5 -86.5t-120.5 -224.5z" />
    <glyph glyph-name="eacute" unicode="&#xe9;" 
d="M676 1618h239l-190 -342h-170zM1171 569q0 -21 -6 -100h-874q26 -146 122.5 -229.5t262.5 -83.5q98 0 203 33.5t180 89.5l84 -150q-86 -67 -213 -110.5t-258 -43.5q-120 0 -219.5 33t-166 88.5t-113 130t-67 156.5t-20.5 170q0 245 154 410q154 161 401 161
q235 0 381 -149q149 -149 149 -406zM291 639h678q-7 141 -99 226t-229 85q-134 0 -229.5 -86.5t-120.5 -224.5z" />
    <glyph glyph-name="ecircumflex" unicode="&#xea;" 
d="M795 1276l-148 184l-147 -184h-209l287 336h141l287 -336h-211zM1171 569q0 -21 -6 -100h-874q26 -146 122.5 -229.5t262.5 -83.5q98 0 203 33.5t180 89.5l84 -150q-86 -67 -213 -110.5t-258 -43.5q-120 0 -219.5 33t-166 88.5t-113 130t-67 156.5t-20.5 170
q0 245 154 410q154 161 401 161q235 0 381 -149q149 -149 149 -406zM291 639h678q-7 141 -99 226t-229 85q-134 0 -229.5 -86.5t-120.5 -224.5z" />
    <glyph glyph-name="edieresis" unicode="&#xeb;" 
d="M465 1255q-62 0 -102.5 40.5t-40.5 103.5q0 57 41 96t102 39q57 0 97 -39t40 -96q0 -61 -40 -102.5t-97 -41.5zM729 1399q0 57 40.5 96t100.5 39t100 -39t40 -96q0 -62 -40 -103t-100 -41t-100.5 40.5t-40.5 103.5zM1171 569q0 -21 -6 -100h-874q26 -146 122.5 -229.5
t262.5 -83.5q98 0 203 33.5t180 89.5l84 -150q-86 -67 -213 -110.5t-258 -43.5q-120 0 -219.5 33t-166 88.5t-113 130t-67 156.5t-20.5 170q0 245 154 410q154 161 401 161q235 0 381 -149q149 -149 149 -406zM291 639h678q-7 141 -99 226t-229 85q-134 0 -229.5 -86.5
t-120.5 -224.5z" />
    <glyph glyph-name="igrave" unicode="&#xec;" horiz-adv-x="501" 
d="M221 1614l121 -342h-170l-190 342h239zM348 1098v-1098h-196v1098h196z" />
    <glyph glyph-name="iacute" unicode="&#xed;" horiz-adv-x="499" 
d="M334 1276h-170l121 342h239zM348 1098v-1098h-196v1098h196z" />
    <glyph glyph-name="icircumflex" unicode="&#xee;" horiz-adv-x="501" 
d="M100 1268h-209l287 336h141l287 -336h-211l-147 184zM348 1098v-1098h-196v1098h196z" />
    <glyph glyph-name="idieresis" unicode="&#xef;" horiz-adv-x="501" 
d="M49 1262q-62 0 -102.5 40t-40.5 103q0 57 41 96t102 39q57 0 97 -39t40 -96q0 -61 -40 -102t-97 -41zM455 1262q-61 0 -101.5 40.5t-40.5 102.5q0 57 41 96t101 39t99.5 -39t39.5 -96q0 -62 -39.5 -102.5t-99.5 -40.5zM348 1098v-1098h-196v1098h196z" />
    <glyph glyph-name="eth" unicode="&#xf0;" horiz-adv-x="1343" 
d="M1178 1536l-187 -125q256 -330 256 -698q0 -319 -174 -529q-175 -211 -442 -211q-233 0 -391 152q-154 154 -154 383q0 228 152 383q150 153 376 153q145 0 264 -72.5t175 -191.5q-9 228 -170 465q-30 42 -47 62l-207 -140l-84 115l196 131q-108 111 -219 193l135 131
q138 -108 242 -217l199 133zM635 150q154 0 254 106q104 107 104 262q0 151 -104 252q-102 102 -250 102q-155 0 -256 -104q-100 -103 -100 -258q0 -149 98 -256q101 -104 254 -104z" />
    <glyph glyph-name="ntilde" unicode="&#xf1;" horiz-adv-x="1265" 
d="M385 1282l-127 59q26 93 90.5 145t151.5 52q69 0 155 -45t129 -45q75 0 119 92l123 -57q-24 -93 -88 -145t-150 -52q-67 0 -153 45q-89 47 -129 47q-74 0 -121 -96zM348 0h-196v1098h192v-156q105 184 348 184q185 0 309 -118q125 -119 125 -342v-666h-194v610
q0 157 -77 245.5t-204 88.5q-134 0 -219 -94q-84 -96 -84 -242v-608z" />
    <glyph glyph-name="ograve" unicode="&#xf2;" horiz-adv-x="1320" 
d="M633 1614l121 -342h-170l-191 342h240zM662 -27q-253 0 -416 166q-162 168 -162 412q0 242 162 407q162 168 416 168q249 0 411 -168q164 -170 164 -407q0 -242 -164 -412q-163 -166 -411 -166zM1040 551q0 163 -110 276q-111 117 -268 117q-158 0 -269 -117
q-110 -113 -110 -276q0 -165 110 -281t269 -116q158 0 268 116t110 281z" />
    <glyph glyph-name="oacute" unicode="&#xf3;" horiz-adv-x="1320" 
d="M727 1276h-170l121 342h240zM662 -27q-253 0 -416 166q-162 168 -162 412q0 242 162 407q162 168 416 168q249 0 411 -168q164 -170 164 -407q0 -242 -164 -412q-163 -166 -411 -166zM1040 551q0 163 -110 276q-111 117 -268 117q-158 0 -269 -117q-110 -113 -110 -276
q0 -165 110 -281t269 -116q158 0 268 116t110 281z" />
    <glyph glyph-name="ocircumflex" unicode="&#xf4;" horiz-adv-x="1320" 
d="M516 1280h-209l287 336h141l287 -336h-211l-147 184zM662 -27q-253 0 -416 166q-162 168 -162 412q0 242 162 407q162 168 416 168q249 0 411 -168q164 -170 164 -407q0 -242 -164 -412q-163 -166 -411 -166zM1040 551q0 163 -110 276q-111 117 -268 117
q-158 0 -269 -117q-110 -113 -110 -276q0 -165 110 -281t269 -116q158 0 268 116t110 281z" />
    <glyph glyph-name="otilde" unicode="&#xf5;" horiz-adv-x="1320" 
d="M406 1288l-127 60q26 93 90 144.5t151 51.5q70 0 156 -45t129 -45q75 0 119 92l123 -57q-24 -93 -88 -145t-150 -52q-68 0 -154 45q-89 47 -129 47q-73 0 -120 -96zM662 -27q-253 0 -416 166q-162 168 -162 412q0 242 162 407q162 168 416 168q249 0 411 -168
q164 -170 164 -407q0 -242 -164 -412q-163 -166 -411 -166zM1040 551q0 163 -110 276q-111 117 -268 117q-158 0 -269 -117q-110 -113 -110 -276q0 -165 110 -281t269 -116q158 0 268 116t110 281z" />
    <glyph glyph-name="odieresis" unicode="&#xf6;" horiz-adv-x="1320" 
d="M463 1262q-62 0 -103 40t-41 103q0 57 41.5 96t102.5 39q57 0 97 -39t40 -96q0 -61 -40 -102t-97 -41zM868 1262q-61 0 -101 40.5t-40 102.5q0 57 40.5 96t100.5 39t100 -39t40 -96q0 -61 -40 -102t-100 -41zM662 -27q-253 0 -416 166q-162 168 -162 412q0 242 162 407
q162 168 416 168q249 0 411 -168q164 -170 164 -407q0 -242 -164 -412q-163 -166 -411 -166zM1040 551q0 163 -110 276q-111 117 -268 117q-158 0 -269 -117q-110 -113 -110 -276q0 -165 110 -281t269 -116q158 0 268 116t110 281z" />
    <glyph glyph-name="divide" unicode="&#xf7;" horiz-adv-x="1126" 
d="M432 1032q0 54 36.5 89.5t92.5 35.5t93.5 -35.5t37.5 -89.5q0 -57 -37.5 -95t-93.5 -38q-55 0 -92 38t-37 95zM1022 586h-916v176h916v-176zM432 322q0 54 36.5 89t92.5 35t93.5 -35t37.5 -89q0 -57 -37.5 -95.5t-93.5 -38.5q-55 0 -92 38.5t-37 95.5z" />
    <glyph glyph-name="oslash" unicode="&#xf8;" horiz-adv-x="1320" 
d="M1151 1139l-107 -154q193 -166 193 -434q0 -242 -164 -412q-163 -166 -411 -166q-151 0 -273 64l-110 -160l-111 76l108 158q-192 168 -192 440q0 242 162 407q162 168 416 168q152 0 272 -63l102 149zM283 551q0 -162 106 -277l436 631q-74 39 -163 39q-158 0 -269 -117
q-110 -113 -110 -276zM662 154q158 0 268 116t110 281q0 159 -106 274l-436 -632q74 -39 164 -39z" />
    <glyph glyph-name="ugrave" unicode="&#xf9;" horiz-adv-x="1218" 
d="M596 1618l121 -342h-170l-191 342h240zM608 -27q-215 0 -343 127t-128 342v656h197v-649q0 -136 73 -214.5t201 -78.5q130 0 203.5 78.5t73.5 214.5v649h194v-656q0 -220 -125.5 -344.5t-345.5 -124.5z" />
    <glyph glyph-name="uacute" unicode="&#xfa;" horiz-adv-x="1218" 
d="M686 1276h-170l121 342h240zM608 -27q-215 0 -343 127t-128 342v656h197v-649q0 -136 73 -214.5t201 -78.5q130 0 203.5 78.5t73.5 214.5v649h194v-656q0 -220 -125.5 -344.5t-345.5 -124.5z" />
    <glyph glyph-name="ucircumflex" unicode="&#xfb;" horiz-adv-x="1218" 
d="M463 1270h-209l287 336h141l287 -336h-211l-148 184zM608 -27q-215 0 -343 127t-128 342v656h197v-649q0 -136 73 -214.5t201 -78.5q130 0 203.5 78.5t73.5 214.5v649h194v-656q0 -220 -125.5 -344.5t-345.5 -124.5z" />
    <glyph glyph-name="udieresis" unicode="&#xfc;" horiz-adv-x="1218" 
d="M408 1262q-62 0 -103 40t-41 103q0 57 41.5 96t102.5 39q57 0 97 -39t40 -96q0 -61 -40 -102t-97 -41zM672 1405q0 57 40.5 96t100.5 39t99.5 -39t39.5 -96q0 -62 -39.5 -102.5t-99.5 -40.5t-100.5 41t-40.5 102zM608 -27q-215 0 -343 127t-128 342v656h197v-649
q0 -136 73 -214.5t201 -78.5q130 0 203.5 78.5t73.5 214.5v649h194v-656q0 -220 -125.5 -344.5t-345.5 -124.5z" />
    <glyph glyph-name="yacute" unicode="&#xfd;" horiz-adv-x="1136" 
d="M596 1614h240l-191 -342h-170zM594 274l295 824h217l-461 -1221q-68 -182 -159 -263t-222 -81q-106 0 -176 43l25 172q73 -33 133 -33q135 0 217 193l41 96l-477 1094h227z" />
    <glyph glyph-name="thorn" unicode="&#xfe;" horiz-adv-x="1368" 
d="M727 1124q244 0 399 -168q158 -169 158 -405q0 -240 -158 -412q-156 -166 -399 -166q-225 0 -379 183v-609h-196v2003h196v-610q156 184 379 184zM713 154q165 0 270 114q104 113 104 283q0 165 -104 278q-106 115 -270 115q-167 0 -273 -115q-104 -113 -104 -278
q0 -169 102 -283q105 -114 275 -114z" />
    <glyph glyph-name="ydieresis" unicode="&#xff;" horiz-adv-x="1136" 
d="M377 1262q-62 0 -103 40t-41 103q0 57 41.5 96t102.5 39q57 0 97 -39t40 -96q0 -61 -40 -102t-97 -41zM782 1262q-61 0 -101 40.5t-40 102.5q0 57 40.5 96t100.5 39t100 -39t40 -96q0 -61 -40 -102t-100 -41zM594 274l295 824h217l-461 -1221q-68 -182 -159 -263
t-222 -81q-106 0 -176 43l25 172q73 -33 133 -33q135 0 217 193l41 96l-477 1094h227z" />
    <glyph glyph-name="Amacron" unicode="&#x100;" horiz-adv-x="1380" 
d="M344 1837h694v-174l-694 -2v176zM1354 0h-224l-153 393h-576l-153 -393h-223l612 1513h111zM907 586l-217 571l-219 -571h436z" />
    <glyph glyph-name="amacron" unicode="&#x101;" horiz-adv-x="1361" 
d="M358 1481h629v-174l-629 -2v176zM1020 938v160h188v-1098h-188v156q-148 -183 -387 -183q-238 0 -393 168q-156 169 -156 416t156 406q154 161 393 161q235 0 387 -186zM1032 551q0 165 -104 278q-106 115 -273 115t-270 -115q-102 -114 -102 -280q0 -167 102 -281
t270 -114t273 114q104 113 104 283z" />
    <glyph glyph-name="Abreve" unicode="&#x102;" horiz-adv-x="1380" 
d="M692 1608q-159 0 -256.5 96t-101.5 260h170q1 -96 52 -150.5t136 -54.5q87 0 138.5 54.5t52.5 150.5h170q-1 -163 -100.5 -259.5t-260.5 -96.5zM1354 0h-224l-153 393h-576l-153 -393h-223l612 1513h111zM907 586l-217 571l-219 -571h436z" />
    <glyph glyph-name="abreve" unicode="&#x103;" horiz-adv-x="1361" 
d="M317 1618h168q1 -96 51.5 -149.5t137.5 -53.5t137 53.5t51 149.5h170q-3 -166 -102 -258q-101 -96 -256 -96q-158 0 -255 96.5t-102 257.5zM1020 938v160h188v-1098h-188v156q-148 -183 -387 -183q-238 0 -393 168q-156 169 -156 416t156 406q154 161 393 161
q235 0 387 -186zM1032 551q0 165 -104 278q-106 115 -273 115t-270 -115q-102 -114 -102 -280q0 -167 102 -281t270 -114t273 114q104 113 104 283z" />
    <glyph glyph-name="Aogonek" unicode="&#x104;" horiz-adv-x="1376" 
d="M1309 -334l75 -139q-92 -59 -194 -59q-108 0 -174 63t-66 162q0 178 217 307h-37l-153 393h-576l-153 -393h-223l612 1513h111l606 -1513q-99 -43 -163.5 -116t-64.5 -142q0 -44 27.5 -72t71.5 -28q41 0 84 24zM907 586l-217 571l-219 -571h436z" />
    <glyph glyph-name="aogonek" unicode="&#x105;" horiz-adv-x="1355" 
d="M1165 -334l76 -139q-92 -59 -194 -59q-108 0 -174 63t-66 162q0 178 217 307h-4v156q-148 -183 -387 -183q-238 0 -393 168q-156 169 -156 416t156 406q154 161 393 161q235 0 387 -186v160h188v-1098h2q-99 -43 -163 -116t-64 -142q0 -44 27 -72t71 -28q41 0 84 24z
M1032 551q0 165 -104 278q-106 115 -273 115t-270 -115q-102 -114 -102 -280q0 -167 102 -281t270 -114t273 114q104 113 104 283z" />
    <glyph glyph-name="Cacute" unicode="&#x106;" horiz-adv-x="1589" 
d="M979 1624h-172l121 344h241zM872 -23q-324 0 -553 218q-225 217 -225 557q0 345 230 565q229 223 555 223q205 0 381 -92q170 -86 272 -240l-152 -127q-193 260 -497 260q-243 0 -410 -167q-168 -168 -168 -424q0 -250 164 -414q165 -162 412 -162q151 0 282.5 67.5
t225.5 188.5l147 -125q-108 -151 -283.5 -239.5t-380.5 -88.5z" />
    <glyph glyph-name="cacute" unicode="&#x107;" horiz-adv-x="1226" 
d="M748 1276h-170l120 342h240zM664 -25q-256 0 -418 162t-162 412t164 414q164 161 426 161q162 0 298 -78t199 -208l-161 -95q-56 94 -144.5 147.5t-191.5 53.5q-168 0 -281 -113q-110 -113 -110 -282q0 -167 108 -281q106 -112 273 -112q103 0 198 55t142 141l163 -94
q-70 -131 -204 -205q-141 -78 -299 -78z" />
    <glyph glyph-name="Ccircumflex" unicode="&#x108;" horiz-adv-x="1589" 
d="M717 1622h-211l289 338h141l289 -338h-213l-148 186zM872 -23q-324 0 -553 218q-225 217 -225 557q0 345 230 565q229 223 555 223q205 0 381 -92q170 -86 272 -240l-152 -127q-193 260 -497 260q-243 0 -410 -167q-168 -168 -168 -424q0 -250 164 -414
q165 -162 412 -162q151 0 282.5 67.5t225.5 188.5l147 -125q-108 -151 -283.5 -239.5t-380.5 -88.5z" />
    <glyph glyph-name="ccircumflex" unicode="&#x109;" horiz-adv-x="1226" 
d="M516 1274h-209l287 336h141l287 -336h-211l-147 184zM664 -25q-256 0 -418 162t-162 412t164 414q164 161 426 161q162 0 298 -78t199 -208l-161 -95q-56 94 -144.5 147.5t-191.5 53.5q-168 0 -281 -113q-110 -113 -110 -282q0 -167 108 -281q106 -112 273 -112
q103 0 198 55t142 141l163 -94q-70 -131 -204 -205q-141 -78 -299 -78z" />
    <glyph glyph-name="Cdotaccent" unicode="&#x10a;" horiz-adv-x="1589" 
d="M870 1636q-62 0 -102.5 40.5t-40.5 101.5q0 60 40.5 98.5t102.5 38.5q57 0 98.5 -40t41.5 -97q0 -61 -41 -101.5t-99 -40.5zM872 -23q-324 0 -553 218q-225 217 -225 557q0 345 230 565q229 223 555 223q205 0 381 -92q170 -86 272 -240l-152 -127q-193 260 -497 260
q-243 0 -410 -167q-168 -168 -168 -424q0 -250 164 -414q165 -162 412 -162q151 0 282.5 67.5t225.5 188.5l147 -125q-108 -151 -283.5 -239.5t-380.5 -88.5z" />
    <glyph glyph-name="cdotaccent" unicode="&#x10b;" horiz-adv-x="1226" 
d="M668 1255q-62 0 -103 40.5t-41 101.5q0 60 41 98.5t103 38.5q57 0 98 -40t41 -97q0 -61 -40.5 -101.5t-98.5 -40.5zM664 -25q-256 0 -418 162t-162 412t164 414q164 161 426 161q162 0 298 -78t199 -208l-161 -95q-56 94 -144.5 147.5t-191.5 53.5q-168 0 -281 -113
q-110 -113 -110 -282q0 -167 108 -281q106 -112 273 -112q103 0 198 55t142 141l163 -94q-70 -131 -204 -205q-141 -78 -299 -78z" />
    <glyph glyph-name="Ccaron" unicode="&#x10c;" horiz-adv-x="1589" 
d="M797 1626l-287 336h209l147 -184l148 184h211l-287 -336h-141zM872 -23q-324 0 -553 218q-225 217 -225 557q0 345 230 565q229 223 555 223q205 0 381 -92q170 -86 272 -240l-152 -127q-193 260 -497 260q-243 0 -410 -167q-168 -168 -168 -424q0 -250 164 -414
q165 -162 412 -162q151 0 282.5 67.5t225.5 188.5l147 -125q-108 -151 -283.5 -239.5t-380.5 -88.5z" />
    <glyph glyph-name="ccaron" unicode="&#x10d;" horiz-adv-x="1226" 
d="M594 1278l-287 336h209l148 -184l147 184h211l-287 -336h-141zM664 -25q-256 0 -418 162t-162 412t164 414q164 161 426 161q162 0 298 -78t199 -208l-161 -95q-56 94 -144.5 147.5t-191.5 53.5q-168 0 -281 -113q-110 -113 -110 -282q0 -167 108 -281q106 -112 273 -112
q103 0 198 55t142 141l163 -94q-70 -131 -204 -205q-141 -78 -299 -78z" />
    <glyph glyph-name="Dcaron" unicode="&#x10e;" horiz-adv-x="1552" 
d="M639 1626l-287 336h209l148 -184l147 184h211l-287 -336h-141zM733 0h-543v1513h564q322 0 508 -204q188 -206 188 -555t-193 -551q-191 -203 -524 -203zM395 1319v-1124h346q232 0 365 157q131 158 131 408q0 246 -131 401q-134 158 -365 158h-346z" />
    <glyph glyph-name="dcaron" unicode="&#x10f;" horiz-adv-x="1433" 
d="M1298 1276l115 342h217l-168 -342h-164zM1018 938v612h196v-1550h-196v154q-144 -181 -381 -181q-241 0 -397 166q-156 169 -156 412q0 239 156 405q155 168 393 168q236 0 385 -186zM1032 551q0 165 -104 278q-103 115 -271 115q-166 0 -272 -115q-102 -114 -102 -278
q0 -169 102 -283q105 -114 272 -114q169 0 271 114q104 113 104 283z" />
    <glyph glyph-name="Dcroat" unicode="&#x110;" horiz-adv-x="1591" 
d="M229 1513h564q321 0 507 -204q189 -207 189 -555q0 -349 -193 -551q-191 -203 -524 -203h-543v670h-204v176h204v667zM434 195h346q232 0 365 157q131 158 131 408q0 246 -131 401q-134 158 -365 158h-346v-473h436v-176h-436v-475z" />
    <glyph glyph-name="dslash" unicode="&#x111;" horiz-adv-x="1372" 
d="M1214 1360h168v-141h-168v-1219h-196v154q-144 -181 -381 -181q-241 0 -397 166q-156 169 -156 412q0 239 156 405q155 168 393 168q236 0 385 -186v281h-328v141h328v190h196v-190zM1032 551q0 165 -104 278q-103 115 -271 115q-166 0 -272 -115q-102 -114 -102 -278
q0 -169 102 -283q105 -114 272 -114q169 0 271 114q104 113 104 283z" />
    <glyph glyph-name="Emacron" unicode="&#x112;" horiz-adv-x="1247" 
d="M1018 1663l-694 -2v176h694v-174zM1133 0h-943v1513h943v-194h-738v-453h682v-194h-682v-477h738v-195z" />
    <glyph glyph-name="emacron" unicode="&#x113;" 
d="M326 1479h628v-174l-628 -2v176zM1171 569q0 -21 -6 -100h-874q26 -146 122.5 -229.5t262.5 -83.5q98 0 203 33.5t180 89.5l84 -150q-86 -67 -213 -110.5t-258 -43.5q-120 0 -219.5 33t-166 88.5t-113 130t-67 156.5t-20.5 170q0 245 154 410q154 161 401 161
q235 0 381 -149q149 -149 149 -406zM291 639h678q-7 141 -99 226t-229 85q-134 0 -229.5 -86.5t-120.5 -224.5z" />
    <glyph glyph-name="Ebreve" unicode="&#x114;" horiz-adv-x="1247" 
d="M674 1608q-159 0 -257 96t-102 260h170q1 -96 52.5 -150.5t136.5 -54.5q87 0 138 54.5t52 150.5h170q-1 -163 -100 -259.5t-260 -96.5zM1133 0h-943v1513h943v-194h-738v-453h682v-194h-682v-477h738v-195z" />
    <glyph glyph-name="ebreve" unicode="&#x115;" 
d="M295 1614h168q1 -96 51 -149.5t137 -53.5t137.5 53.5t51.5 149.5h170q-3 -165 -103 -258q-101 -96 -256 -96q-158 0 -254.5 96.5t-101.5 257.5zM1171 569q0 -21 -6 -100h-874q26 -146 122.5 -229.5t262.5 -83.5q98 0 203 33.5t180 89.5l84 -150q-86 -67 -213 -110.5
t-258 -43.5q-120 0 -219.5 33t-166 88.5t-113 130t-67 156.5t-20.5 170q0 245 154 410q154 161 401 161q235 0 381 -149q149 -149 149 -406zM291 639h678q-7 141 -99 226t-229 85q-134 0 -229.5 -86.5t-120.5 -224.5z" />
    <glyph glyph-name="Edotaccent" unicode="&#x116;" horiz-adv-x="1247" 
d="M670 1636q-62 0 -103 40.5t-41 101.5q0 60 41 98.5t103 38.5q57 0 98 -40t41 -97q0 -61 -40.5 -101.5t-98.5 -40.5zM1133 0h-943v1513h943v-194h-738v-453h682v-194h-682v-477h738v-195z" />
    <glyph glyph-name="edotaccent" unicode="&#x117;" 
d="M653 1255q-62 0 -102.5 40.5t-40.5 101.5q0 60 40.5 98.5t102.5 38.5q57 0 98.5 -40t41.5 -97q0 -61 -41 -101.5t-99 -40.5zM1171 569q0 -21 -6 -100h-874q26 -146 122.5 -229.5t262.5 -83.5q98 0 203 33.5t180 89.5l84 -150q-86 -67 -213 -110.5t-258 -43.5
q-120 0 -219.5 33t-166 88.5t-113 130t-67 156.5t-20.5 170q0 245 154 410q154 161 401 161q235 0 381 -149q149 -149 149 -406zM291 639h678q-7 141 -99 226t-229 85q-134 0 -229.5 -86.5t-120.5 -224.5z" />
    <glyph glyph-name="Eogonek" unicode="&#x118;" horiz-adv-x="1243" 
d="M1090 -334l75 -139q-92 -59 -194 -59q-108 0 -174 63t-66 162q0 178 217 307h-758v1513h943v-194h-738v-453h682v-194h-682v-477h738v-195h2q-99 -43 -163.5 -116t-64.5 -142q0 -44 27.5 -72t71.5 -28q40 0 84 24z" />
    <glyph glyph-name="eogonek" unicode="&#x119;" 
d="M1171 569q0 -21 -6 -100h-874q26 -146 122.5 -229.5t262.5 -83.5q98 0 203 33.5t180 89.5l84 -150q-107 -80 -242 -119q-98 -44 -161.5 -116.5t-63.5 -141.5q0 -44 27 -72t71 -28q40 0 84 24l76 -139q-92 -59 -195 -59q-108 0 -173.5 63t-65.5 162q0 158 164 272
q-119 1 -217 34.5t-164 89t-111 130t-65.5 156t-20.5 168.5q0 245 154 410q154 161 401 161q235 0 381 -149q149 -149 149 -406zM291 639h678q-7 141 -99 226t-229 85q-134 0 -229.5 -86.5t-120.5 -224.5z" />
    <glyph glyph-name="Ecaron" unicode="&#x11a;" horiz-adv-x="1247" 
d="M596 1626l-287 336h209l148 -184l147 184h211l-287 -336h-141zM1133 0h-943v1513h943v-194h-738v-453h682v-194h-682v-477h738v-195z" />
    <glyph glyph-name="ecaron" unicode="&#x11b;" 
d="M1006 1614l-287 -336h-141l-287 336h209l147 -184l148 184h211zM1171 569q0 -21 -6 -100h-874q26 -146 122.5 -229.5t262.5 -83.5q98 0 203 33.5t180 89.5l84 -150q-86 -67 -213 -110.5t-258 -43.5q-120 0 -219.5 33t-166 88.5t-113 130t-67 156.5t-20.5 170
q0 245 154 410q154 161 401 161q235 0 381 -149q149 -149 149 -406zM291 639h678q-7 141 -99 226t-229 85q-134 0 -229.5 -86.5t-120.5 -224.5z" />
    <glyph glyph-name="Gcircumflex" unicode="&#x11c;" horiz-adv-x="1662" 
d="M735 1626h-211l289 338h141l289 -338h-213l-147 186zM868 -23q-333 0 -555 222q-219 222 -219 557q0 341 230 561q229 223 557 223q188 0 357 -76t273 -202l-145 -134q-192 213 -483 213q-246 0 -414 -165q-166 -166 -166 -422q0 -250 166 -416q167 -164 408 -164
q134 0 262 57t223 156v301h-506v189h698v-580q-276 -320 -686 -320z" />
    <glyph glyph-name="gcircumflex" unicode="&#x11d;" horiz-adv-x="1366" 
d="M797 1274l-148 184l-147 -184h-209l287 336h141l287 -336h-211zM1020 954v144h194v-985q0 -266 -159 -422q-161 -158 -428 -158q-268 0 -486 156l92 155q180 -133 392 -133q180 0 288 105q107 101 107 264v90q-147 -172 -385 -172t-393 162q-158 166 -158 403
q0 242 162 400q161 161 399 161q228 0 375 -170zM389 285q108 -111 268 -111q161 0 269 111q106 109 106 276q0 169 -106 275q-107 110 -269 110q-161 0 -268 -110q-106 -106 -106 -275q0 -167 106 -276z" />
    <glyph glyph-name="Gbreve" unicode="&#x11e;" horiz-adv-x="1662" 
d="M881 1612q-159 0 -257 96t-102 260h170q1 -96 52.5 -150.5t136.5 -54.5q87 0 138 54.5t52 150.5h170q-1 -163 -100 -259.5t-260 -96.5zM868 -23q-333 0 -555 222q-219 222 -219 557q0 341 230 561q229 223 557 223q188 0 357 -76t273 -202l-145 -134q-192 213 -483 213
q-246 0 -414 -165q-166 -166 -166 -422q0 -250 166 -416q167 -164 408 -164q134 0 262 57t223 156v301h-506v189h698v-580q-276 -320 -686 -320z" />
    <glyph glyph-name="gbreve" unicode="&#x11f;" horiz-adv-x="1366" 
d="M287 1620h168q1 -96 51 -149.5t137 -53.5t137 53.5t51 149.5h170q-3 -166 -102 -258q-101 -96 -256 -96q-158 0 -254.5 96.5t-101.5 257.5zM1020 954v144h194v-985q0 -266 -159 -422q-161 -158 -428 -158q-268 0 -486 156l92 155q180 -133 392 -133q180 0 288 105
q107 101 107 264v90q-147 -172 -385 -172t-393 162q-158 166 -158 403q0 242 162 400q161 161 399 161q228 0 375 -170zM389 285q108 -111 268 -111q161 0 269 111q106 109 106 276q0 169 -106 275q-107 110 -269 110q-161 0 -268 -110q-106 -106 -106 -275q0 -167 106 -276
z" />
    <glyph glyph-name="Gdotaccent" unicode="&#x120;" horiz-adv-x="1662" 
d="M887 1636q-62 0 -103 40.5t-41 101.5q0 60 41 98.5t103 38.5q57 0 98 -40t41 -97q0 -61 -40.5 -101.5t-98.5 -40.5zM868 -23q-333 0 -555 222q-219 222 -219 557q0 341 230 561q229 223 557 223q188 0 357 -76t273 -202l-145 -134q-192 213 -483 213q-246 0 -414 -165
q-166 -166 -166 -422q0 -250 166 -416q167 -164 408 -164q134 0 262 57t223 156v301h-506v189h698v-580q-276 -320 -686 -320z" />
    <glyph glyph-name="gdotaccent" unicode="&#x121;" horiz-adv-x="1366" 
d="M651 1260q-62 0 -102.5 40t-40.5 101q0 60 40.5 98.5t102.5 38.5q57 0 98.5 -40t41.5 -97q0 -61 -41 -101t-99 -40zM1020 954v144h194v-985q0 -266 -159 -422q-161 -158 -428 -158q-268 0 -486 156l92 155q180 -133 392 -133q180 0 288 105q107 101 107 264v90
q-147 -172 -385 -172t-393 162q-158 166 -158 403q0 242 162 400q161 161 399 161q228 0 375 -170zM389 285q108 -111 268 -111q161 0 269 111q106 109 106 276q0 169 -106 275q-107 110 -269 110q-161 0 -268 -110q-106 -106 -106 -275q0 -167 106 -276z" />
    <glyph glyph-name="Gcommaaccent" unicode="&#x122;" horiz-adv-x="1662" 
d="M856 688v189h698v-580q-276 -320 -686 -320q-333 0 -555 222q-219 222 -219 557q0 341 230 561q229 223 557 223q188 0 357 -76t273 -202l-145 -134q-192 213 -483 213q-246 0 -414 -165q-166 -166 -166 -422q0 -250 166 -416q167 -164 408 -164q134 0 262 57t223 156
v301h-506zM879 -78q62 0 102.5 -43.5t40.5 -109.5q0 -173 -256 -340l-66 90q133 102 162 151h-4q-47 0 -81 35.5t-34 85.5q0 54 39.5 92.5t96.5 38.5z" />
    <glyph glyph-name="gcommaaccent" unicode="&#x123;" horiz-adv-x="1366" 
d="M651 1227q-60 0 -100.5 43.5t-40.5 109.5q0 175 254 338l65 -90q-131 -101 -161 -151h4q44 0 79 -36t35 -83q0 -54 -39 -92.5t-96 -38.5zM1020 954v144h194v-985q0 -266 -159 -422q-161 -158 -428 -158q-268 0 -486 156l92 155q180 -133 392 -133q180 0 288 105
q107 101 107 264v90q-147 -172 -385 -172t-393 162q-158 166 -158 403q0 242 162 400q161 161 399 161q228 0 375 -170zM389 285q108 -111 268 -111q161 0 269 111q106 109 106 276q0 169 -106 275q-107 110 -269 110q-161 0 -268 -110q-106 -106 -106 -275q0 -167 106 -276
z" />
    <glyph glyph-name="Hcircumflex" unicode="&#x124;" horiz-adv-x="1552" 
d="M631 1622h-211l289 338h141l289 -338h-213l-148 186zM397 0h-207v1513h207v-639h760v639h205v-1513h-205v678h-760v-678z" />
    <glyph glyph-name="hcircumflex" unicode="&#x125;" horiz-adv-x="1263" 
d="M102 1624h-211l289 338h142l288 -338h-213l-147 186zM350 0h-196v1550h190v-587q52 75 144.5 119t203.5 44q183 0 307 -118q125 -119 125 -342v-666h-194v610q0 158 -76 246t-203 88q-133 0 -217 -93t-84 -241v-610z" />
    <glyph glyph-name="Hbar" unicode="&#x126;" horiz-adv-x="1628" 
d="M1382 1266h191v-168h-191v-1098h-204v678h-760v-678h-207v1098h-191v168h191v247h207v-247h760v247h204v-247zM418 874h760v224h-760v-224z" />
    <glyph glyph-name="hbar" unicode="&#x127;" horiz-adv-x="1263" 
d="M692 1126q183 0 307 -118q125 -119 125 -342v-666h-194v610q0 158 -76 246t-203 88q-133 0 -217 -93t-84 -241v-610h-196v1219h-134v141h134v190h190v-190h369v-141h-369v-256q52 75 144.5 119t203.5 44z" />
    <glyph glyph-name="Itilde" unicode="&#x128;" horiz-adv-x="585" 
d="M39 1673l-127 60q26 93 90.5 144.5t151.5 51.5q69 0 155 -45q89 -45 131 -45q75 0 119 92l123 -57q-24 -93 -88 -145t-150 -52q-67 0 -153 45q-89 47 -129 47q-76 0 -123 -96zM197 0v1513h204v-1513h-204z" />
    <glyph glyph-name="itilde" unicode="&#x129;" horiz-adv-x="501" 
d="M-6 1288l-127 60q26 93 90.5 144.5t151.5 51.5q69 0 155 -45t129 -45q75 0 119 92l123 -57q-24 -93 -88 -145t-150 -52q-67 0 -153 45q-89 47 -129 47q-74 0 -121 -96zM348 1098v-1098h-196v1098h196z" />
    <glyph glyph-name="Imacron" unicode="&#x12a;" horiz-adv-x="585" 
d="M647 1698l-694 -2v176h694v-174zM197 0v1513h204v-1513h-204z" />
    <glyph glyph-name="imacron" unicode="&#x12b;" horiz-adv-x="501" 
d="M567 1305l-628 -2v176h628v-174zM348 1098v-1098h-196v1098h196z" />
    <glyph glyph-name="Ibreve" unicode="&#x12c;" horiz-adv-x="585" 
d="M297 1614q-159 0 -256.5 96t-101.5 260h170q1 -96 52 -150.5t136 -54.5q87 0 138 54.5t52 150.5h170q-1 -163 -100 -259.5t-260 -96.5zM197 0v1513h204v-1513h-204z" />
    <glyph glyph-name="ibreve" unicode="&#x12d;" horiz-adv-x="501" 
d="M-104 1614h167q1 -96 51.5 -149.5t137.5 -53.5t137 53.5t51 149.5h170q-3 -166 -102 -258q-101 -96 -256 -96q-158 0 -254.5 96.5t-101.5 257.5zM348 1098v-1098h-196v1098h196z" />
    <glyph glyph-name="Iogonek" unicode="&#x12e;" horiz-adv-x="585" 
d="M354 -334l76 -139q-92 -59 -194 -59q-108 0 -174 63t-66 162q0 178 217 307h-18v1513h204v-1513q-99 -43 -163 -116t-64 -142q0 -44 27 -72t71 -28q40 0 84 24z" />
    <glyph glyph-name="iogonek" unicode="&#x12f;" horiz-adv-x="501" 
d="M254 1253q-62 0 -102.5 40.5t-40.5 101.5q0 60 40.5 98.5t102.5 38.5q57 0 98 -40t41 -97q0 -61 -40.5 -101.5t-98.5 -40.5zM221 -358q41 0 84 24l76 -139q-92 -59 -195 -59q-108 0 -173.5 63t-65.5 162q0 178 217 307h-12v1098h196v-1098h2q-99 -43 -163 -116t-64 -142
q0 -44 27 -72t71 -28z" />
    <glyph glyph-name="Idot" unicode="&#x130;" horiz-adv-x="585" 
d="M309 1632q-62 0 -102.5 40.5t-40.5 101.5q0 60 40.5 98.5t102.5 38.5q57 0 98.5 -40t41.5 -97q0 -61 -41 -101.5t-99 -40.5zM205 0v1513h205v-1513h-205z" />
    <glyph glyph-name="dotlessi" unicode="&#x131;" horiz-adv-x="501" 
d="M348 1098v-1098h-196v1098h196z" />
    <glyph glyph-name="IJ" unicode="&#x132;" horiz-adv-x="1720" 
d="M190 0v1513h205v-1513h-205zM1038 -25q-263 0 -434 195l125 149q122 -149 309 -149q136 0 218.5 87.5t82.5 244.5v1011h205v-1021q0 -246 -141 -381q-139 -136 -365 -136z" />
    <glyph glyph-name="ij" unicode="&#x133;" horiz-adv-x="1054" 
d="M254 1253q-62 0 -102.5 40.5t-40.5 101.5q0 60 40.5 98.5t102.5 38.5q57 0 98 -40t41 -97q0 -61 -40.5 -101.5t-98.5 -40.5zM799 1253q-62 0 -103 40.5t-41 101.5q0 60 41 98.5t103 38.5q57 0 98 -40t41 -97q0 -61 -40.5 -101.5t-98.5 -40.5zM348 1098v-1098h-196v1098
h196zM532 -469q-123 0 -194 45l39 164q82 -29 133 -29q188 0 188 226v1161h197v-1149q0 -200 -97 -309t-266 -109z" />
    <glyph glyph-name="Jcircumflex" unicode="&#x134;" horiz-adv-x="1142" 
d="M715 1622h-211l289 338h141l289 -338h-213l-148 186zM461 -25q-263 0 -434 195l125 149q122 -149 309 -149q136 0 218.5 87.5t82.5 244.5v1011h205v-1021q0 -245 -142 -381q-139 -136 -364 -136z" />
    <glyph glyph-name="jcircumflex" unicode="&#x135;" horiz-adv-x="550" 
d="M150 1268h-209l286 336h142l286 -336h-211l-147 184zM35 -469q-124 0 -195 45l39 164q82 -29 133 -29q189 0 189 226v1161h196v-1149q0 -200 -96.5 -309t-265.5 -109z" />
    <glyph glyph-name="Kcommaaccent" unicode="&#x136;" horiz-adv-x="1363" 
d="M1333 1513l-598 -712l654 -801h-254l-533 664l-207 -244v-420h-205v1513h205v-823l695 823h243zM750 -68q62 0 102.5 -43.5t40.5 -109.5q0 -173 -256 -340l-66 90q131 102 162 152h-4q-47 0 -81 35.5t-34 84.5q0 54 39.5 92.5t96.5 38.5z" />
    <glyph glyph-name="kcommaaccent" unicode="&#x137;" horiz-adv-x="1116" 
d="M1106 1098l-514 -461l532 -637h-258l-413 512l-105 -94v-418h-196v1550h196v-897l492 445h266zM586 -35q60 0 100.5 -43.5t40.5 -109.5q0 -175 -254 -338l-65 90q131 101 161 151h-4q-44 0 -79 36t-35 83q0 54 39 92.5t96 38.5z" />
    <glyph glyph-name="kgreenlandic" unicode="&#x138;" horiz-adv-x="1112" 
d="M1114 0h-250l-409 510l-107 -96v-414h-196v1098h196v-449l492 449h264l-508 -461z" />
    <glyph glyph-name="Lacute" unicode="&#x139;" horiz-adv-x="1234" 
d="M379 1624h-172l121 344h241zM1208 0h-1018v1513h205v-1314h813v-199z" />
    <glyph glyph-name="lacute" unicode="&#x13a;" horiz-adv-x="497" 
d="M336 1628h-172l121 344h241zM348 1550v-1550h-196v1550h196z" />
    <glyph glyph-name="Lcommaaccent" unicode="&#x13b;" horiz-adv-x="1234" 
d="M395 1513v-1314h813v-199h-1018v1513h205zM713 -70q62 0 102.5 -43.5t40.5 -109.5q0 -173 -256 -340l-65 90q131 101 161 151h-4q-47 0 -80.5 35.5t-33.5 85.5q0 54 39 92.5t96 38.5z" />
    <glyph glyph-name="lcommaaccent" unicode="&#x13c;" horiz-adv-x="501" 
d="M156 1550h196v-1550h-196v1550zM250 -82q60 0 100.5 -44t40.5 -110q0 -174 -254 -337l-65 90q131 101 161 151h-4q-44 0 -79 36t-35 83q0 54 39 92.5t96 38.5z" />
    <glyph glyph-name="Lcaron" unicode="&#x13d;" horiz-adv-x="1247" 
d="M1006 1272h-164l114 342h218zM1208 0h-1018v1513h205v-1314h813v-199z" />
    <glyph glyph-name="lcaron" unicode="&#x13e;" horiz-adv-x="559" 
d="M584 1274h-164l115 342h217zM348 1550v-1550h-196v1550h196z" />
    <glyph glyph-name="Ldot" unicode="&#x13f;" horiz-adv-x="1241" 
d="M1208 0h-1018v1513h205v-1314h813v-199zM780 803q0 54 37.5 90.5t93.5 36.5t93.5 -36.5t37.5 -90.5q0 -57 -37.5 -95t-93.5 -38t-93.5 38t-37.5 95z" />
    <glyph glyph-name="ldot" unicode="&#x140;" horiz-adv-x="731" 
d="M348 1550v-1550h-196v1550h196zM485 745q0 54 37.5 90.5t93.5 36.5t94 -36.5t38 -90.5q0 -57 -38 -95t-94 -38t-93.5 38t-37.5 95z" />
    <glyph glyph-name="Lslash" unicode="&#x141;" horiz-adv-x="1253" 
d="M414 729v-530h813v-199h-1018v594l-152 -100v196l152 101v722h205v-585l233 155v-198z" />
    <glyph glyph-name="lslash" unicode="&#x142;" horiz-adv-x="622" 
d="M406 948l139 103v-199l-139 -102v-750h-197v604l-123 -90v197l123 90v749h197v-602z" />
    <glyph glyph-name="Nacute" unicode="&#x143;" horiz-adv-x="1597" 
d="M866 1624h-172l121 344h242zM1204 434v1079h203v-1513h-107l-907 1073v-1073h-203v1513h93z" />
    <glyph glyph-name="nacute" unicode="&#x144;" horiz-adv-x="1265" 
d="M709 1276h-170l120 342h240zM348 0h-196v1098h192v-156q105 184 348 184q185 0 309 -118q125 -119 125 -342v-666h-194v610q0 157 -77 245.5t-204 88.5q-134 0 -219 -94q-84 -96 -84 -242v-608z" />
    <glyph glyph-name="Ncommaaccent" unicode="&#x145;" horiz-adv-x="1597" 
d="M1204 434v1079h203v-1513h-107l-907 1073v-1073h-203v1513h93zM821 -51q62 0 103 -44t41 -110q0 -173 -256 -340l-66 90q131 102 162 152h-4q-47 0 -81 35.5t-34 85.5q0 54 39 92.5t96 38.5z" />
    <glyph glyph-name="ncommaaccent" unicode="&#x146;" horiz-adv-x="1265" 
d="M692 1126q185 0 309 -118q125 -119 125 -342v-666h-194v610q0 157 -77 245.5t-204 88.5q-134 0 -219 -94q-84 -96 -84 -242v-608h-196v1098h192v-156q105 184 348 184zM655 -57q60 0 101 -44t41 -110q0 -175 -254 -338l-66 90q131 102 162 152h-4q-45 0 -80 36t-35 83
q0 54 39 92.5t96 38.5z" />
    <glyph glyph-name="Ncaron" unicode="&#x147;" horiz-adv-x="1597" 
d="M745 1626l-286 336h209l147 -184l148 184h211l-287 -336h-142zM1204 434v1079h203v-1513h-107l-907 1073v-1073h-203v1513h93z" />
    <glyph glyph-name="ncaron" unicode="&#x148;" horiz-adv-x="1265" 
d="M578 1276l-287 336h209l147 -185l148 185h211l-287 -336h-141zM348 0h-196v1098h192v-156q105 184 348 184q185 0 309 -118q125 -119 125 -342v-666h-194v610q0 157 -77 245.5t-204 88.5q-134 0 -219 -94q-84 -96 -84 -242v-608z" />
    <glyph glyph-name="napostrophe" unicode="&#x149;" horiz-adv-x="1318" 
d="M109 1272h-164l114 342h217zM401 0h-196v1098h192v-156q105 184 348 184q186 0 310 -118q125 -119 125 -342v-666h-195v610q0 157 -76.5 245.5t-203.5 88.5q-135 0 -220 -94q-84 -96 -84 -242v-608z" />
    <glyph glyph-name="Eng" unicode="&#x14a;" horiz-adv-x="1597" 
d="M1204 406v1107h203v-1509q0 -243 -141 -381q-140 -137 -355 -137q-161 0 -301 88l80 174q103 -65 219 -65q132 0 213.5 86t81.5 241v80l-811 985v-1075h-203v1513h93z" />
    <glyph glyph-name="eng" unicode="&#x14b;" horiz-adv-x="1263" 
d="M688 -461l8 178q234 -18 234 222v690q0 150 -74 232.5t-201 82.5q-135 0 -221 -94t-86 -242v-608h-196v1098h190v-140q52 76 144.5 122t203.5 46q183 0 309 -120q125 -119 125 -342v-721q0 -221 -113 -325.5t-323 -78.5z" />
    <glyph glyph-name="Omacron" unicode="&#x14c;" horiz-adv-x="1751" 
d="M1219 1663l-695 -2v176h695v-174zM92 748q0 331 230 561q231 231 552 231q322 0 553 -231q232 -232 232 -553t-232 -553q-231 -228 -559 -228q-329 0 -553 224q-223 223 -223 549zM1446 754q0 248 -166 417q-165 168 -406 168q-236 0 -403 -170q-166 -169 -166 -415
q0 -244 164 -414q163 -166 405 -166q243 0 406 166q166 166 166 414z" />
    <glyph glyph-name="omacron" unicode="&#x14d;" horiz-adv-x="1320" 
d="M977 1303l-629 -3v177h629v-174zM662 -27q-253 0 -416 166q-162 168 -162 412q0 242 162 407q162 168 416 168q249 0 411 -168q164 -170 164 -407q0 -242 -164 -412q-163 -166 -411 -166zM1040 551q0 163 -110 276q-111 117 -268 117q-158 0 -269 -117
q-110 -113 -110 -276q0 -165 110 -281t269 -116q158 0 268 116t110 281z" />
    <glyph glyph-name="Obreve" unicode="&#x14e;" horiz-adv-x="1751" 
d="M883 1608q-159 0 -257 96t-102 260h170q1 -96 52.5 -150.5t136.5 -54.5q87 0 138 54.5t52 150.5h170q-1 -163 -100 -259.5t-260 -96.5zM92 748q0 331 230 561q231 231 552 231q322 0 553 -231q232 -232 232 -553t-232 -553q-231 -228 -559 -228q-329 0 -553 224
q-223 223 -223 549zM1446 754q0 248 -166 417q-165 168 -406 168q-236 0 -403 -170q-166 -169 -166 -415q0 -244 164 -414q163 -166 405 -166q243 0 406 166q166 166 166 414z" />
    <glyph glyph-name="obreve" unicode="&#x14f;" horiz-adv-x="1320" 
d="M307 1614h168q1 -96 51.5 -149.5t137.5 -53.5t137 53.5t51 149.5h170q-3 -166 -102 -258q-101 -96 -256 -96q-158 0 -255 96.5t-102 257.5zM662 -27q-253 0 -416 166q-162 168 -162 412q0 242 162 407q162 168 416 168q249 0 411 -168q164 -170 164 -407
q0 -242 -164 -412q-163 -166 -411 -166zM1040 551q0 163 -110 276q-111 117 -268 117q-158 0 -269 -117q-110 -113 -110 -276q0 -165 110 -281t269 -116q158 0 268 116t110 281z" />
    <glyph glyph-name="Ohungarumlaut" unicode="&#x150;" horiz-adv-x="1751" 
d="M788 1628h-167l84 344h241zM1151 1628h-168l98 344h244zM92 748q0 331 230 561q231 231 552 231q322 0 553 -231q232 -232 232 -553t-232 -553q-231 -228 -559 -228q-329 0 -553 224q-223 223 -223 549zM1446 754q0 248 -166 417q-165 168 -406 168q-236 0 -403 -170
q-166 -169 -166 -415q0 -244 164 -414q163 -166 405 -166q243 0 406 166q166 166 166 414z" />
    <glyph glyph-name="ohungarumlaut" unicode="&#x151;" horiz-adv-x="1320" 
d="M569 1274h-166l84 342h240zM930 1274h-166l98 342h242zM662 -27q-253 0 -416 166q-162 168 -162 412q0 242 162 407q162 168 416 168q249 0 411 -168q164 -170 164 -407q0 -242 -164 -412q-163 -166 -411 -166zM1040 551q0 163 -110 276q-111 117 -268 117
q-158 0 -269 -117q-110 -113 -110 -276q0 -165 110 -281t269 -116q158 0 268 116t110 281z" />
    <glyph glyph-name="OE" unicode="&#x152;" horiz-adv-x="2011" 
d="M1896 1513v-194h-737v-453h682v-194h-682v-477h737v-195h-933q-94 -4 -101 -4q-386 0 -573 205t-187 553t183 555q185 209 559 209q11 0 45 -2t55 -3h952zM315 758q0 -93 17 -174t57.5 -154.5t102.5 -126t156.5 -83t213.5 -30.5q9 0 22.5 1t33.5 2t36 2v1124q-82 4 -92 4
q-119 0 -213.5 -31t-156.5 -83t-102.5 -125t-57.5 -153.5t-17 -172.5z" />
    <glyph glyph-name="oe" unicode="&#x153;" horiz-adv-x="2199" 
d="M2120 569q0 -21 -6 -100h-875q26 -146 122.5 -229.5t262.5 -83.5q98 0 203 33.5t180 89.5l84 -150q-86 -67 -213 -110.5t-258 -43.5q-334 0 -490 234q-79 -112 -201 -174t-270 -62q-250 0 -413 166q-162 168 -162 412q0 240 162 405q162 168 413 168q148 0 270 -62
t201 -173q74 111 193.5 173t265.5 62q235 0 381 -149q150 -150 150 -406zM1239 639h678q-7 141 -99 226t-229 85q-134 0 -229.5 -86.5t-120.5 -224.5zM1034 551q0 160 -108 274q-109 115 -267 115q-157 0 -266 -115q-108 -114 -108 -274q0 -162 108 -279q108 -114 266 -114
q159 0 267 114q108 117 108 279z" />
    <glyph glyph-name="Racute" unicode="&#x154;" horiz-adv-x="1312" 
d="M635 1968h242l-191 -344h-172zM1249 0h-252l-393 614h-209v-614h-205v1513h515q227 0 350 -135q125 -131 125 -315q0 -154 -94 -274.5t-259 -157.5zM707 1319h-312v-512h271q148 0 226.5 72t78.5 186q0 112 -70 183t-194 71z" />
    <glyph glyph-name="racute" unicode="&#x155;" horiz-adv-x="813" 
d="M535 1276h-170l120 342h240zM348 0h-196v1098h186v-162q94 190 315 190q60 0 129 -16l-18 -190q-58 18 -115 18q-135 0 -218 -92t-83 -264v-582z" />
    <glyph glyph-name="Rcommaaccent" unicode="&#x156;" horiz-adv-x="1312" 
d="M827 631l422 -631h-252l-393 614h-209v-614h-205v1513h515q227 0 350 -135q125 -131 125 -315q0 -154 -94 -274.5t-259 -157.5zM707 1319h-312v-512h271q148 0 226.5 72t78.5 186q0 112 -70 183t-194 71zM686 -55q61 0 102 -44t41 -110q0 -173 -256 -340l-65 90
q131 102 162 152h-4q-47 0 -81 35.5t-34 85.5q0 54 39 92.5t96 38.5z" />
    <glyph glyph-name="rcommaaccent" unicode="&#x157;" horiz-adv-x="815" 
d="M655 1126q60 0 129 -16l-18 -190q-59 18 -115 18q-135 0 -218 -92t-83 -264v-582h-196v1098h186v-162q94 190 315 190zM250 -80q60 0 100.5 -43.5t40.5 -109.5q0 -175 -254 -338l-65 90q131 101 161 151h-4q-44 0 -79 36t-35 83q0 54 39 92.5t96 38.5z" />
    <glyph glyph-name="Rcaron" unicode="&#x158;" horiz-adv-x="1312" 
d="M989 1962l-287 -336h-141l-287 336h209l148 -184l147 184h211zM1249 0h-252l-393 614h-209v-614h-205v1513h515q227 0 350 -135q125 -131 125 -315q0 -154 -94 -274.5t-259 -157.5zM707 1319h-312v-512h271q148 0 226.5 72t78.5 186q0 112 -70 183t-194 71z" />
    <glyph glyph-name="rcaron" unicode="&#x159;" horiz-adv-x="813" 
d="M387 1276l-287 336h209l148 -185l147 185h211l-287 -336h-141zM350 0h-196v1098h186v-162q94 190 315 190q60 0 129 -16l-18 -190q-59 18 -115 18q-135 0 -218 -92t-83 -264v-582z" />
    <glyph glyph-name="Sacute" unicode="&#x15a;" horiz-adv-x="1153" 
d="M651 1624h-172l121 344h242zM571 -25q-168 0 -306 81.5t-210 230.5l152 125q60 -119 154.5 -180.5t207.5 -61.5q126 0 202.5 65t76.5 164q0 121 -158 211q-45 23 -155 74t-170 86q-228 144 -228 360q0 175 125 291q125 119 332 119q282 0 444 -223l-137 -131
q-122 162 -305 162q-104 0 -172 -57t-68 -148q0 -119 129 -195q58 -34 177 -90q121 -56 190 -96q219 -133 219 -352q0 -195 -143 -314q-142 -121 -357 -121z" />
    <glyph glyph-name="sacute" unicode="&#x15b;" horiz-adv-x="927" 
d="M555 1276h-170l121 342h239zM459 -25q-127 0 -237 61.5t-171 176.5l142 109q46 -85 119.5 -130t152.5 -45q86 0 140 44t54 108q0 88 -100 139q-38 20 -137 62t-135 61q-168 91 -168 266q0 135 98 220q98 88 260 88q107 0 200.5 -45t147.5 -129l-125 -119
q-89 127 -235 127q-72 0 -115 -38t-43 -95q0 -85 92 -129l121 -54q101 -41 148 -67q186 -94 186 -277q0 -143 -111 -237q-114 -97 -284 -97z" />
    <glyph glyph-name="Scircumflex" unicode="&#x15c;" horiz-adv-x="1153" 
d="M459 1622h-211l289 338h141l289 -338h-213l-148 186zM571 -25q-168 0 -306 81.5t-210 230.5l152 125q60 -119 154.5 -180.5t207.5 -61.5q126 0 202.5 65t76.5 164q0 121 -158 211q-45 23 -155 74t-170 86q-228 144 -228 360q0 175 125 291q125 119 332 119
q282 0 444 -223l-137 -131q-122 162 -305 162q-104 0 -172 -57t-68 -148q0 -119 129 -195q58 -34 177 -90q121 -56 190 -96q219 -133 219 -352q0 -195 -143 -314q-142 -121 -357 -121z" />
    <glyph glyph-name="scircumflex" unicode="&#x15d;" horiz-adv-x="927" 
d="M326 1274h-209l286 336h142l286 -336h-210l-148 184zM459 -25q-127 0 -237 61.5t-171 176.5l142 109q46 -85 119.5 -130t152.5 -45q86 0 140 44t54 108q0 88 -100 139q-38 20 -137 62t-135 61q-168 91 -168 266q0 135 98 220q98 88 260 88q107 0 200.5 -45t147.5 -129
l-125 -119q-89 127 -235 127q-72 0 -115 -38t-43 -95q0 -85 92 -129l121 -54q101 -41 148 -67q186 -94 186 -277q0 -143 -111 -237q-114 -97 -284 -97z" />
    <glyph glyph-name="Scedilla" unicode="&#x15e;" horiz-adv-x="1153" 
d="M1071 410q0 -177 -123 -297q-124 -118 -315 -136l-31 -75h16q90 0 150.5 -51.5t60.5 -137.5q0 -97 -71 -162t-195 -65q-106 0 -233 59l51 129q87 -43 166 -43q56 0 87.5 25.5t31.5 64.5q0 74 -107 74h-115l-18 45l55 142q-139 19 -251.5 98.5t-174.5 206.5l152 125
q60 -119 154.5 -180.5t207.5 -61.5q126 0 202.5 65t76.5 164q0 121 -158 211q-45 23 -155 74t-170 86q-228 144 -228 360q0 175 125 291q125 119 332 119q282 0 444 -223l-137 -131q-122 162 -305 162q-104 0 -172 -57t-68 -148q0 -119 129 -195q58 -34 177 -90
q121 -56 190 -96q219 -133 219 -352z" />
    <glyph glyph-name="scedilla" unicode="&#x15f;" horiz-adv-x="927" 
d="M854 309q0 -131 -98 -225q-100 -95 -254 -107l-31 -75h16q90 0 150.5 -51.5t60.5 -137.5q0 -97 -71 -162t-195 -65q-106 0 -233 59l51 129q87 -43 166 -43q56 0 87.5 25.5t31.5 64.5q0 74 -107 74h-115l-18 45l57 148q-202 40 -301 225l142 109q46 -85 119.5 -130
t152.5 -45q86 0 140 44t54 108q0 88 -100 139q-38 20 -137 62t-135 61q-168 91 -168 266q0 135 98 220q98 88 260 88q107 0 200.5 -45t147.5 -129l-125 -119q-89 127 -235 127q-72 0 -115 -38t-43 -95q0 -85 92 -129l121 -54q101 -41 148 -67q186 -94 186 -277z" />
    <glyph glyph-name="Scaron" unicode="&#x160;" horiz-adv-x="1153" 
d="M545 1626l-287 336h209l147 -184l148 184h211l-287 -336h-141zM571 -25q-168 0 -306 81.5t-210 230.5l152 125q60 -119 154.5 -180.5t207.5 -61.5q126 0 202.5 65t76.5 164q0 121 -158 211q-45 23 -155 74t-170 86q-228 144 -228 360q0 175 125 291q125 119 332 119
q282 0 444 -223l-137 -131q-122 162 -305 162q-104 0 -172 -57t-68 -148q0 -119 129 -195q58 -34 177 -90q121 -56 190 -96q219 -133 219 -352q0 -195 -143 -314q-142 -121 -357 -121z" />
    <glyph glyph-name="scaron" unicode="&#x161;" horiz-adv-x="927" 
d="M406 1276l-287 336h209l147 -185l148 185h211l-287 -336h-141zM459 -25q-127 0 -237 61.5t-171 176.5l142 109q46 -85 119.5 -130t152.5 -45q86 0 140 44t54 108q0 88 -100 139q-38 20 -137 62t-135 61q-168 91 -168 266q0 135 98 220q98 88 260 88q107 0 200.5 -45
t147.5 -129l-125 -119q-89 127 -235 127q-72 0 -115 -38t-43 -95q0 -85 92 -129l121 -54q101 -41 148 -67q186 -94 186 -277q0 -143 -111 -237q-114 -97 -284 -97z" />
    <glyph glyph-name="Tcaron" unicode="&#x164;" horiz-adv-x="1159" 
d="M510 1626l-287 336h209l148 -184l147 184h211l-287 -336h-141zM477 0v1315h-448v198h1101v-198h-448v-1315h-205z" />
    <glyph glyph-name="tcaron" unicode="&#x165;" horiz-adv-x="878" 
d="M752 1618h217l-168 -342h-164zM598 154q97 0 197 63l73 -151q-122 -93 -293 -93q-172 0 -261 107t-89 305v545h-194v168h196v389h193v-389h389v-168h-389v-559q0 -217 178 -217z" />
    <glyph glyph-name="Tbar" unicode="&#x166;" horiz-adv-x="1218" 
d="M1159 1513v-198h-448v-430h323v-176h-323v-709h-205v709h-318v176h318v430h-449v198h1102z" />
    <glyph glyph-name="tbar" unicode="&#x167;" horiz-adv-x="890" 
d="M807 217l74 -151q-122 -93 -293 -93q-172 0 -261 107t-89 305v166h-193v166h193v213h-195v168h197v389h192v-389h389v-168h-389v-213h383v-166h-383v-180q0 -217 178 -217q97 0 197 63z" />
    <glyph glyph-name="Utilde" unicode="&#x168;" horiz-adv-x="1445" 
d="M471 1638l-127 60q26 93 90.5 144.5t151.5 51.5q69 0 155 -45q89 -45 131 -45q75 0 119 92l123 -57q-25 -93 -88 -145t-149 -52q-66 0 -154 46q-89 47 -129 47q-75 0 -123 -97zM174 510v1003h205v-966q0 -180 89.5 -276.5t254.5 -96.5q162 0 252 98t90 275v966h207v-1003
q0 -247 -152 -393q-150 -144 -397 -144t-397 144q-152 146 -152 393z" />
    <glyph glyph-name="utilde" unicode="&#x169;" horiz-adv-x="1218" 
d="M354 1280l-127 59q26 93 90.5 145t151.5 52q70 0 156 -45t129 -45q74 0 118 92l123 -57q-25 -93 -88 -145t-149 -52q-68 0 -154 45q-89 47 -129 47q-74 0 -121 -96zM608 -27q-215 0 -343 127t-128 342v656h197v-649q0 -136 73 -214.5t201 -78.5q130 0 203.5 78.5
t73.5 214.5v649h194v-656q0 -220 -125.5 -344.5t-345.5 -124.5z" />
    <glyph glyph-name="Umacron" unicode="&#x16a;" horiz-adv-x="1445" 
d="M1067 1663l-694 -2v176h694v-174zM174 510v1003h205v-966q0 -180 89.5 -276.5t254.5 -96.5q162 0 252 98t90 275v966h207v-1003q0 -247 -152 -393q-150 -144 -397 -144t-397 144q-152 146 -152 393z" />
    <glyph glyph-name="umacron" unicode="&#x16b;" horiz-adv-x="1218" 
d="M924 1305l-629 -2v176h629v-174zM608 -27q-215 0 -343 127t-128 342v656h197v-649q0 -136 73 -214.5t201 -78.5q130 0 203.5 78.5t73.5 214.5v649h194v-656q0 -220 -125.5 -344.5t-345.5 -124.5z" />
    <glyph glyph-name="Ubreve" unicode="&#x16c;" horiz-adv-x="1445" 
d="M723 1608q-159 0 -256.5 96t-101.5 260h170q1 -96 52 -150.5t136 -54.5q87 0 138 54.5t52 150.5h170q-1 -163 -100 -259.5t-260 -96.5zM174 510v1003h205v-966q0 -180 89.5 -276.5t254.5 -96.5q162 0 252 98t90 275v966h207v-1003q0 -247 -152 -393q-150 -144 -397 -144
t-397 144q-152 146 -152 393z" />
    <glyph glyph-name="ubreve" unicode="&#x16d;" horiz-adv-x="1218" 
d="M254 1614h168q1 -96 51 -149.5t137 -53.5t137.5 53.5t51.5 149.5h170q-3 -165 -103 -258q-101 -96 -256 -96q-158 0 -254.5 96.5t-101.5 257.5zM608 -27q-215 0 -343 127t-128 342v656h197v-649q0 -136 73 -214.5t201 -78.5q130 0 203.5 78.5t73.5 214.5v649h194v-656
q0 -220 -125.5 -344.5t-345.5 -124.5z" />
    <glyph glyph-name="Uring" unicode="&#x16e;" horiz-adv-x="1445" 
d="M725 1599q-103 0 -172.5 67t-69.5 165q0 97 70 164t172 67q101 0 168 -67q70 -67 70 -164q0 -98 -69 -165t-169 -67zM725 1720q45 0 77 33t32 82q0 43 -33 75t-76 32q-47 0 -80 -31.5t-33 -75.5q0 -49 32.5 -82t80.5 -33zM174 510v1003h205v-966q0 -180 89.5 -276.5
t254.5 -96.5q162 0 252 98t90 275v966h207v-1003q0 -247 -152 -393q-150 -144 -397 -144t-397 144q-152 146 -152 393z" />
    <glyph glyph-name="uring" unicode="&#x16f;" horiz-adv-x="1218" 
d="M778 1274q-69 -66 -168 -66q-98 0 -170 66q-69 66 -69 164t69 164q70 67 170 67q101 0 168 -67q70 -67 70 -164t-70 -164zM610 1329q45 0 77 32t32 81q0 42 -33 74t-76 32q-47 0 -79.5 -31t-32.5 -75q0 -49 32 -81t80 -32zM608 -27q-215 0 -343 127t-128 342v656h197
v-649q0 -136 73 -214.5t201 -78.5q130 0 203.5 78.5t73.5 214.5v649h194v-656q0 -220 -125.5 -344.5t-345.5 -124.5z" />
    <glyph glyph-name="Uhungarumlaut" unicode="&#x170;" horiz-adv-x="1445" 
d="M621 1628h-168l84 344h241zM983 1628h-168l98 344h244zM174 510v1003h205v-966q0 -180 89.5 -276.5t254.5 -96.5q162 0 252 98t90 275v966h207v-1003q0 -247 -152 -393q-150 -144 -397 -144t-397 144q-152 146 -152 393z" />
    <glyph glyph-name="uhungarumlaut" unicode="&#x171;" horiz-adv-x="1216" 
d="M496 1274h-166l84 342h239zM856 1274h-166l98 342h242zM608 -27q-215 0 -343 127t-128 342v656h197v-649q0 -136 73 -214.5t201 -78.5q130 0 203.5 78.5t73.5 214.5v649h194v-656q0 -220 -125.5 -344.5t-345.5 -124.5z" />
    <glyph glyph-name="Uogonek" unicode="&#x172;" horiz-adv-x="1445" 
d="M1065 547v966h207v-1003q0 -189 -89.5 -321t-248.5 -183q-94 -44 -153.5 -114.5t-59.5 -137.5q0 -44 27 -72t71 -28q41 0 84 24l76 -139q-92 -59 -195 -59q-108 0 -173.5 63t-65.5 162q0 153 157 268q-239 6 -383 150q-145 145 -145 387v1003h205v-966
q0 -180 89.5 -276.5t254.5 -96.5q162 0 252 98t90 275z" />
    <glyph glyph-name="uogonek" unicode="&#x173;" horiz-adv-x="1218" 
d="M885 449v649h194v-656q0 -165 -73.5 -279t-208.5 -161q-99 -43 -163.5 -116t-64.5 -142q0 -44 27.5 -72t71.5 -28q40 0 84 24l75 -139q-92 -59 -194 -59q-108 0 -174 63t-66 162q0 158 174 280q-197 12 -313.5 138.5t-116.5 328.5v656h197v-649q0 -136 73 -214.5
t201 -78.5q130 0 203.5 78.5t73.5 214.5z" />
    <glyph glyph-name="Wcircumflex" unicode="&#x174;" horiz-adv-x="2107" 
d="M909 1622h-211l289 338h141l289 -338h-213l-147 186zM657 0h-114l-520 1513h217l364 -1107l402 1107h92l411 -1107l359 1107h215l-516 -1513h-113l-399 1130z" />
    <glyph glyph-name="wcircumflex" unicode="&#x175;" horiz-adv-x="1720" 
d="M713 1274h-209l287 336h141l287 -336h-211l-148 184zM561 2h-162l-376 1096h206l260 -824l299 824h138l311 -824l250 824h205l-367 -1096h-164l-303 821z" />
    <glyph glyph-name="Ycircumflex" unicode="&#x176;" horiz-adv-x="1308" 
d="M504 1622h-211l289 338h141l289 -338h-213l-148 186zM1047 1513h227l-518 -968v-545h-205v545l-512 968h227l387 -765z" />
    <glyph glyph-name="ycircumflex" unicode="&#x177;" horiz-adv-x="1136" 
d="M729 1268l-147 184l-148 -184h-209l287 336h141l287 -336h-211zM594 274l295 824h217l-461 -1221q-68 -182 -159 -263t-222 -81q-106 0 -176 43l25 172q73 -33 133 -33q135 0 217 193l41 96l-477 1094h227z" />
    <glyph glyph-name="Ydieresis" unicode="&#x178;" horiz-adv-x="1308" 
d="M473 1651q-56 0 -93.5 37t-37.5 92q0 51 38 87t93 36q51 0 87 -36t36 -87q0 -55 -36 -92t-87 -37zM840 1651q-56 0 -92.5 36.5t-36.5 92.5q0 51 37.5 87t91.5 36t89.5 -35.5t35.5 -87.5q0 -56 -35.5 -92.5t-89.5 -36.5zM1047 1513h227l-518 -968v-545h-205v545l-512 968
h227l387 -765z" />
    <glyph glyph-name="Zacute" unicode="&#x179;" horiz-adv-x="1265" 
d="M721 1624h-172l121 344h241zM1196 0h-1133v127l824 1194h-787v192h1074v-129l-816 -1191h838v-193z" />
    <glyph glyph-name="zacute" unicode="&#x17a;" horiz-adv-x="1040" 
d="M584 1276h-170l121 342h239zM952 981l-624 -813h643v-168h-910v125l627 803h-590v168h854v-115z" />
    <glyph glyph-name="Zdotaccent" unicode="&#x17b;" horiz-adv-x="1265" 
d="M647 1636q-62 0 -102.5 40.5t-40.5 101.5q0 60 40.5 98.5t102.5 38.5q57 0 98 -40t41 -97q0 -61 -40.5 -101.5t-98.5 -40.5zM1196 0h-1133v127l824 1194h-787v192h1074v-129l-816 -1191h838v-193z" />
    <glyph glyph-name="zdotaccent" unicode="&#x17c;" horiz-adv-x="1040" 
d="M541 1255q-62 0 -103 40.5t-41 101.5q0 60 41 98.5t103 38.5q57 0 98 -40t41 -97q0 -61 -40.5 -101.5t-98.5 -40.5zM952 981l-624 -813h643v-168h-910v125l627 803h-590v168h854v-115z" />
    <glyph glyph-name="Zcaron" unicode="&#x17d;" horiz-adv-x="1265" 
d="M580 1628l-287 336h209l147 -184l148 184h211l-287 -336h-141zM1196 0h-1133v127l824 1194h-787v192h1074v-129l-816 -1191h838v-193z" />
    <glyph glyph-name="zcaron" unicode="&#x17e;" horiz-adv-x="1040" 
d="M451 1276l-287 336h209l147 -185l148 185h211l-287 -336h-141zM952 981l-624 -813h643v-168h-910v125l627 803h-590v168h854v-115z" />
    <glyph glyph-name="Scommaaccent" unicode="&#x218;" horiz-adv-x="1153" 
d="M852 762q219 -133 219 -352q0 -195 -143 -314q-142 -121 -357 -121q-168 0 -306 81.5t-210 230.5l152 125q60 -119 154.5 -180.5t207.5 -61.5q126 0 202.5 65t76.5 164q0 121 -158 211q-45 23 -155 74t-170 86q-228 144 -228 360q0 175 125 291q125 119 332 119
q282 0 444 -223l-137 -131q-122 162 -305 162q-104 0 -172 -57t-68 -148q0 -119 129 -195q58 -34 177 -90q121 -56 190 -96zM573 -84q62 0 103 -44t41 -110q0 -173 -256 -340l-66 91q133 102 162 151h-4q-47 0 -81 35.5t-34 85.5q0 54 39 92.5t96 38.5z" />
    <glyph glyph-name="scommaaccent" unicode="&#x219;" horiz-adv-x="927" 
d="M668 586q186 -94 186 -277q0 -143 -111 -237q-114 -97 -284 -97q-127 0 -237 61.5t-171 176.5l142 109q46 -85 119.5 -130t152.5 -45q86 0 140 44t54 108q0 88 -100 139q-38 20 -137 62t-135 61q-168 91 -168 266q0 135 98 220q98 88 260 88q107 0 200.5 -45t147.5 -129
l-125 -119q-89 127 -235 127q-72 0 -115 -38t-43 -95q0 -85 92 -129l121 -54q101 -41 148 -67zM471 -98q60 0 100.5 -44t40.5 -110q0 -175 -254 -338l-65 90q131 102 162 152h-4q-45 0 -80 36t-35 83q0 54 39 92.5t96 38.5z" />
    <glyph glyph-name="uni021A" unicode="&#x21a;" horiz-adv-x="1159" 
d="M29 1315v198h1101v-198h-448v-1315h-205v1315h-448zM575 -57q62 0 103 -44t41 -110q0 -173 -256 -340l-66 90q131 102 162 152h-4q-47 0 -81 35.5t-34 85.5q0 54 39 92.5t96 38.5z" />
    <glyph glyph-name="uni021B" unicode="&#x21b;" horiz-adv-x="874" 
d="M795 217l73 -151q-122 -93 -293 -93q-172 0 -261 107t-89 305v545h-194v168h196v389h193v-389h389v-168h-389v-559q0 -217 178 -217q97 0 197 63zM547 -111q60 0 100.5 -43.5t40.5 -109.5q0 -175 -254 -338l-65 90q130 100 161 152h-4q-45 0 -79.5 35.5t-34.5 82.5
q0 54 39 92.5t96 38.5z" />
    <glyph glyph-name="uni0237" unicode="&#x237;" horiz-adv-x="550" 
d="M35 -469q-124 0 -195 45l39 164q82 -29 133 -29q189 0 189 226v1161h196v-1149q0 -200 -96.5 -309t-265.5 -109z" />
    <glyph glyph-name="circumflex" unicode="&#x2c6;" horiz-adv-x="1173" 
d="M287 1274h-209l287 336h141l287 -336h-211l-148 184z" />
    <glyph glyph-name="caron" unicode="&#x2c7;" horiz-adv-x="1124" 
d="M365 1278l-287 336h209l147 -184l148 184h211l-287 -336h-141z" />
    <glyph glyph-name="breve" unicode="&#x2d8;" horiz-adv-x="913" 
d="M82 1614h168q1 -96 51 -149.5t137 -53.5t137.5 53.5t51.5 149.5h170q-3 -165 -103 -258q-101 -96 -256 -96q-158 0 -254.5 96.5t-101.5 257.5z" />
    <glyph glyph-name="dotaccent" unicode="&#x2d9;" horiz-adv-x="614" 
d="M225 1260q-62 0 -102.5 40t-40.5 101q0 60 40.5 98.5t102.5 38.5q57 0 98.5 -40t41.5 -97q0 -61 -41 -101t-99 -40z" />
    <glyph glyph-name="ring" unicode="&#x2da;" horiz-adv-x="776" 
d="M489 1294q-68 -65 -167 -65t-170 65q-70 67 -70 164t70 164q71 68 170 68t167 -68q70 -67 70 -164t-70 -164zM322 1350q44 0 76 32t32 80q0 43 -32.5 75t-75.5 32q-47 0 -80 -31.5t-33 -75.5q0 -49 32.5 -80.5t80.5 -31.5z" />
    <glyph glyph-name="ogonek" unicode="&#x2db;" horiz-adv-x="786" 
d="M440 -334l76 -139q-92 -59 -194 -59q-108 0 -174 63t-66 162q0 204 283 342l120 -35q-99 -43 -163 -116t-64 -142q0 -44 27 -72t71 -28q40 0 84 24z" />
    <glyph glyph-name="tilde" unicode="&#x2dc;" horiz-adv-x="1107" 
d="M209 1325l-127 59q26 93 90.5 145t151.5 52q69 0 155 -45t129 -45q75 0 119 92l123 -57q-24 -93 -88 -145t-150 -52q-67 0 -153 45q-89 47 -129 47q-74 0 -121 -96z" />
    <glyph glyph-name="hungarumlaut" unicode="&#x2dd;" horiz-adv-x="1058" 
d="M268 1270h-166l84 342h240zM629 1270h-166l98 342h242z" />
    <glyph glyph-name="uni0394" unicode="&#x394;" horiz-adv-x="1507" 
d="M1458 0h-1411v147l627 1366h162l622 -1366v-147zM752 1284l-478 -1096h957z" />
    <glyph glyph-name="uni03A9" unicode="&#x3a9;" horiz-adv-x="1771" 
d="M772 0h-657v180h342q-157 89 -246 256q-88 169 -88 357q0 310 221 528q222 219 543 219q318 0 540 -219t222 -528q0 -190 -88 -359q-88 -165 -244 -254h340v-180h-660v172q195 70 316 238q121 171 121 374q0 240 -156 396q-157 157 -391 157q-238 0 -395 -157
q-156 -156 -156 -396q0 -206 119 -374q121 -168 317 -238v-172z" />
    <glyph glyph-name="uni03BC" unicode="&#x3bc;" horiz-adv-x="1271" 
d="M924 510v586h194v-1096h-184v162q-49 -87 -139 -136t-197 -49q-156 0 -250 107v-530h-196v1542h196v-631q0 -152 69.5 -229.5t198.5 -77.5q139 0 223.5 93.5t84.5 258.5z" />
    <glyph glyph-name="pi" unicode="&#x3c0;" horiz-adv-x="1273" 
d="M434 0h-196v926h-179v170h1155v-170h-180v-926h-194v926h-406v-926z" />
    <glyph glyph-name="uni0401" unicode="&#x401;" horiz-adv-x="1247" 
d="M485 1651q-56 0 -93.5 37t-37.5 92q0 51 38 87t93 36q51 0 87 -36t36 -87q0 -55 -36 -92t-87 -37zM852 1651q-56 0 -92.5 36.5t-36.5 92.5q0 51 37.5 87t91.5 36t89.5 -35.5t35.5 -87.5q0 -56 -35.5 -92.5t-89.5 -36.5zM1133 0h-943v1513h943v-194h-738v-453h682v-194
h-682v-477h738v-195z" />
    <glyph glyph-name="uni0410" unicode="&#x410;" horiz-adv-x="1380" 
d="M1354 0h-224l-153 393h-576l-153 -393h-223l612 1513h111zM907 586l-217 571l-219 -571h436z" />
    <glyph glyph-name="uni0411" unicode="&#x411;" horiz-adv-x="1327" 
d="M393 944h324q124 0 223.5 -32.5t159.5 -86.5q83 -75 118 -171.5t35 -190.5q0 -193 -135 -328q-132 -135 -381 -135h-547v1513h934v-190h-731v-379zM393 193h309q161 0 250.5 76.5t89.5 201.5q0 124 -83.5 202.5t-243.5 78.5h-322v-559z" />
    <glyph glyph-name="uni0412" unicode="&#x412;" horiz-adv-x="1376" 
d="M999 827q136 -37 210.5 -144.5t74.5 -248.5q0 -177 -125 -305q-123 -129 -344 -129h-625v1513h598q198 0 306 -114q110 -113 110 -264q0 -103 -56 -188t-149 -120zM762 1323h-369v-422h363q109 0 174 64.5t65 156.5q0 83 -64 142t-169 59zM393 193h389q136 0 211 75
q80 77 80 181q0 113 -80.5 189.5t-218.5 76.5h-381v-522z" />
    <glyph glyph-name="uni0413" unicode="&#x413;" horiz-adv-x="1112" 
d="M393 0h-203v1513h893v-192h-690v-1321z" />
    <glyph glyph-name="uni0414" unicode="&#x414;" horiz-adv-x="1560" 
d="M840 1513l497 -1325h160v-495h-201v307h-1032v-307h-203v495h162l500 1325h117zM780 1161l-340 -973h678z" />
    <glyph glyph-name="uni0415" unicode="&#x415;" horiz-adv-x="1247" 
d="M1133 0h-943v1513h943v-194h-738v-453h682v-194h-682v-477h738v-195z" />
    <glyph glyph-name="uni0416" unicode="&#x416;" horiz-adv-x="2039" 
d="M1997 190l10 -184q-73 -29 -145 -29q-157 0 -273 134q-53 61 -207 317l-6 10l-26 45q-22 41 -54 86q-24 37 -59 62q-26 26 -76 26h-39v-661h-204v661h-39q-47 0 -109 -51q-9 -9 -30 -40t-25 -36l-53 -92q-154 -262 -207 -323q-120 -135 -277 -138q-72 0 -145 29l10 184
q52 -18 109 -18q60 0 102 33q42 31 106 123q61 86 195 315q57 75 98 102q-41 29 -80 79.5t-61 97.5l-45 106l-39 88q-64 131 -106 176q-41 47 -123 47q-33 0 -86 -12l-33 176q62 33 141 33q154 0 230 -88q78 -87 192 -342q30 -69 33 -78l29 -67l28 -46q24 -34 50.5 -44
t91.5 -17q12 -1 18 -2h25v657h204v-657h25q73 7 103.5 17.5t54.5 45.5q6 9 11.5 18.5t10 18t6.5 11.5q5 8 29 65q6 16 13 30.5t13.5 28t8.5 19.5q113 253 190 342q79 88 232 88q77 0 139 -33l-31 -176q-59 12 -86 12q-81 0 -125 -47q-41 -47 -104 -176l-49 -115
q-81 -195 -162 -266q40 -29 84 -92q182 -313 250 -393q69 -78 151 -78q58 0 111 18z" />
    <glyph glyph-name="uni0417" unicode="&#x417;" horiz-adv-x="1224" 
d="M555 -25q-267 0 -512 154l88 168q228 -135 430 -135q157 0 253.5 74.5t96.5 193.5q0 118 -92.5 187t-247.5 69h-258v182h230q143 0 236 71t93 183q1 103 -83 166.5t-214 63.5q-187 0 -393 -138l-94 152q96 81 230 127.5t270 46.5q221 0 356 -117q135 -114 135 -284
q0 -118 -67.5 -206t-194.5 -130v-8q141 -31 222 -130.5t81 -242.5q0 -198 -153 -324q-153 -123 -412 -123z" />
    <glyph glyph-name="uni0418" unicode="&#x418;" horiz-adv-x="1595" 
d="M311 0h-121v1513h203v-1140l895 1140h115v-1513h-203v1135z" />
    <glyph glyph-name="uni0419" unicode="&#x419;" horiz-adv-x="1595" 
d="M813 1591q-236 0 -405 211l108 119q138 -166 297 -166q162 0 297 166l113 -119q-175 -211 -410 -211zM311 0h-121v1513h203v-1140l895 1140h115v-1513h-203v1135z" />
    <glyph glyph-name="uni041A" unicode="&#x41a;" horiz-adv-x="1363" 
d="M1389 0h-254l-533 664l-207 -244v-420h-205v1513h205v-823l695 823h243l-598 -712z" />
    <glyph glyph-name="uni041B" unicode="&#x41b;" horiz-adv-x="1314" 
d="M256 0h-225l571 1513h117l565 -1513h-223l-404 1137z" />
    <glyph glyph-name="uni041C" unicode="&#x41c;" horiz-adv-x="1882" 
d="M393 0h-203v1513h99l653 -960l649 960h101v-1513h-205v1022l-520 -764h-54l-520 764v-1022z" />
    <glyph glyph-name="uni041D" unicode="&#x41d;" horiz-adv-x="1552" 
d="M397 0h-207v1513h207v-639h760v639h205v-1513h-205v678h-760v-678z" />
    <glyph glyph-name="uni041E" unicode="&#x41e;" horiz-adv-x="1751" 
d="M92 748q0 331 230 561q231 231 552 231q322 0 553 -231q232 -232 232 -553t-232 -553q-231 -228 -559 -228q-329 0 -553 224q-223 223 -223 549zM1446 754q0 248 -166 417q-165 168 -406 168q-236 0 -403 -170q-166 -169 -166 -415q0 -244 164 -414q163 -166 405 -166
q243 0 406 166q166 166 166 414z" />
    <glyph glyph-name="uni041F" unicode="&#x41f;" horiz-adv-x="1552" 
d="M397 0h-207v1513h1172v-1513h-205v1317h-760v-1317z" />
    <glyph glyph-name="uni0420" unicode="&#x420;" horiz-adv-x="1245" 
d="M190 1513h506q238 0 365 -139q125 -137 125 -327q0 -195 -131 -332q-132 -135 -377 -135h-283v-580h-205v1513zM395 770h287q142 0 220.5 80t78.5 201q0 115 -73 192.5t-199 77.5h-314v-551z" />
    <glyph glyph-name="uni0421" unicode="&#x421;" horiz-adv-x="1589" 
d="M872 -23q-324 0 -553 218q-225 217 -225 557q0 345 230 565q229 223 555 223q205 0 381 -92q170 -86 272 -240l-152 -127q-193 260 -497 260q-243 0 -410 -167q-168 -168 -168 -424q0 -250 164 -414q165 -162 412 -162q151 0 282.5 67.5t225.5 188.5l147 -125
q-108 -151 -283.5 -239.5t-380.5 -88.5z" />
    <glyph glyph-name="uni0422" unicode="&#x422;" horiz-adv-x="1159" 
d="M477 0v1315h-448v198h1101v-198h-448v-1315h-205z" />
    <glyph glyph-name="uni0423" unicode="&#x423;" horiz-adv-x="1232" 
d="M242 -25q-94 0 -158 37l20 176q62 -26 123 -26q109 0 189 106q45 61 65 99q33 56 68 122l-494 1022h236l364 -802l349 802h225l-162 -360q-186 -419 -354 -772q-97 -202 -207 -303t-264 -101z" />
    <glyph glyph-name="uni0424" unicode="&#x424;" horiz-adv-x="1873" 
d="M1786 760q0 -306 -211 -514q-214 -211 -537 -232v-178h-202v178q-325 21 -539 232q-211 211 -211 514q0 300 213 510q210 210 537 231v176h202v-176q324 -21 535 -229q213 -210 213 -512zM295 760q0 -233 149 -385q153 -153 392 -168v1100q-239 -15 -392 -168
q-149 -149 -149 -379zM1038 1307v-1100q236 15 389 168q150 153 150 385q0 229 -150 379q-153 153 -389 168z" />
    <glyph glyph-name="uni0425" unicode="&#x425;" horiz-adv-x="1284" 
d="M262 0h-246l504 768l-479 745h238l364 -589l369 589h245l-495 -745l500 -768h-238l-381 600z" />
    <glyph glyph-name="uni0426" unicode="&#x426;" horiz-adv-x="1458" 
d="M1366 -307h-203v307h-973v1513h205v-1316h621v1316h203v-1316h147v-504z" />
    <glyph glyph-name="uni0427" unicode="&#x427;" horiz-adv-x="1392" 
d="M995 733v780h205v-1513h-205v532q-195 -71 -358 -71q-254 0 -392.5 125.5t-138.5 369.5v557h205v-499q0 -191 78 -275q80 -80 250 -80q167 0 356 74z" />
    <glyph glyph-name="uni0428" unicode="&#x428;" horiz-adv-x="2228" 
d="M2036 0h-1846v1513h205v-1316h617v1316h202v-1316h619v1316h203v-1513z" />
    <glyph glyph-name="uni0429" unicode="&#x429;" horiz-adv-x="2273" 
d="M2183 -307h-203v307h-1790v1513h205v-1316h617v1316h202v-1316h619v1316h203v-1316h147v-504z" />
    <glyph glyph-name="uni042A" unicode="&#x42a;" horiz-adv-x="1531" 
d="M936 1010q231 0 381 -138q151 -136 151 -376q0 -212 -137 -355q-138 -141 -403 -141h-525v1323h-370v190h573v-569q167 66 330 66zM606 193h287q180 0 271 82t91 231q0 152 -87.5 230.5t-247.5 78.5q-163 0 -314 -74v-548z" />
    <glyph glyph-name="uni042B" unicode="&#x42b;" horiz-adv-x="1857" 
d="M397 969h324q154 0 267 -49.5t169 -133.5q100 -143 100 -311q0 -200 -135 -338q-131 -137 -383 -137h-544v1513h202v-544zM1462 0v1513h205v-1513h-205zM397 193h310q162 0 251 80t89 212q0 129 -83.5 210t-244.5 81h-322v-583z" />
    <glyph glyph-name="uni042C" unicode="&#x42c;" horiz-adv-x="1318" 
d="M723 1010q229 0 379 -138q151 -136 151 -376q0 -212 -137 -355q-138 -141 -401 -141h-525v1513h203v-569q167 66 330 66zM393 193h287q180 0 271 82t91 231q0 152 -87.5 230.5t-247.5 78.5q-163 0 -314 -74v-548z" />
    <glyph glyph-name="uni042D" unicode="&#x42d;" horiz-adv-x="1599" 
d="M721 1540q326 0 555 -223q229 -219 229 -565q0 -340 -227 -557q-226 -218 -551 -218q-205 0 -380.5 88.5t-283.5 239.5l148 125q94 -121 225.5 -188.5t282.5 -67.5q225 0 381 135q161 137 188 353h-891v194h889q-35 215 -194 350t-375 135q-305 0 -498 -260l-151 127
q102 154 272 240q176 92 381 92z" />
    <glyph glyph-name="uni042E" unicode="&#x42e;" horiz-adv-x="2267" 
d="M1391 1540q322 0 553 -231t231 -553t-231 -553q-231 -228 -560 -228q-307 0 -524 193q-213 192 -248 489h-217v-657h-205v1513h205v-659h219q41 296 260 489q221 197 517 197zM1962 754q0 248 -166 417q-165 168 -405 168q-237 0 -404 -170q-166 -169 -166 -415
q0 -244 164 -414q163 -166 406 -166q242 0 405 166q166 166 166 414z" />
    <glyph glyph-name="uni042F" unicode="&#x42f;" horiz-adv-x="1325" 
d="M639 1513h494v-1513h-203v582q-125 -23 -266 -23l-338 -559h-250l370 586q-159 46 -241 166.5t-82 281.5q0 201 131 338q132 141 385 141zM676 752q164 0 254 20v547h-268q-165 0 -247.5 -75.5t-82.5 -205.5q0 -286 344 -286z" />
    <glyph glyph-name="uni0430" unicode="&#x430;" horiz-adv-x="1361" 
d="M1020 938v160h188v-1098h-188v156q-148 -183 -387 -183q-238 0 -393 168q-156 169 -156 416t156 406q154 161 393 161q235 0 387 -186zM1032 551q0 165 -104 278q-106 115 -273 115t-270 -115q-102 -114 -102 -280q0 -167 102 -281t270 -114t273 114q104 113 104 283z
" />
    <glyph glyph-name="uni0431" unicode="&#x431;" horiz-adv-x="1370" 
d="M743 1077q213 0 375 -149q166 -147 166 -396q0 -234 -160 -399q-157 -160 -413 -160q-298 0 -455 222q-156 221 -156 561q0 293 122 475t362 237l127 25l129 25q53 14 126.5 51.5t141.5 93.5l78 -178q-45 -45 -88 -76q-39 -25 -97 -45l-59 -18l-61 -15l-76 -16l-82 -19
q-88 -19 -125 -32q-40 -11 -104 -47q-86 -46 -131 -139t-68 -275q60 128 182 201t266 73zM715 154q157 0 264 110q106 109 106 266q0 155 -106 261q-105 108 -256 108q-149 0 -260 -102t-111 -260q0 -156 101 -269q102 -114 262 -114z" />
    <glyph glyph-name="uni0432" unicode="&#x432;" horiz-adv-x="1273" 
d="M913 846q125 -32 200 -140.5t75 -259.5q0 -208 -141 -340q-139 -133 -379 -133q-265 0 -402 164t-137 477v363q0 272 141 438q140 168 392 168q213 0 335.5 -115t122.5 -313q0 -97 -57 -186q-59 -89 -150 -123zM662 1403q-144 0 -242 -113q-96 -116 -96 -364v-19h342
q127 0 192.5 70.5t65.5 177.5q0 117 -68 182.5t-194 65.5zM672 154q144 0 230.5 84t86.5 217q0 123 -75.5 199.5t-219.5 76.5h-370v-115q0 -140 33.5 -240t91.5 -145q58 -43 109.5 -60t113.5 -17z" />
    <glyph glyph-name="uni0433" unicode="&#x433;" horiz-adv-x="1013" 
d="M487 -27q-191 0 -304 77.5t-113 221.5q0 99 61 175.5t158 117.5q35 16 90.5 38t94 37t83 37t71.5 42t45.5 47t18.5 57q0 58 -49.5 92.5t-144.5 34.5q-146 0 -332 -63l-45 164q186 73 389 73q174 0 289 -71q116 -70 116 -211q0 -95 -61 -165.5t-160 -111.5
q-31 -13 -89.5 -34.5t-94.5 -35.5t-82.5 -37.5t-72.5 -45.5t-45 -53.5t-19 -67.5q0 -141 215 -141q195 0 385 96l55 -162q-225 -111 -459 -111z" />
    <glyph glyph-name="uni0434" unicode="&#x434;" horiz-adv-x="1363" 
d="M1020 954v144h194v-981q0 -287 -156 -436.5t-448 -149.5q-204 0 -430 80l43 168q204 -68 381 -68q416 0 416 369v90q-147 -172 -385 -172t-393 162q-158 166 -158 403q0 242 162 400q161 161 399 161q228 0 375 -170zM389 285q108 -111 268 -111q161 0 269 111
q106 109 106 276q0 169 -106 275q-107 110 -269 110q-161 0 -268 -110q-106 -106 -106 -275q0 -167 106 -276z" />
    <glyph glyph-name="uni0435" unicode="&#x435;" 
d="M1171 569q0 -21 -6 -100h-874q26 -146 122.5 -229.5t262.5 -83.5q98 0 203 33.5t180 89.5l84 -150q-86 -67 -213 -110.5t-258 -43.5q-120 0 -219.5 33t-166 88.5t-113 130t-67 156.5t-20.5 170q0 245 154 410q154 161 401 161q235 0 381 -149q149 -149 149 -406zM291 639
h678q-7 141 -99 226t-229 85q-134 0 -229.5 -86.5t-120.5 -224.5z" />
    <glyph glyph-name="uni0436" unicode="&#x436;" horiz-adv-x="1712" 
d="M1669 154l10 -150q-68 -22 -129 -22q-57 5 -82 8.5t-57.5 17t-58.5 37.5l-47 41q-20 20 -45 59l-41 60l-45 74q-80 125 -113 149q-40 29 -80 29h-35v-461h-182v461h-33q-52 0 -88 -34t-92 -124l-12 -20q-102 -159 -152 -209q-88 -88 -227 -88q-59 0 -127 22l8 150
q50 -13 96 -13q35 0 60 13t53 45q13 15 74 100l118 170q36 49 72 70q-61 35 -104 112l-29 51q-3 6 -5 12.5t-3 10t-2 4.5q0 3 -11 28l-10 25q-6 13 -15 35.5t-12 28t-9 18t-12 21t-15 20.5q-19 29 -45 40t-66 11q-19 0 -74 -10l-28 148q61 22 125 22q133 0 198 -59
q66 -60 127 -209q2 -5 11 -26t16 -39.5t8 -24.5l16 -32t17 -32q2 -1 18.5 -19t24.5 -22q8 -1 26.5 -6.5t39 -9.5t42.5 -4h21v465h182v-465h21q86 0 131 39q5 7 11 13.5t9 10t7.5 11t9.5 18.5l16 33l37 90q58 148 125 209q68 59 200 59q65 0 123 -22l-26 -148q-58 10 -74 10
q-39 0 -65 -11t-48 -40q-21 -30 -30 -51l-31 -72q-2 -6 -13.5 -33t-15.5 -34q-2 -2 -15.5 -30t-19.5 -36q-43 -76 -102 -110q39 -23 74 -70l59 -88q104 -158 146 -203q40 -37 100 -37q44 0 94 13z" />
    <glyph glyph-name="uni0437" unicode="&#x437;" horiz-adv-x="1116" 
d="M514 -465q-259 0 -485 160l82 158q193 -140 387 -140q154 0 248 79.5t94 207.5q0 121 -85.5 190.5t-224.5 69.5h-247v178h168q163 0 257.5 75t94.5 194q0 108 -81 173.5t-206 65.5q-177 0 -360 -145l-105 137q91 82 220.5 134t260.5 52q203 0 334 -116q133 -115 133 -285
q0 -118 -67.5 -211t-188.5 -137v-8q132 -27 215 -136q82 -107 82 -249q0 -193 -145 -320t-381 -127z" />
    <glyph glyph-name="uni0438" unicode="&#x438;" horiz-adv-x="1296" 
d="M948 1098h195v-1098h-187v158q-51 -81 -157 -133t-234 -52q-184 0 -305 109q-121 112 -121 356v660h197v-652q0 -290 262 -290q162 0 256 97t94 269v576z" />
    <glyph glyph-name="uni0439" unicode="&#x439;" horiz-adv-x="1296" 
d="M649 1176q-214 0 -364 190l98 107q126 -150 266 -150q149 0 269 150l100 -107q-156 -190 -369 -190zM948 1098h195v-1098h-187v158q-51 -81 -157 -133t-234 -52q-184 0 -305 109q-121 112 -121 356v660h197v-652q0 -290 262 -290q162 0 256 97t94 269v576z" />
    <glyph glyph-name="uni043A" unicode="&#x43a;" horiz-adv-x="1116" 
d="M1124 0h-258l-413 512l-105 -94v-418h-196v1550h196v-897l492 445h266l-514 -461z" />
    <glyph glyph-name="uni043B" unicode="&#x43b;" horiz-adv-x="1161" 
d="M238 0h-215l499 1098h121l496 -1098h-215l-340 801z" />
    <glyph glyph-name="uni043C" unicode="&#x43c;" horiz-adv-x="1576" 
d="M346 0h-194v1098h116l523 -684l516 684h116v-1098h-192v709l-414 -545h-57l-414 545v-709z" />
    <glyph glyph-name="uni043D" unicode="&#x43d;" 
d="M903 641v457h195v-1098h-195v471h-555v-471h-196v1098h196v-457h555z" />
    <glyph glyph-name="uni043E" unicode="&#x43e;" horiz-adv-x="1320" 
d="M662 -27q-253 0 -416 166q-162 168 -162 412q0 242 162 407q162 168 416 168q249 0 411 -168q164 -170 164 -407q0 -242 -164 -412q-163 -166 -411 -166zM1040 551q0 163 -110 276q-111 117 -268 117q-158 0 -269 -117q-110 -113 -110 -276q0 -165 110 -281t269 -116
q158 0 268 116t110 281z" />
    <glyph glyph-name="uni043F" unicode="&#x43f;" horiz-adv-x="1265" 
d="M348 0h-196v1098h192v-156q105 184 348 184q185 0 309 -118q125 -119 125 -342v-666h-194v610q0 157 -77 245.5t-204 88.5q-134 0 -219 -94q-84 -96 -84 -242v-608z" />
    <glyph glyph-name="uni0440" unicode="&#x440;" horiz-adv-x="1372" 
d="M739 1124q236 0 391 -168q158 -172 158 -407q0 -238 -158 -410q-156 -166 -393 -166q-239 0 -389 187v-613h-196v1551h196v-166q152 192 391 192zM1092 551q0 164 -105 278q-106 115 -272 115q-167 0 -273 -115q-102 -114 -102 -278q0 -169 102 -283q105 -114 273 -114
q167 0 272 114t105 283z" />
    <glyph glyph-name="uni0441" unicode="&#x441;" horiz-adv-x="1226" 
d="M664 -25q-256 0 -418 162t-162 412t164 414q164 161 426 161q162 0 298 -78t199 -208l-161 -95q-56 94 -144.5 147.5t-191.5 53.5q-168 0 -281 -113q-110 -113 -110 -282q0 -167 108 -281q106 -112 273 -112q103 0 198 55t142 141l163 -94q-70 -131 -204 -205
q-141 -78 -299 -78z" />
    <glyph glyph-name="uni0442" unicode="&#x442;" horiz-adv-x="1994" 
d="M1419 1126q200 0 320 -129q119 -125 119 -344v-653h-197v623q0 153 -70 237t-194 84q-130 0 -211.5 -90t-81.5 -236v-618h-195v618q0 153 -71 239.5t-195 86.5q-130 0 -212.5 -91t-82.5 -239v-614h-196v1098h192v-162q50 91 137 141t195 49q112 0 206.5 -54.5
t137.5 -149.5q56 94 163 149t236 55z" />
    <glyph glyph-name="uni0443" unicode="&#x443;" horiz-adv-x="1136" 
d="M592 274l295 824h217l-461 -1221q-68 -182 -159 -263t-222 -81q-106 0 -176 43l25 172q73 -33 133 -33q135 0 217 193l41 96l-477 1094h227z" />
    <glyph glyph-name="uni0444" unicode="&#x444;" horiz-adv-x="1681" 
d="M1597 547q0 -256 -184 -412q-186 -154 -483 -160v-434h-178v434q-304 6 -486 162t-182 412q0 261 186 416q188 156 482 159v426h178v-426q295 -6 481 -161t186 -416zM930 954v-813q222 5 351.5 114t129.5 298q0 185 -128.5 290.5t-352.5 110.5zM268 551
q0 -189 131.5 -297t352.5 -113v813q-224 -5 -354 -110.5t-130 -292.5z" />
    <glyph glyph-name="uni0445" unicode="&#x445;" horiz-adv-x="1042" 
d="M637 555l377 -555h-228l-266 412l-266 -412h-238l387 569l-348 529h228l243 -385l248 385h232z" />
    <glyph glyph-name="uni0446" unicode="&#x446;" horiz-adv-x="1386" 
d="M1143 1098v-836q0 -133 229 -133v-498h-180v355q-89 0 -155 55.5t-72 130.5q-44 -84 -156 -141q-113 -58 -244 -58q-184 0 -305 109q-121 112 -121 356v660h197v-652q0 -290 262 -290q162 0 256 97t94 269v576h195z" />
    <glyph glyph-name="uni0447" unicode="&#x447;" horiz-adv-x="1146" 
d="M799 549v549h196v-1098h-196v371q-155 -41 -283 -41q-432 0 -432 415v353h195v-338q0 -132 62 -191t189 -59q153 0 269 39z" />
    <glyph glyph-name="uni0448" unicode="&#x448;" horiz-adv-x="1976" 
d="M1628 520v578h197v-1098h-185v158q-44 -80 -145 -132.5t-211 -52.5q-114 0 -203 52.5t-131 152.5q-49 -101 -154 -153t-235 -52q-64 0 -122 14t-114 48.5t-96.5 86.5t-65 133t-24.5 183v660h197v-633q0 -309 250 -309q140 0 219.5 96.5t79.5 267.5v578h194v-652
q0 -140 64.5 -215t183.5 -75q138 0 219.5 100.5t81.5 263.5z" />
    <glyph glyph-name="uni0449" unicode="&#x449;" horiz-adv-x="2068" 
d="M1825 1098v-836q0 -133 223 -133v-498h-178v355q-89 0 -153 54.5t-72 131.5q-43 -88 -144.5 -143.5t-224.5 -55.5q-116 0 -202.5 51.5t-123.5 151.5q-49 -99 -154.5 -151t-232.5 -52q-82 0 -154 24t-134.5 75.5t-99 145.5t-36.5 220v660h197v-633q0 -309 250 -309
q140 0 219.5 96.5t79.5 267.5v578h194v-652q0 -140 64 -215t182 -75q139 0 221 100.5t82 263.5v578h197z" />
    <glyph glyph-name="uni044A" unicode="&#x44a;" horiz-adv-x="1316" 
d="M786 883q202 0 330 -131q129 -129 129 -326q0 -190 -123 -322q-119 -131 -356 -131q-108 0 -195 33.5t-139 87.5q-129 149 -125 387v439h-287v178h482v-297q125 82 284 82zM770 152q132 0 205.5 76.5t73.5 201.5t-74.5 200t-208.5 75q-149 0 -264 -89v-141
q0 -323 268 -323z" />
    <glyph glyph-name="uni044B" unicode="&#x44b;" horiz-adv-x="1550" 
d="M346 727h268q123 0 215.5 -33.5t137.5 -91.5q88 -103 88 -237q0 -150 -109 -259q-106 -106 -321 -106h-473v1098h194v-371zM1202 0v1098h195v-1098h-195zM346 168h256q258 0 258 201q0 83 -61.5 136.5t-182.5 53.5h-270v-391z" />
    <glyph glyph-name="uni044C" unicode="&#x44c;" horiz-adv-x="1146" 
d="M616 883q204 0 332 -131q129 -129 129 -326q0 -190 -123 -322q-119 -131 -356 -131q-108 0 -195 33.5t-139 87.5q-69 80 -99.5 183t-27.5 204v617h197v-295q127 80 282 80zM600 152q133 0 207 76.5t74 201.5t-74.5 200t-208.5 75q-148 0 -264 -87v-143q0 -323 266 -323z
" />
    <glyph glyph-name="uni044D" unicode="&#x44d;" horiz-adv-x="1234" 
d="M573 1124q253 0 414 -161q164 -164 164 -414t-162 -412q-158 -162 -407 -162q-169 0 -307 78t-205 205l159 94q50 -87 146.5 -141.5t204.5 -54.5q136 0 238 86.5t128 222.5h-473v172h473q-29 137 -133 223t-244 86q-108 0 -198.5 -54.5t-147.5 -148.5l-160 95
q67 134 204 210t306 76z" />
    <glyph glyph-name="uni044E" unicode="&#x44e;" horiz-adv-x="1728" 
d="M1069 1126q250 0 412 -168q164 -170 164 -407q0 -242 -164 -412q-163 -166 -412 -166q-229 0 -385 138t-186 348h-150v-459h-196v1550h196v-923h148q27 214 184 356q158 143 389 143zM1448 551q0 162 -111 276q-111 117 -268 117t-268 -117q-111 -114 -111 -276
q0 -164 111 -281q110 -116 268 -116t268 116q111 117 111 281z" />
    <glyph glyph-name="uni044F" unicode="&#x44f;" horiz-adv-x="1134" 
d="M549 1098h432v-1098h-195v416q-86 -15 -229 -15l-268 -401h-226l297 422q-121 36 -186 124t-65 202q0 155 114 252.5t326 97.5zM563 565q141 0 223 15v350h-235q-248 0 -248 -180q0 -185 260 -185z" />
    <glyph glyph-name="uni0451" unicode="&#x451;" 
d="M451 1212q-62 0 -103 40.5t-41 103.5q0 57 41.5 96t102.5 39q57 0 97 -39t40 -96q0 -61 -40 -102.5t-97 -41.5zM856 1212q-61 0 -101 41t-40 103q0 57 40.5 96t100.5 39t99.5 -39t39.5 -96q0 -62 -39.5 -103t-99.5 -41zM1171 569q0 -21 -6 -100h-874
q26 -146 122.5 -229.5t262.5 -83.5q98 0 203 33.5t180 89.5l84 -150q-86 -67 -213 -110.5t-258 -43.5q-120 0 -219.5 33t-166 88.5t-113 130t-67 156.5t-20.5 170q0 245 154 410q154 161 401 161q235 0 381 -149q149 -149 149 -406zM291 639h678q-7 141 -99 226t-229 85
q-134 0 -229.5 -86.5t-120.5 -224.5z" />
    <glyph glyph-name="Wgrave" unicode="&#x1e80;" horiz-adv-x="2107" 
d="M1028 1970l123 -344h-172l-193 344h242zM657 0h-114l-520 1513h217l364 -1107l402 1107h92l411 -1107l359 1107h215l-516 -1513h-113l-399 1130z" />
    <glyph glyph-name="wgrave" unicode="&#x1e81;" horiz-adv-x="1720" 
d="M846 1616l121 -342h-170l-191 342h240zM561 2h-162l-376 1096h206l260 -824l299 824h138l311 -824l250 824h205l-367 -1096h-164l-303 821z" />
    <glyph glyph-name="Wacute" unicode="&#x1e82;" horiz-adv-x="2107" 
d="M1153 1624h-172l121 344h241zM657 0h-114l-520 1513h217l364 -1107l402 1107h92l411 -1107l359 1107h215l-516 -1513h-113l-399 1130z" />
    <glyph glyph-name="wacute" unicode="&#x1e83;" horiz-adv-x="1720" 
d="M954 1276h-170l121 342h240zM561 2h-162l-376 1096h206l260 -824l299 824h138l311 -824l250 824h205l-367 -1096h-164l-303 821z" />
    <glyph glyph-name="Wdieresis" unicode="&#x1e84;" horiz-adv-x="2107" 
d="M874 1651q-56 0 -93.5 37t-37.5 92q0 51 38 87t93 36q51 0 87 -36t36 -87q0 -55 -36 -92t-87 -37zM1241 1651q-55 0 -92 36.5t-37 92.5q0 51 37.5 87t91.5 36q53 0 89 -35.5t36 -87.5q0 -56 -35.5 -92.5t-89.5 -36.5zM657 0h-114l-520 1513h217l364 -1107l402 1107h92
l411 -1107l359 1107h215l-516 -1513h-113l-399 1130z" />
    <glyph glyph-name="wdieresis" unicode="&#x1e85;" horiz-adv-x="1720" 
d="M657 1262q-62 0 -102.5 40t-40.5 103q0 57 41 96t102 39q57 0 97.5 -39t40.5 -96q0 -61 -40 -102t-98 -41zM922 1405q0 57 40.5 96t100.5 39t99.5 -39t39.5 -96q0 -62 -39.5 -102.5t-99.5 -40.5t-100.5 41t-40.5 102zM561 2h-162l-376 1096h206l260 -824l299 824h138
l311 -824l250 824h205l-367 -1096h-164l-303 821z" />
    <glyph glyph-name="Ygrave" unicode="&#x1ef2;" horiz-adv-x="1308" 
d="M639 1970l123 -344h-172l-193 344h242zM1047 1513h227l-518 -968v-545h-205v545l-512 968h227l387 -765z" />
    <glyph glyph-name="ygrave" unicode="&#x1ef3;" horiz-adv-x="1136" 
d="M571 1618l121 -342h-170l-190 342h239zM594 274l295 824h217l-461 -1221q-68 -182 -159 -263t-222 -81q-106 0 -176 43l25 172q73 -33 133 -33q135 0 217 193l41 96l-477 1094h227z" />
    <glyph glyph-name="uni2009" unicode="&#x2009;" horiz-adv-x="159" 
 />
    <glyph glyph-name="endash" unicode="&#x2013;" horiz-adv-x="1466" 
d="M1331 475h-1196v184h1196v-184z" />
    <glyph glyph-name="emdash" unicode="&#x2014;" horiz-adv-x="2119" 
d="M1985 475h-1850v184h1850v-184z" />
    <glyph glyph-name="quoteleft" unicode="&#x2018;" horiz-adv-x="483" 
d="M242 1317h8q47 0 79.5 -34.5t32.5 -84.5q0 -54 -38.5 -90.5t-94.5 -36.5q-60 0 -100.5 44.5t-40.5 107.5q0 175 254 338l61 -88q-122 -96 -151 -138q-8 -12 -10 -18z" />
    <glyph glyph-name="quoteright" unicode="&#x2019;" horiz-adv-x="479" 
d="M266 1554q62 0 102 -42.5t40 -108.5q0 -173 -254 -336l-62 88q132 99 162 154h-8q-47 0 -80 34.5t-33 83.5q0 54 38.5 90.5t94.5 36.5z" />
    <glyph glyph-name="quotesinglbase" unicode="&#x201a;" horiz-adv-x="495" 
d="M244 221q62 0 101.5 -42.5t39.5 -108.5q0 -173 -254 -336l-61 88q132 99 161 153h-8q-47 0 -79.5 34.5t-32.5 84.5q0 54 38.5 90.5t94.5 36.5z" />
    <glyph glyph-name="quotedblleft" unicode="&#x201c;" horiz-adv-x="974" 
d="M350 1561l62 -88q-124 -98 -152 -138q-8 -12 -10 -18h8q47 0 80 -34.5t33 -84.5q0 -54 -38.5 -90.5t-94.5 -36.5q-60 0 -101 44.5t-41 107.5q0 175 254 338zM733 1317h8q47 0 80 -34.5t33 -84.5q0 -54 -38.5 -90.5t-94.5 -36.5q-60 0 -100.5 44.5t-40.5 107.5
q0 175 254 338l61 -88q-124 -98 -152 -138q-8 -12 -10 -18z" />
    <glyph glyph-name="quotedblright" unicode="&#x201d;" horiz-adv-x="954" 
d="M260 1563q60 0 100.5 -44.5t40.5 -107.5q0 -175 -254 -338l-61 88q126 99 152 137q7 11 10 19h-8q-47 0 -80 34.5t-33 84.5q0 54 38.5 90.5t94.5 36.5zM739 1563q60 0 101 -44.5t41 -107.5q0 -175 -254 -338l-62 88q126 99 152 137q7 11 10 19h-8q-47 0 -80 34.5
t-33 84.5q0 54 38.5 90.5t94.5 36.5z" />
    <glyph glyph-name="quotedblbase" unicode="&#x201e;" horiz-adv-x="964" 
d="M236 219q60 0 100.5 -44t40.5 -107q0 -175 -254 -338l-62 88q126 99 152 137q8 12 10 18h-8q-47 0 -80 34.5t-33 84.5q0 54 39 90.5t95 36.5zM715 219q60 0 100.5 -44t40.5 -107q0 -175 -254 -338l-61 88q124 97 151 137q8 12 10 18h-8q-47 0 -79.5 34.5t-32.5 84.5
q0 54 38.5 90.5t94.5 36.5z" />
    <glyph glyph-name="dagger" unicode="&#x2020;" horiz-adv-x="985" 
d="M584 1047h327v-170h-327v-1242h-183v1242h-327v170h327v692h183v-692z" />
    <glyph glyph-name="daggerdbl" unicode="&#x2021;" horiz-adv-x="985" 
d="M911 1133v-170h-327v-553h327v-170h-327v-605h-183v605h-327v170h327v553h-327v170h327v606h183v-606h327z" />
    <glyph glyph-name="bullet" unicode="&#x2022;" horiz-adv-x="858" 
d="M428 424q-112 0 -195 80q-79 82 -79 194q0 116 79 195q82 82 195 82q116 0 195 -82q82 -79 82 -195q0 -112 -82 -194q-80 -80 -195 -80z" />
    <glyph glyph-name="ellipsis" unicode="&#x2026;" horiz-adv-x="1429" 
d="M104 100q0 54 38 90.5t94 36.5t93.5 -36.5t37.5 -90.5q0 -57 -37.5 -95t-93.5 -38t-94 38t-38 95zM582 100q0 54 37.5 90.5t93.5 36.5t93.5 -36.5t37.5 -90.5q0 -57 -37.5 -95t-93.5 -38t-93.5 38t-37.5 95zM1061 100q0 54 37.5 90.5t93.5 36.5t93.5 -36.5t37.5 -90.5
q0 -57 -37.5 -95t-93.5 -38t-93.5 38t-37.5 95z" />
    <glyph glyph-name="perthousand" unicode="&#x2030;" horiz-adv-x="2652" 
d="M725 903q-114 -108 -270 -108q-159 0 -273 108q-112 109 -112 264q0 157 112 263q113 110 273 110q157 0 270 -110q113 -107 113 -263q0 -154 -113 -264zM440 0h-204l1114 1513h206zM455 1389q-96 0 -160 -64t-64 -158t65 -158.5t159 -64.5t158.5 64.5t64.5 158.5
t-64.5 158t-158.5 64zM963 344q0 155 112 264q114 111 273 111q158 0 272 -111q115 -112 115 -264q0 -151 -115 -260t-272 -109q-158 0 -273 109q-112 106 -112 260zM1831 344q0 155 113 262q114 111 272 111t272 -111q115 -109 115 -262q0 -151 -115 -260t-272 -109
t-272 109q-113 107 -113 260zM1348 125q97 0 161 62.5t64 156.5q0 97 -64 162t-161 65q-94 0 -159 -65.5t-65 -161.5q0 -92 65.5 -155.5t158.5 -63.5zM2216 123q96 0 160.5 63.5t64.5 157.5q0 97 -64 162t-161 65q-94 0 -158.5 -65.5t-64.5 -161.5q0 -92 65.5 -156.5
t157.5 -64.5z" />
    <glyph glyph-name="guilsinglleft" unicode="&#x2039;" horiz-adv-x="677" 
d="M569 180h-194l-291 416l291 416h194l-293 -416z" />
    <glyph glyph-name="guilsinglright" unicode="&#x203a;" horiz-adv-x="677" 
d="M594 596l-291 -416h-194l292 416l-292 416h194z" />
    <glyph glyph-name="fraction" unicode="&#x2044;" horiz-adv-x="391" 
d="M-303 0h-176l1184 1513h172z" />
    <glyph glyph-name="uni2070" unicode="&#x2070;" horiz-adv-x="761" 
d="M629 1147q-83 -121 -248 -121q-167 0 -250 121q-82 122 -82 299t82 299q82 123 250 123q165 0 248 -123q84 -125 84 -299t-84 -299zM561 1446q0 127 -45.5 203.5t-134.5 76.5t-134.5 -76.5t-45.5 -203.5q0 -129 45 -205t135 -76t135 76t45 205z" />
    <glyph glyph-name="uni2074" unicode="&#x2074;" horiz-adv-x="749" 
d="M582 1356h90v-117h-90v-201h-129v201h-379l-31 84l438 526h101v-493zM453 1636l-236 -280h236v280z" />
    <glyph glyph-name="uni2075" unicode="&#x2075;" horiz-adv-x="710" 
d="M360 1563q121 0 199 -74.5t78 -190.5q0 -119 -86 -196q-84 -78 -217 -78q-147 0 -275 96l62 111q104 -78 205 -78q73 0 121.5 42t48.5 105q0 62 -44.5 103t-113.5 41q-83 0 -145 -62l-82 60l49 407h424v-123h-322l-24 -188q58 25 122 25z" />
    <glyph glyph-name="uni2076" unicode="&#x2076;" horiz-adv-x="712" 
d="M389 1563q117 0 193.5 -75t76.5 -190q0 -119 -82.5 -196.5t-211.5 -77.5q-153 0 -236 111q-82 113 -82 282q0 187 92 320q94 131 273 131q127 0 225 -70l-59 -104q-71 51 -158 51q-111 0 -172 -88q-63 -88 -66 -197q65 103 207 103zM367 1446q-68 0 -113 -42t-45 -108
q-4 -47 25 -84.5t71 -53.5t90 -9t80 41q35 32 42.5 79t-9 87t-54.5 67t-87 23z" />
    <glyph glyph-name="uni2077" unicode="&#x2077;" horiz-adv-x="589" 
d="M29 1716v125h536v-94l-319 -709h-152l309 678h-374z" />
    <glyph glyph-name="uni2078" unicode="&#x2078;" horiz-adv-x="784" 
d="M84 1260q0 67 45 124t121 86v3q-131 58 -131 178q0 95 75.5 156t196.5 61t198 -61.5t77 -155.5q0 -119 -134 -178v-5q77 -26 122.5 -83t45.5 -125q0 -101 -85.5 -167.5t-223.5 -66.5t-222.5 65t-84.5 169zM526 1636q0 50 -37.5 82.5t-97.5 32.5t-98.5 -32.5t-38.5 -82.5
q0 -48 38 -80t99 -32q60 0 97.5 32t37.5 80zM555 1278q0 56 -45 92.5t-119 36.5q-73 0 -118.5 -36.5t-45.5 -92.5q0 -57 46 -95t118 -38t118 38t46 95z" />
    <glyph glyph-name="uni2079" unicode="&#x2079;" horiz-adv-x="768" 
d="M371 1868q151 0 231 -107t80 -291q0 -189 -90 -317q-89 -127 -264 -127q-142 0 -228 68l54 106q74 -51 165 -51q107 0 167 79t65 208q-73 -107 -207 -107q-118 0 -193 74.5t-75 187.5q0 122 82.5 199.5t212.5 77.5zM367 1446q66 0 110.5 42t44.5 105q0 66 -43.5 110
t-109.5 44q-67 0 -111.5 -44t-44.5 -110t43 -106.5t111 -40.5z" />
    <glyph glyph-name="uni2080" unicode="&#x2080;" horiz-adv-x="761" 
d="M629 -207q-82 -123 -248 -123q-167 0 -250 123q-82 119 -82 297q0 177 82 299q83 123 250 123q165 0 248 -123q84 -125 84 -299q0 -175 -84 -297zM561 90q0 127 -45.5 204t-134.5 77t-134.5 -77t-45.5 -204q0 -129 45 -204.5t135 -75.5t135 75.5t45 204.5z" />
    <glyph glyph-name="uni2081" unicode="&#x2081;" horiz-adv-x="542" 
d="M37 268l270 217h111v-802h-148v600l-155 -125z" />
    <glyph glyph-name="uni2082" unicode="&#x2082;" horiz-adv-x="704" 
d="M500 33l-207 -217h325v-133h-536v118l266 271q115 121 115 190q0 51 -35.5 83t-91.5 32q-93 0 -193 -92l-75 108q122 119 276 119q117 0 191.5 -69t74.5 -179q0 -112 -110 -231z" />
    <glyph glyph-name="uni2083" unicode="&#x2083;" horiz-adv-x="677" 
d="M301 -330q-139 0 -266 80l61 115q117 -66 201 -66q71 0 111.5 32t40.5 87q0 54 -42.5 86.5t-111.5 32.5h-105v125h99q62 0 102.5 30t40.5 80t-37.5 79.5t-93.5 29.5q-82 0 -174 -68l-72 103q104 96 260 96q115 0 190 -62t75 -153q0 -65 -39.5 -115.5t-106.5 -70.5v-5
q78 -17 121 -70t43 -128q0 -104 -83.5 -171t-213.5 -67z" />
    <glyph glyph-name="uni2084" unicode="&#x2084;" horiz-adv-x="749" 
d="M582 0h90v-117h-90v-200h-129v200h-379l-31 84l438 527h101v-494zM453 281l-236 -281h236v281z" />
    <glyph glyph-name="uni2085" unicode="&#x2085;" horiz-adv-x="710" 
d="M360 207q121 0 199 -74t78 -190q0 -120 -86 -197q-84 -78 -217 -78q-147 0 -275 96l62 111q104 -78 205 -78q73 0 121.5 42.5t48.5 105.5q0 62 -44.5 102.5t-113.5 40.5q-84 0 -145 -61l-82 59l49 408h424v-123h-322l-24 -189q58 25 122 25z" />
    <glyph glyph-name="uni2086" unicode="&#x2086;" horiz-adv-x="712" 
d="M389 207q117 0 193.5 -74.5t76.5 -189.5q0 -119 -83 -197t-211 -78q-154 0 -236 113q-82 110 -82 280q0 187 92 320q94 131 273 131q127 0 225 -70l-59 -104q-71 51 -158 51q-111 0 -172 -88q-63 -88 -66 -197q65 103 207 103zM367 90q-68 0 -113 -42t-45 -107
q-4 -46 25 -83.5t71 -54t90 -9.5t80 42q35 31 42.5 77t-8.5 86t-54.5 67.5t-87.5 23.5z" />
    <glyph glyph-name="uni2087" unicode="&#x2087;" horiz-adv-x="589" 
d="M29 360v125h536v-94l-319 -708h-152l309 677h-374z" />
    <glyph glyph-name="uni2088" unicode="&#x2088;" horiz-adv-x="784" 
d="M84 -96q0 67 45.5 124.5t120.5 86.5v2q-131 58 -131 178q0 95 75.5 156t196.5 61t198 -61.5t77 -155.5q0 -119 -134 -178v-4q77 -26 122.5 -83.5t45.5 -125.5q0 -101 -85.5 -167.5t-223.5 -66.5t-222.5 65t-84.5 169zM526 281q0 50 -37.5 82t-97.5 32t-98.5 -32
t-38.5 -82q0 -48 38 -80.5t99 -32.5q60 0 97.5 32.5t37.5 80.5zM555 -78q0 56 -45 92.5t-119 36.5q-73 0 -118.5 -36.5t-45.5 -92.5q0 -57 46 -95t118 -38t118 38t46 95z" />
    <glyph glyph-name="uni2089" unicode="&#x2089;" horiz-adv-x="768" 
d="M371 512q151 0 231 -106.5t80 -290.5q0 -190 -90 -318q-89 -127 -264 -127q-142 0 -228 68l54 106q74 -51 165 -51q107 0 167 79t65 208q-73 -107 -207 -107q-118 0 -193 75t-75 188q0 122 82.5 199t212.5 77zM367 90q66 0 110.5 42.5t44.5 105.5q0 66 -43.5 109.5
t-109.5 43.5q-67 0 -111.5 -43.5t-44.5 -109.5t43 -107t111 -41z" />
    <glyph glyph-name="Euro" unicode="&#x20ac;" horiz-adv-x="1531" 
d="M1100 522h-606q62 -165 198 -262.5t307 -97.5q194 0 392 110v-194q-177 -101 -400 -101q-249 0 -446 150q-193 149 -264 395h-215l69 164h115q-4 69 0 139h-170l70 164h129q71 250 264 400q198 151 448 151q268 0 467 -141l-94 -162q-162 119 -360 119q-173 0 -310 -101
t-198 -266h786l-74 -164h-751q-4 -62 -4 -71q0 -6 4 -68h706z" />
    <glyph glyph-name="trademark" unicode="&#x2122;" horiz-adv-x="1671" 
d="M274 1397h-202v116h546v-116h-202v-600h-142v600zM1098 1077l350 436h57v-716h-131v428l-254 -318h-43l-250 316v-426h-133v716h60z" />
    <glyph glyph-name="estimated" unicode="&#x212e;" horiz-adv-x="1966" 
d="M997 -35q-378 0 -639 225q-260 224 -260 560q0 337 260 561q260 227 639 227q376 0 635 -223q264 -225 264 -576v-43q0 -10 -14 -10h-1405v-471q0 -5 8 -8q213 -148 512 -148q212 0 388 76t280 215l72 -59q-124 -153 -319 -239.5t-421 -86.5zM477 1286v-498h1041v500
q0 4 -7 8q-217 150 -514 150q-299 0 -516 -150q-4 -4 -4 -10z" />
    <glyph glyph-name="uni2150" unicode="&#x2150;" horiz-adv-x="1744" 
d="M463 709h-150v600l-153 -123l-80 110l270 217h113v-804zM195 0l1183 1513h170l-1179 -1513h-174zM1108 678v125h537v-94l-320 -709h-151l309 678h-375z" />
    <glyph glyph-name="uni2151" unicode="&#x2151;" horiz-adv-x="1771" 
d="M455 709h-150v600l-153 -123l-80 110l270 217h113v-804zM170 0l1184 1513h172l-1182 -1513h-174zM1386 829q151 0 231.5 -106.5t80.5 -290.5q0 -189 -90 -317q-89 -127 -265 -127q-142 0 -227 67l53 107q74 -51 166 -51q107 0 167 78.5t65 207.5q-72 -106 -207 -106
q-118 0 -193 73t-75 189q0 122 82 199t212 77zM1382 408q66 0 111 42t45 105q0 66 -44 110t-110 44q-67 0 -111 -44t-44 -110t42.5 -106.5t110.5 -40.5z" />
    <glyph glyph-name="uni2153" unicode="&#x2153;" horiz-adv-x="1716" 
d="M455 709h-150v600l-153 -123l-80 110l270 217h113v-804zM168 0l1184 1513h170l-1180 -1513h-174zM1473 430v-4q77 -17 120 -70t43 -129q0 -104 -83 -170.5t-214 -66.5q-139 0 -266 80l62 114q115 -65 200 -65q71 0 111.5 32t40.5 87q0 54 -42.5 86t-111.5 32h-104v125h98
q61 0 102 30.5t41 80.5t-37.5 79t-93.5 29q-83 0 -174 -67l-71 102q104 96 260 96q115 0 189.5 -61.5t74.5 -153.5q0 -66 -39.5 -116t-105.5 -70z" />
    <glyph glyph-name="uni2154" unicode="&#x2154;" horiz-adv-x="1722" 
d="M92 711v118l266 271q115 121 115 190q0 51 -35.5 83t-91.5 32q-92 0 -192 -92l-76 108q122 119 276 119q117 0 192 -69t75 -179q0 -111 -111 -231l-207 -217h326v-133h-537zM244 0l1183 1513h172l-1179 -1513h-176zM1438 426v-4q77 -17 120.5 -70t43.5 -129
q0 -104 -83 -170.5t-214 -66.5q-140 0 -267 80l62 114q115 -65 200 -65q71 0 111.5 32t40.5 86t-42.5 86.5t-111.5 32.5h-104v125h98q61 0 102.5 30.5t41.5 80.5t-37.5 79t-93.5 29q-84 0 -175 -67l-71 102q104 96 260 96q115 0 189.5 -61.5t74.5 -153.5q0 -66 -39.5 -116
t-105.5 -70z" />
    <glyph glyph-name="uni2155" unicode="&#x2155;" horiz-adv-x="1718" 
d="M455 709h-150v600l-153 -123l-80 110l270 217h113v-804zM160 0l1183 1513h173l-1180 -1513h-176zM1382 524q121 0 199 -74t78 -190q0 -120 -86 -197q-83 -77 -217 -77q-147 0 -275 96l62 111q104 -78 205 -78q73 0 121.5 42t48.5 105q0 62 -44.5 103t-113.5 41
q-84 0 -146 -62l-81 59l49 408h424v-123h-322l-24 -188q56 24 122 24z" />
    <glyph glyph-name="uni2156" unicode="&#x2156;" horiz-adv-x="1732" 
d="M92 711v118l266 271q115 121 115 190q0 51 -35.5 83t-91.5 32q-92 0 -192 -92l-76 108q122 119 276 119q117 0 192 -69t75 -179q0 -111 -111 -231l-207 -217h326v-133h-537zM244 0l1183 1513h170l-1179 -1513h-174zM1374 524q121 0 199 -74t78 -190q0 -120 -86 -197
q-83 -77 -217 -77q-147 0 -275 96l62 111q104 -78 204 -78q73 0 121.5 42t48.5 105q0 62 -44 103t-113 41q-84 0 -146 -62l-82 59l50 408h423v-123h-321l-25 -188q55 24 123 24z" />
    <glyph glyph-name="uni2157" unicode="&#x2157;" horiz-adv-x="1695" 
d="M309 827q71 0 111.5 32t40.5 87q0 54 -42.5 86.5t-111.5 32.5h-104v125h98q62 0 102.5 30t40.5 80t-37.5 79.5t-93.5 29.5q-82 0 -174 -68l-71 103q104 96 260 96q115 0 189.5 -61.5t74.5 -153.5q0 -65 -39.5 -115.5t-106.5 -70.5v-4q77 -17 120.5 -70t43.5 -129
q0 -104 -83.5 -171t-213.5 -67q-139 0 -266 80l62 115q117 -66 200 -66zM203 0l1183 1513h173l-1180 -1513h-176zM1337 524q121 0 199 -74t78 -190q0 -120 -86 -197q-83 -77 -217 -77q-147 0 -275 96l62 111q104 -78 205 -78q73 0 121.5 42t48.5 105q0 62 -44.5 103
t-113.5 41q-84 0 -146 -62l-82 59l50 408h424v-123h-322l-25 -188q56 24 123 24z" />
    <glyph glyph-name="uni2158" unicode="&#x2158;" horiz-adv-x="1800" 
d="M600 711h-129v200h-379l-31 84l439 527h100v-494h90v-117h-90v-200zM303 0l1184 1513h170l-1180 -1513h-174zM471 1309l-235 -281h235v281zM1419 524q121 0 199 -74t78 -190q0 -120 -86 -197q-83 -77 -217 -77q-147 0 -275 96l62 111q104 -78 204 -78q73 0 121.5 42
t48.5 105q0 62 -44 103t-113 41q-84 0 -146 -62l-82 59l50 408h423v-123h-321l-25 -188q56 24 123 24z" />
    <glyph glyph-name="uni2159" unicode="&#x2159;" horiz-adv-x="1726" 
d="M305 709v600l-153 -123l-80 110l270 217h113v-804h-150zM147 0l1184 1513h172l-1179 -1513h-177zM1358 524q121 0 198.5 -74t77.5 -190q0 -120 -86 -197q-83 -77 -217 -77q-146 0 -274 96l61 111q104 -78 205 -78q73 0 121.5 42t48.5 105q0 62 -44.5 103t-113.5 41
q-83 0 -145 -62l-82 59l49 408h424v-123h-321l-25 -188q55 24 123 24z" />
    <glyph glyph-name="uni215A" unicode="&#x215a;" horiz-adv-x="1755" 
d="M336 825q73 0 121.5 42.5t48.5 105.5q0 62 -44.5 102.5t-113.5 40.5q-84 0 -145 -61l-82 59l49 408h424v-123h-322l-24 -189q58 25 123 25q121 0 198.5 -74t77.5 -190q0 -120 -86 -197q-84 -78 -217 -78q-145 0 -274 97l61 110q104 -78 205 -78zM225 0l1184 1513h172
l-1180 -1513h-176zM1364 524q117 0 193.5 -74.5t76.5 -189.5q0 -119 -83 -196.5t-212 -77.5q-153 0 -235 110q-82 113 -82 283q0 186 92 319q94 131 272 131q129 0 226 -69l-60 -105q-73 52 -157 52q-110 0 -172 -89q-63 -88 -66 -196q65 102 207 102zM1341 408
q-68 0 -112.5 -42t-44.5 -108q-4 -47 25 -84.5t71 -53.5t90 -9t80 41q35 32 42.5 79t-9 87t-55 67t-87.5 23z" />
    <glyph glyph-name="oneeighth" unicode="&#x215b;" horiz-adv-x="1775" 
d="M455 709h-150v600l-153 -123l-80 110l270 217h113v-804zM184 0l1184 1513h172l-1180 -1513h-176zM1532 434v-4q77 -26 122.5 -83.5t45.5 -125.5q0 -101 -85.5 -167t-223.5 -66q-139 0 -223.5 65t-84.5 168q0 67 45.5 124.5t120.5 86.5v2q-131 58 -131 178q0 94 76 155.5
t197 61.5t197.5 -61.5t76.5 -155.5q0 -119 -133 -178zM1253 598q0 -48 38.5 -80.5t99.5 -32.5q60 0 97.5 32.5t37.5 80.5q0 50 -37.5 82.5t-97.5 32.5t-99 -32.5t-39 -82.5zM1554 240q0 56 -44.5 92.5t-118.5 36.5q-73 0 -118.5 -36.5t-45.5 -92.5q0 -57 46.5 -95.5
t117.5 -38.5t117 38t46 96z" />
    <glyph glyph-name="threeeighths" unicode="&#x215c;" horiz-adv-x="1769" 
d="M311 698q-139 0 -266 80l61 115q117 -66 201 -66q71 0 111.5 32t40.5 87q0 54 -42.5 86.5t-111.5 32.5h-104v125h98q62 0 102.5 30t40.5 80t-37.5 79.5t-93.5 29.5q-82 0 -174 -68l-71 103q104 96 260 96q115 0 189.5 -61.5t74.5 -153.5q0 -65 -39.5 -115.5t-106.5 -70.5
v-4q77 -17 120.5 -70t43.5 -129q0 -104 -83.5 -171t-213.5 -67zM397 0h-176l1184 1513h172zM1079 221q0 67 45.5 124.5t120.5 86.5v2q-131 58 -131 178q0 95 75.5 156t196.5 61t198 -61.5t77 -155.5q0 -119 -133 -178v-4q77 -26 122.5 -83.5t45.5 -125.5q0 -101 -86 -167
t-224 -66q-139 0 -223 65t-84 168zM1522 598q0 50 -38 82.5t-98 32.5t-98.5 -32.5t-38.5 -82.5q0 -48 38 -80.5t99 -32.5q60 0 98 32.5t38 80.5zM1550 240q0 56 -45 92.5t-119 36.5q-73 0 -118 -36.5t-45 -92.5q0 -58 46 -96t117 -38t117.5 38.5t46.5 95.5z" />
    <glyph glyph-name="fiveeighths" unicode="&#x215d;" horiz-adv-x="1769" 
d="M336 825q73 0 121.5 42.5t48.5 105.5q0 62 -44.5 102.5t-113.5 40.5q-84 0 -145 -61l-82 59l49 408h424v-123h-322l-24 -189q58 25 123 25q121 0 198.5 -74t77.5 -190q0 -120 -86 -197q-84 -78 -217 -78q-145 0 -274 97l61 110q104 -78 205 -78zM221 0l1184 1513h172
l-1180 -1513h-176zM1528 434v-4q77 -26 122.5 -83.5t45.5 -125.5q0 -101 -86 -167t-224 -66q-139 0 -223 65t-84 168q0 67 45.5 124.5t120.5 86.5v2q-131 58 -131 178q0 95 75.5 156t196.5 61t198 -61.5t77 -155.5q0 -119 -133 -178zM1249 598q0 -48 38 -80.5t99 -32.5
q60 0 98 32.5t38 80.5q0 50 -38 82.5t-98 32.5t-98.5 -32.5t-38.5 -82.5zM1550 240q0 56 -45 92.5t-119 36.5q-73 0 -118 -36.5t-45 -92.5q0 -58 46 -96t117 -38t117.5 38.5t46.5 95.5z" />
    <glyph glyph-name="seveneighths" unicode="&#x215e;" horiz-adv-x="1667" 
d="M260 711h-151l309 678h-375v124h537v-94zM100 0l1184 1513h170l-1180 -1513h-174zM1425 434v-4q77 -26 122.5 -83.5t45.5 -125.5q0 -101 -85.5 -167t-223.5 -66q-139 0 -223 65t-84 168q0 67 45.5 124.5t120.5 86.5v2q-131 58 -131 178q0 95 75.5 156t196.5 61t198 -61.5
t77 -155.5q0 -119 -134 -178zM1147 598q0 -48 38 -80.5t99 -32.5q60 0 97.5 32.5t37.5 80.5q0 50 -37.5 82.5t-97.5 32.5t-98.5 -32.5t-38.5 -82.5zM1448 240q0 56 -45 92.5t-119 36.5q-73 0 -118.5 -36.5t-45.5 -92.5q0 -57 46.5 -95.5t117.5 -38.5t117.5 38.5t46.5 95.5z
" />
    <glyph glyph-name="partialdiff" unicode="&#x2202;" horiz-adv-x="1280" 
d="M596 -25q-220 0 -365 148t-145 369q0 223 141 370q144 150 357 150q136 0 248 -69.5t163 -182.5q-9 223 -157 424q-143 201 -402 317l115 129q175 -79 321 -225q138 -130 222.5 -311t85.5 -404q0 -307 -166 -512q-167 -203 -418 -203zM598 147q142 0 242 103
q98 101 98 250q0 147 -98 241q-94 99 -236 99q-143 0 -237 -101q-95 -103 -95 -247q0 -140 93 -244q91 -101 233 -101z" />
    <glyph glyph-name="product" unicode="&#x220f;" horiz-adv-x="1503" 
d="M74 1503h1358v-198h-199v-1547h-203v1547h-555v-1547h-205v1547h-196v198z" />
    <glyph glyph-name="summation" unicode="&#x2211;" horiz-adv-x="1306" 
d="M1235 -367h-1141v181l447 757l-447 762v180h1141v-202h-889l426 -740l-426 -735h889v-203z" />
    <glyph glyph-name="minus" unicode="&#x2212;" horiz-adv-x="1232" 
d="M1090 600h-947v184h947v-184z" />
    <glyph glyph-name="radical" unicode="&#x221a;" horiz-adv-x="1390" 
d="M748 -242h-170l-349 885h-227v186h375l289 -757l536 1583h221z" />
    <glyph glyph-name="infinity" unicode="&#x221e;" horiz-adv-x="1869" 
d="M1380 1147q156 0 273 -117q116 -113 116 -274q0 -162 -118 -277q-117 -117 -275 -117q-107 0 -205 64t-237 215q-141 -153 -241 -216t-208 -63q-155 0 -272 117t-117 277t117 274q120 117 279 117q104 0 204 -62q99 -60 240 -213q137 150 238 212.5t206 62.5zM487 520
q76 0 146 49t196 187q-131 137 -198 184q-70 49 -133 49q-97 0 -166 -69q-68 -71 -68 -168t64 -164q65 -68 159 -68zM1368 520q95 0 166 68q70 70 70 170q0 95 -66 164q-64 67 -160 67q-75 0 -145 -49q-68 -45 -195 -184q127 -139 195 -189q68 -47 135 -47z" />
    <glyph glyph-name="integral" unicode="&#x222b;" horiz-adv-x="878" 
d="M180 -430q-120 0 -223 65l61 152q70 -43 144 -43q84 0 134 56.5t50 174.5v1313q0 188 96 294t252 106q121 0 230 -68l-66 -152q-68 45 -143 45q-84 0 -133.5 -57.5t-49.5 -175.5v-1313q0 -187 -97.5 -292t-254.5 -105z" />
    <glyph glyph-name="approxequal" unicode="&#x2248;" horiz-adv-x="1347" 
d="M881 809q-97 0 -236 68q-132 69 -192 69q-62 0 -107.5 -28t-97.5 -95l-125 92q117 203 342 203q98 0 233 -69q137 -70 195 -70q64 0 108.5 28t96.5 97l127 -94q-121 -201 -344 -201zM885 406q-99 0 -236 67q-134 70 -192 70q-62 0 -107.5 -28t-97.5 -95l-125 92
q117 203 342 203q96 0 233 -70t195 -70q64 0 108.5 28t96.5 97l127 -94q-120 -200 -344 -200z" />
    <glyph glyph-name="notequal" unicode="&#x2260;" horiz-adv-x="1232" 
d="M1090 938v-176h-357l-82 -182h439v-177h-519l-102 -229h-156l103 229h-273v177h353l82 182h-435v176h512l105 231h155l-104 -231h279z" />
    <glyph glyph-name="lessequal" unicode="&#x2264;" horiz-adv-x="1208" 
d="M1051 594v-201l-920 410v119l920 405v-199l-648 -266zM1051 287v-172h-936v172h936z" />
    <glyph glyph-name="greaterequal" unicode="&#x2265;" horiz-adv-x="1208" 
d="M1077 803l-919 -410v201l647 268l-647 266v199l919 -405v-119zM1094 115h-936v172h936v-172z" />
    <glyph glyph-name="lozenge" unicode="&#x25ca;" horiz-adv-x="1435" 
d="M797 -86h-158l-573 856l573 852h158l573 -852zM293 774l424 -653l426 653l-426 645z" />
    <glyph glyph-name="NULL" horiz-adv-x="0" 
 />
    <glyph glyph-name="Euro.osf" horiz-adv-x="1161" 
d="M874 420h-516q45 -135 158.5 -214t267.5 -79q165 0 328 88v-160q-153 -78 -336 -78q-218 0 -383 121q-158 119 -211 322h-174l60 133h94q-2 8 -2 39v35h-144l58 133h106q52 202 219 325t381 123q222 0 389 -112l-77 -129q-137 94 -301 94q-146 0 -263.5 -82.5
t-167.5 -218.5h656l-66 -133h-616q-2 -12 -2 -37t2 -37h596z" />
    <glyph glyph-name="I_J.loclNLD" horiz-adv-x="1720" 
d="M190 0v1513h205v-1513h-205zM1038 -25q-263 0 -434 195l125 149q122 -149 309 -149q136 0 218.5 87.5t82.5 244.5v1011h205v-1021q0 -246 -141 -381q-139 -136 -365 -136z" />
    <glyph glyph-name="Iacute_J.loclNLD" horiz-adv-x="1720" 
d="M379 1626h-172l121 344h241zM1520 1624h-172l120 344h242zM190 0v1513h205v-1513h-205zM1038 -25q-263 0 -434 195l125 149q122 -149 309 -149q136 0 218.5 87.5t82.5 244.5v1011h205v-1021q0 -246 -141 -381q-139 -136 -365 -136z" />
    <glyph glyph-name="J.loclNLD" horiz-adv-x="1142" 
d="M942 1624h-172l121 344h242zM461 -25q-263 0 -434 195l125 149q122 -149 309 -149q136 0 218.5 87.5t82.5 244.5v1011h205v-1021q0 -245 -142 -381q-139 -136 -364 -136z" />
    <glyph glyph-name="Jacute" horiz-adv-x="1142" 
d="M948 1624h-172l121 344h242zM461 -25q-263 0 -434 195l125 149q122 -149 309 -149q136 0 218.5 87.5t82.5 244.5v1011h205v-1021q0 -245 -142 -381q-139 -136 -364 -136z" />
    <glyph glyph-name="_1" horiz-adv-x="0" 
 />
    <glyph glyph-name="a.ss02" horiz-adv-x="1173" 
d="M547 1124q213 0 350 -116q139 -115 139 -344v-664h-184v147q-125 -180 -381 -180q-185 0 -297 103q-111 102 -111 258t123.5 249t350.5 93q223 0 311 16q-21 260 -305 260q-182 0 -336 -98l-90 145q75 58 191 94.5t239 36.5zM489 145q155 0 250 105q98 113 107 268
q-66 -14 -217 -14q-200 0 -282.5 -36t-82.5 -140q0 -85 62.5 -134t162.5 -49z" />
    <glyph glyph-name="aacute.ss02" horiz-adv-x="1173" 
d="M592 1618h239l-190 -342h-170zM547 1124q213 0 350 -116q139 -115 139 -344v-664h-184v147q-125 -180 -381 -180q-185 0 -297 103q-111 102 -111 258t123.5 249t350.5 93q223 0 311 16q-21 260 -305 260q-182 0 -336 -98l-90 145q75 58 191 94.5t239 36.5zM489 145
q155 0 250 105q98 113 107 268q-66 -14 -217 -14q-200 0 -282.5 -36t-82.5 -140q0 -85 62.5 -134t162.5 -49z" />
    <glyph glyph-name="abreve.ss02" horiz-adv-x="1173" 
d="M217 1618h168q1 -96 51 -149.5t137 -53.5t137.5 53.5t51.5 149.5h170q-3 -165 -103 -258q-101 -96 -256 -96q-158 0 -254.5 96.5t-101.5 257.5zM547 1124q213 0 350 -116q139 -115 139 -344v-664h-184v147q-125 -180 -381 -180q-185 0 -297 103q-111 102 -111 258
t123.5 249t350.5 93q223 0 311 16q-21 260 -305 260q-182 0 -336 -98l-90 145q75 58 191 94.5t239 36.5zM489 145q155 0 250 105q98 113 107 268q-66 -14 -217 -14q-200 0 -282.5 -36t-82.5 -140q0 -85 62.5 -134t162.5 -49z" />
    <glyph glyph-name="acircumflex.ss02" horiz-adv-x="1173" 
d="M721 1272l-148 184l-147 -184h-209l287 336h141l287 -336h-211zM547 1124q213 0 350 -116q139 -115 139 -344v-664h-184v147q-125 -180 -381 -180q-185 0 -297 103q-111 102 -111 258t123.5 249t350.5 93q223 0 311 16q-21 260 -305 260q-182 0 -336 -98l-90 145
q75 58 191 94.5t239 36.5zM489 145q155 0 250 105q98 113 107 268q-66 -14 -217 -14q-200 0 -282.5 -36t-82.5 -140q0 -85 62.5 -134t162.5 -49z" />
    <glyph glyph-name="acute.case" horiz-adv-x="643" 
d="M254 1626h-172l121 344h241z" />
    <glyph glyph-name="adieresis.ss02" horiz-adv-x="1173" 
d="M373 1266q-62 0 -103 40t-41 103q0 57 41.5 96t102.5 39q57 0 97 -39t40 -96q0 -61 -40 -102t-97 -41zM778 1266q-61 0 -101 40.5t-40 102.5q0 57 40.5 96t100.5 39t100 -39t40 -96q0 -61 -40 -102t-100 -41zM547 1124q213 0 350 -116q139 -115 139 -344v-664h-184v147
q-125 -180 -381 -180q-185 0 -297 103q-111 102 -111 258t123.5 249t350.5 93q223 0 311 16q-21 260 -305 260q-182 0 -336 -98l-90 145q75 58 191 94.5t239 36.5zM489 145q155 0 250 105q98 113 107 268q-66 -14 -217 -14q-200 0 -282.5 -36t-82.5 -140q0 -85 62.5 -134
t162.5 -49z" />
    <glyph glyph-name="agrave.ss02" horiz-adv-x="1173" 
d="M563 1618l121 -342h-170l-190 342h239zM547 1124q213 0 350 -116q139 -115 139 -344v-664h-184v147q-125 -180 -381 -180q-185 0 -297 103q-111 102 -111 258t123.5 249t350.5 93q223 0 311 16q-21 260 -305 260q-182 0 -336 -98l-90 145q75 58 191 94.5t239 36.5z
M489 145q155 0 250 105q98 113 107 268q-66 -14 -217 -14q-200 0 -282.5 -36t-82.5 -140q0 -85 62.5 -134t162.5 -49z" />
    <glyph glyph-name="amacron.ss02" horiz-adv-x="1173" 
d="M256 1481h629v-174l-629 -2v176zM547 1124q213 0 350 -116q139 -115 139 -344v-664h-184v147q-125 -180 -381 -180q-185 0 -297 103q-111 102 -111 258t123.5 249t350.5 93q223 0 311 16q-21 260 -305 260q-182 0 -336 -98l-90 145q75 58 191 94.5t239 36.5zM489 145
q155 0 250 105q98 113 107 268q-66 -14 -217 -14q-200 0 -282.5 -36t-82.5 -140q0 -85 62.5 -134t162.5 -49z" />
    <glyph glyph-name="aogonek.ss02" horiz-adv-x="1173" 
d="M991 -334l76 -139q-92 -59 -195 -59q-108 0 -173.5 63t-65.5 162q0 176 219 309v145q-125 -180 -381 -180q-185 0 -297 103q-111 102 -111 258t123.5 249t350.5 93q223 0 311 16q-21 260 -305 260q-182 0 -336 -98l-90 145q75 58 191 94.5t239 36.5q213 0 350 -116
q139 -115 139 -344v-664q-99 -43 -163 -116t-64 -142q0 -44 27 -72t71 -28q41 0 84 24zM489 145q155 0 250 105q98 113 107 268q-66 -14 -217 -14q-200 0 -282.5 -36t-82.5 -140q0 -85 62.5 -134t162.5 -49z" />
    <glyph glyph-name="aring.ss02" horiz-adv-x="1173" 
d="M745 1298q-68 -65 -167 -65t-170 65q-70 67 -70 164t70 164q71 68 170 68t167 -68q70 -67 70 -164t-70 -164zM578 1573q-47 0 -80 -31.5t-33 -75.5q0 -49 32.5 -80.5t80.5 -31.5q45 0 76.5 31.5t31.5 80.5q0 43 -32.5 75t-75.5 32zM547 1124q213 0 350 -116
q139 -115 139 -344v-664h-184v147q-125 -180 -381 -180q-185 0 -297 103q-111 102 -111 258t123.5 249t350.5 93q223 0 311 16q-21 260 -305 260q-182 0 -336 -98l-90 145q75 58 191 94.5t239 36.5zM489 145q155 0 250 105q98 113 107 268q-66 -14 -217 -14
q-200 0 -282.5 -36t-82.5 -140q0 -85 62.5 -134t162.5 -49z" />
    <glyph glyph-name="at.case" horiz-adv-x="1994" 
d="M1264 1057v102h157v-565q0 -68 32.5 -109t82.5 -41q93 0 158 109q67 107 67 274q0 284 -217 486q-218 206 -524 203q-317 0 -535 -226q-219 -227 -219 -549q0 -321 230 -548q232 -226 567 -226q321 0 569 201l84 -129q-122 -101 -293 -162q-180 -67 -374 -67
q-193 0 -371.5 73.5t-308.5 200.5q-127 127 -201 299t-74 354q0 388 271 662t651 274q372 0 639 -252q268 -253 268 -594q0 -227 -121 -378q-122 -152 -293 -152q-90 0 -150.5 45t-78.5 115q-118 -160 -328 -160q-176 0 -297 127q-120 126 -120 317q0 190 122 318
q125 131 306 131q192 0 301 -133zM1262 739q0 129 -80 215q-77 86 -199 86q-120 0 -203 -86q-80 -83 -80 -211t78 -215q81 -84 201 -84t201 84q82 85 82 211z" />
    <glyph glyph-name="atilde.ss02" horiz-adv-x="1173" 
d="M453 1389q-73 0 -121 -97l-127 60q26 93 90 144.5t151 51.5q70 0 156 -45t129 -45q75 0 119 92l123 -57q-24 -93 -88 -145t-150 -52q-67 0 -153 45q-91 48 -129 48zM547 1124q213 0 350 -116q139 -115 139 -344v-664h-184v147q-125 -180 -381 -180q-185 0 -297 103
q-111 102 -111 258t123.5 249t350.5 93q223 0 311 16q-21 260 -305 260q-182 0 -336 -98l-90 145q75 58 191 94.5t239 36.5zM489 145q155 0 250 105q98 113 107 268q-66 -14 -217 -14q-200 0 -282.5 -36t-82.5 -140q0 -85 62.5 -134t162.5 -49z" />
    <glyph glyph-name="backslash.case" horiz-adv-x="1114" 
d="M236 1513l831 -1513h-193l-831 1513h193z" />
    <glyph glyph-name="braceleft.case" horiz-adv-x="774" 
d="M254 743v-8q96 -31 158.5 -105.5t62.5 -174.5q0 -80 -8 -213t-8 -213q0 -193 194 -193h68v-164h-88q-361 0 -361 361q0 56 7 231q8 133 8 197q0 110 -80 155q-36 23 -66.5 34t-89.5 24v133q61 13 90.5 23t65.5 32q80 48 80 158q0 64 -8 197q-7 175 -7 233q0 356 363 356
h86v-164h-68q-194 0 -194 -190q0 -82 8 -215t8 -211q0 -100 -63 -176t-158 -107z" />
    <glyph glyph-name="braceright.case" horiz-adv-x="776" 
d="M520 735v8q-95 31 -158 107.5t-63 175.5q0 78 8 211t8 215q0 190 -194 190h-68v164h88q178 0 270.5 -90t92.5 -266q0 -100 -8 -233q-7 -175 -7 -197q0 -108 78 -158q35 -21 65.5 -31t92.5 -24v-133q-60 -13 -91 -24t-67 -34q-78 -47 -78 -155q0 -22 7 -197q8 -133 8 -231
q0 -177 -93 -269t-268 -92h-90v164h68q194 0 194 193q0 82 -8 215t-8 211q0 101 63 177t158 103z" />
    <glyph glyph-name="bracketleft.case" horiz-adv-x="776" 
d="M735 -319h-545v2125h545v-161h-342v-1803h342v-161z" />
    <glyph glyph-name="bracketright.case" horiz-adv-x="776" 
d="M584 -319h-543v161h342v1803h-342v161h543v-2125z" />
    <glyph glyph-name="breve.case" horiz-adv-x="913" 
d="M440 1614q-159 0 -256.5 96t-101.5 260h170q1 -96 52 -150.5t136 -54.5q87 0 138.5 54.5t52.5 150.5h170q-1 -163 -100.5 -259.5t-260.5 -96.5z" />
    <glyph glyph-name="brevecombcy" horiz-adv-x="0" 
d="M-444 1227q-237 0 -406 211l109 118q137 -165 297 -165q163 0 297 165l112 -118q-175 -211 -409 -211z" />
    <glyph glyph-name="caron.alt" horiz-adv-x="616" 
d="M223 1272h-164l115 342h217z" />
    <glyph glyph-name="caron.case" horiz-adv-x="993" 
d="M418 1618l-287 336h209l147 -185l148 185h211l-287 -336h-141z" />
    <glyph glyph-name="cedilla.case" horiz-adv-x="645" 
d="M354 -98h17q90 0 150.5 -51.5t60.5 -137.5q0 -97 -71.5 -162t-195.5 -65q-106 0 -233 59l51 129q87 -43 166 -43q56 0 87.5 25.5t31.5 64.5q0 74 -107 74h-114l-19 45l80 201l152 -4z" />
    <glyph glyph-name="circumflex.case" horiz-adv-x="993" 
d="M289 1628h-211l289 338h141l289 -338h-213l-148 187z" />
    <glyph glyph-name="colon.case" horiz-adv-x="550" 
d="M145 1071q0 54 37.5 90.5t93.5 36.5t94 -36.5t38 -90.5q0 -57 -38 -95t-94 -38t-93.5 38t-37.5 95zM145 373q0 54 37.5 90.5t93.5 36.5t94 -36.5t38 -90.5q0 -57 -38 -95t-94 -38t-93.5 38t-37.5 95z" />
    <glyph glyph-name="comma.ss03" horiz-adv-x="421" 
d="M29 -360l145 604h195l-201 -604h-139z" />
    <glyph glyph-name="commaccent" horiz-adv-x="473" 
d="M260 -156q60 0 100.5 -43.5t40.5 -109.5q0 -175 -254 -338l-65 90q133 102 162 151h-4q-45 0 -80 36t-35 83q0 54 39 92.5t96 38.5z" />
    <glyph glyph-name="commaccent.case" horiz-adv-x="350" 
d="M260 -156q62 0 102.5 -43.5t40.5 -109.5q0 -173 -256 -340l-65 90q133 102 162 151h-4q-47 0 -81 35.5t-34 85.5q0 54 39 92.5t96 38.5z" />
    <glyph glyph-name="dieresis.case" horiz-adv-x="825" 
d="M221 1667q-56 0 -93.5 37t-37.5 92q0 51 38 87t93 36q51 0 87 -36t36 -87q0 -55 -36 -92t-87 -37zM588 1667q-56 0 -92.5 36.5t-36.5 92.5q0 51 37.5 87t91.5 36t89.5 -35.5t35.5 -87.5q0 -56 -35.5 -92.5t-89.5 -36.5z" />
    <glyph glyph-name="dollar.osf" horiz-adv-x="1005" 
d="M948 324q0 -133 -98 -224q-94 -91 -248 -116v-232h-170v228q-128 17 -227 82.5t-154 170.5l137 113q108 -196 324 -196q105 0 169 45.5t64 119.5q0 51 -32.5 83t-108.5 71q-31 15 -137 57q-68 28 -150 70q-196 114 -196 285q0 128 90.5 216t243.5 105v217h172v-221
q176 -34 291 -170l-125 -119q-108 129 -271 129q-94 0 -152.5 -39t-58.5 -106q0 -89 129 -154q15 -8 156 -69q103 -44 162 -74q190 -105 190 -272z" />
    <glyph glyph-name="dotaccent.case" horiz-adv-x="618" 
d="M225 1659q-62 0 -102.5 40t-40.5 101q0 60 40.5 98.5t102.5 38.5q57 0 98.5 -40t41.5 -97q0 -61 -41 -101t-99 -40z" />
    <glyph glyph-name="eight.dnom" horiz-adv-x="784" 
d="M84 221q0 67 45.5 124.5t120.5 86.5v2q-131 58 -131 178q0 95 75.5 156t196.5 61t198 -61.5t77 -155.5q0 -119 -134 -178v-4q77 -26 122.5 -83.5t45.5 -125.5q0 -101 -85.5 -167t-223.5 -66q-139 0 -223 65t-84 168zM526 598q0 50 -37.5 82.5t-97.5 32.5t-98.5 -32.5
t-38.5 -82.5q0 -48 38 -80.5t99 -32.5q60 0 97.5 32.5t37.5 80.5zM555 240q0 56 -45 92.5t-119 36.5q-73 0 -118.5 -36.5t-45.5 -92.5q0 -57 46.5 -95.5t117.5 -38.5t117.5 38.5t46.5 95.5z" />
    <glyph glyph-name="eight.lf" horiz-adv-x="1280" 
d="M641 -25q-241 0 -391 123q-152 125 -152 310q0 128 81 235t216 158v4q-109 51 -171 141t-62 197q0 169 133 284q131 113 346 113q213 0 344 -113q133 -115 133 -284q0 -108 -62 -197.5t-173 -140.5v-6q136 -49 217.5 -156t81.5 -235q0 -185 -152 -310
q-150 -123 -389 -123zM922 1124q0 106 -78.5 175t-202.5 69q-128 0 -207.5 -68.5t-79.5 -175.5q0 -104 79 -172.5t206 -68.5t205 68.5t78 172.5zM641 154q149 0 243.5 78.5t94.5 201.5q0 120 -93 196.5t-245 76.5q-154 0 -248 -76.5t-94 -196.5q0 -123 95 -201.5t247 -78.5z
" />
    <glyph glyph-name="eight.num" horiz-adv-x="784" 
d="M84 932q0 67 45.5 124.5t120.5 86.5v2q-131 58 -131 178q0 95 75.5 156t196.5 61t198 -61.5t77 -155.5q0 -119 -134 -178v-4q77 -26 122.5 -83.5t45.5 -125.5q0 -101 -85.5 -167.5t-223.5 -66.5t-222.5 65t-84.5 169zM526 1309q0 50 -37.5 82t-97.5 32t-98.5 -32
t-38.5 -82q0 -48 38 -80.5t99 -32.5q60 0 97.5 32.5t37.5 80.5zM555 950q0 56 -45 92.5t-119 36.5q-73 0 -118.5 -36.5t-45.5 -92.5q0 -57 46 -95t118 -38t118 38t46 95z" />
    <glyph glyph-name="eight.osf" horiz-adv-x="1267" 
d="M635 -23q-241 0 -391 117q-152 119 -152 297q0 122 81 225t216 150v4q-110 51 -171.5 136.5t-61.5 185.5q0 163 133 272t346 109q211 0 344 -109t133 -272q0 -100 -64 -186t-174 -136v-6q139 -47 220 -150q82 -101 82 -223q0 -175 -152 -297q-150 -117 -389 -117z
M915 1075q0 101 -77 166.5t-203 65.5q-128 0 -207.5 -65.5t-79.5 -166.5q0 -100 79 -165.5t206 -65.5t204.5 65.5t77.5 165.5zM635 150q149 0 243.5 74.5t94.5 191.5q0 114 -93 187t-245 73q-154 0 -249 -73t-95 -187q0 -117 96 -191.5t248 -74.5z" />
    <glyph glyph-name="eight.tf" horiz-adv-x="1216" 
d="M608 -25q-241 0 -391 123q-151 124 -151 310q0 128 80.5 235t215.5 158v4q-109 51 -171 141t-62 197q0 169 133 284q131 113 346 113q213 0 344 -113q133 -115 133 -284q0 -108 -62 -197.5t-173 -140.5v-6q136 -49 217.5 -156t81.5 -235q0 -185 -152 -310
q-150 -123 -389 -123zM889 1124q0 106 -78.5 175t-202.5 69q-128 0 -207 -68.5t-79 -175.5q0 -104 78.5 -172.5t205.5 -68.5t205 68.5t78 172.5zM608 154q149 0 243.5 78.5t94.5 201.5q0 120 -93 196.5t-245 76.5q-154 0 -248 -76.5t-94 -196.5q0 -123 95 -201.5t247 -78.5z
" />
    <glyph glyph-name="eight_fraction_nine" horiz-adv-x="1738" 
d="M696 932q0 -101 -85.5 -167.5t-223.5 -66.5t-222.5 65t-84.5 169q0 67 45.5 124.5t120.5 86.5v2q-131 58 -131 178q0 95 75.5 156t196.5 61t198 -61.5t77 -155.5q0 -119 -134 -178v-4q77 -26 122.5 -83.5t45.5 -125.5zM209 -2l1184 1513h170l-1180 -1513h-174zM250 1309
q0 -48 38 -80.5t99 -32.5q60 0 97.5 32.5t37.5 80.5q0 50 -37.5 82t-97.5 32t-98.5 -32t-38.5 -82zM223 950q0 -57 46 -95t118 -38t118 38t46 95q0 56 -45 92.5t-119 36.5q-73 0 -118.5 -36.5t-45.5 -92.5zM1352 829q151 0 231 -106.5t80 -290.5q0 -189 -90 -317
q-89 -127 -264 -127q-143 0 -228 67l54 107q74 -51 165 -51q107 0 167 78.5t65 207.5q-72 -106 -207 -106q-121 0 -194.5 73t-73.5 189q0 122 82.5 199t212.5 77zM1348 408q66 0 110.5 42t44.5 105q0 66 -43.5 110t-109.5 44q-67 0 -111.5 -44t-44.5 -110t43 -106.5
t111 -40.5z" />
    <glyph glyph-name="emdash.case" horiz-adv-x="2136" 
d="M1993 680h-1850v197h1850v-197z" />
    <glyph glyph-name="endash.case" horiz-adv-x="1482" 
d="M1339 680h-1196v197h1196v-197z" />
    <glyph glyph-name="exclamdown.case" horiz-adv-x="585" 
d="M317 1548q55 0 92 -38t37 -95q0 -54 -37.5 -90.5t-91.5 -36.5q-57 0 -95 36.5t-38 90.5q0 57 38 95t95 38zM207 6l8 1149h197l12 -1149h-217z" />
    <glyph glyph-name="five.dnom" horiz-adv-x="710" 
d="M360 524q121 0 199 -74t78 -190q0 -120 -86 -197q-83 -77 -217 -77q-147 0 -275 96l62 111q104 -78 205 -78q73 0 121.5 42t48.5 105q0 62 -44.5 103t-113.5 41q-83 0 -145 -62l-82 59l49 408h424v-123h-322l-24 -188q55 24 122 24z" />
    <glyph glyph-name="five.lf" horiz-adv-x="1171" 
d="M584 987q219 0 362 -143q146 -143 146 -359q0 -220 -152 -366q-150 -144 -385 -144q-266 0 -485 183l96 159q184 -153 381 -153q148 0 244 90q94 91 94 229q0 137 -92 226q-92 92 -234 92q-163 0 -278 -121l-136 78l86 755h758v-182h-600l-51 -403q115 59 246 59z" />
    <glyph glyph-name="five.num" horiz-adv-x="710" 
d="M360 1235q121 0 199 -74t78 -190q0 -120 -86 -197q-84 -78 -217 -78q-146 0 -275 97l62 110q104 -78 205 -78q73 0 121.5 42.5t48.5 105.5q0 62 -44.5 102.5t-113.5 40.5q-84 0 -145 -61l-82 59l49 408h424v-123h-322l-24 -189q58 25 122 25z" />
    <glyph glyph-name="five.osf" horiz-adv-x="1134" 
d="M563 698q217 0 361 -129q143 -128 143 -329q0 -205 -149 -336q-151 -133 -383 -133q-271 0 -482 166l97 149q184 -141 378 -141q146 0 240 82t94 209q0 121 -92 204q-88 82 -231 82q-165 0 -277 -106l-133 71l86 693h750v-168h-594l-49 -369q110 55 241 55z" />
    <glyph glyph-name="five.tf" horiz-adv-x="1216" 
d="M604 987q220 0 363 -143q145 -142 145 -359q0 -221 -151 -366q-150 -144 -386 -144q-266 0 -485 183l96 159q184 -153 381 -153q148 0 244 90q94 91 94 229q0 137 -92 226q-92 92 -233 92q-164 0 -279 -121l-135 78l86 755h758v-182h-600l-52 -403q115 59 246 59z" />
    <glyph glyph-name="five_fraction_nine" horiz-adv-x="1736" 
d="M336 825q73 0 121.5 42.5t48.5 105.5q0 62 -44.5 102.5t-113.5 40.5q-84 0 -145 -61l-82 59l49 408h424v-123h-322l-24 -189q58 25 123 25q121 0 198.5 -74t77.5 -190q0 -120 -86 -197q-84 -78 -217 -78q-145 0 -274 97l61 110q104 -78 205 -78zM205 -2l1184 1513h170
l-1180 -1513h-174zM1348 829q151 0 231 -106.5t80 -290.5q0 -189 -90 -317q-89 -127 -264 -127q-143 0 -228 67l53 107q74 -51 166 -51q107 0 167 78.5t65 207.5q-72 -106 -207 -106q-121 0 -194.5 73t-73.5 189q0 122 82.5 199t212.5 77zM1343 408q66 0 111 42t45 105
q0 66 -43.5 110t-109.5 44q-67 0 -111.5 -44t-44.5 -110t42.5 -106.5t110.5 -40.5z" />
    <glyph glyph-name="five_fraction_seven" horiz-adv-x="1742" 
d="M346 825q73 0 121.5 42.5t48.5 105.5q0 62 -44.5 102.5t-113.5 40.5q-84 0 -145 -61l-82 59l49 408h424v-123h-321l-25 -189q58 25 123 25q121 0 198.5 -74t77.5 -190q0 -120 -86 -197q-84 -78 -217 -78q-145 0 -274 97l61 110q104 -78 205 -78zM219 0l1184 1513h172
l-1180 -1513h-176zM1106 678v125h536v-94l-319 -709h-152l310 678h-375z" />
    <glyph glyph-name="four.dnom" horiz-adv-x="749" 
d="M582 317h90v-116h-90v-201h-129v201h-379l-31 84l438 526h101v-494zM453 598l-236 -281h236v281z" />
    <glyph glyph-name="four.lf" horiz-adv-x="1216" 
d="M963 559h170v-178h-170v-381h-197v381h-705l-43 123l828 1009h117v-954zM766 1143l-477 -584h477v584z" />
    <glyph glyph-name="four.num" horiz-adv-x="749" 
d="M582 1028h90v-117h-90v-200h-129v200h-379l-31 84l438 527h101v-494zM453 1309l-236 -281h236v281z" />
    <glyph glyph-name="four.osf" horiz-adv-x="1208" 
d="M958 287h168v-160h-168v-328h-196v328h-684l-43 117l807 944h116v-901zM762 836l-465 -549h465v549z" />
    <glyph glyph-name="four.tf" horiz-adv-x="1216" 
d="M985 559h170v-178h-170v-381h-197v381h-704l-43 123l827 1009h117v-954zM788 1143l-477 -584h477v584z" />
    <glyph glyph-name="four_fraction_nine" horiz-adv-x="1853" 
d="M602 711h-129v200h-379l-31 84l439 527h100v-494h90v-117h-90v-200zM301 -2l1184 1513h172l-1180 -1513h-176zM473 1309l-235 -281h235v281zM1446 829q151 0 231 -106.5t80 -290.5q0 -189 -90 -317q-89 -127 -264 -127q-142 0 -227 67l53 107q74 -51 166 -51
q107 0 166.5 78.5t64.5 207.5q-72 -106 -207 -106q-121 0 -194.5 73t-73.5 189q0 122 82.5 199t212.5 77zM1442 408q66 0 110.5 42t44.5 105q0 66 -43.5 110t-109.5 44q-67 0 -111.5 -44t-44.5 -110t43 -106.5t111 -40.5z" />
    <glyph glyph-name="four_fraction_seven" horiz-adv-x="1794" 
d="M602 711h-129v200h-379l-31 84l439 527h100v-494h90v-117h-90v-200zM266 0l1184 1513h172l-1180 -1513h-176zM473 1309l-235 -281h235v281zM1151 678v125h537v-94l-320 -709h-151l309 678h-375z" />
    <glyph glyph-name="grave.case" horiz-adv-x="612" 
d="M324 1970l122 -344h-172l-192 344h242z" />
    <glyph glyph-name="guillemotleft.case" horiz-adv-x="1081" 
d="M582 362h-195l-291 416l291 416h195l-293 -416zM958 362h-194l-289 416l289 416h194l-288 -416z" />
    <glyph glyph-name="guillemotright.case" horiz-adv-x="1081" 
d="M604 778l-287 -416h-196l291 416l-291 416h196zM985 778l-291 -416h-194l293 416l-293 416h194z" />
    <glyph glyph-name="guilsinglleft.case" horiz-adv-x="702" 
d="M582 362h-195l-291 416l291 416h195l-293 -416z" />
    <glyph glyph-name="guilsinglright.case" horiz-adv-x="702" 
d="M606 778l-291 -416h-194l293 416l-293 416h194z" />
    <glyph glyph-name="hungarumlaut.case" horiz-adv-x="1042" 
d="M270 1626h-168l84 344h242zM633 1626h-168l98 344h244z" />
    <glyph glyph-name="hyphen.case" horiz-adv-x="1077" 
d="M934 680h-791v197h791v-197z" />
    <glyph glyph-name="i.loclTRK" horiz-adv-x="501" 
d="M254 1253q-62 0 -102.5 40.5t-40.5 101.5q0 60 40.5 98.5t102.5 38.5q57 0 98 -40t41 -97q0 -61 -40.5 -101.5t-98.5 -40.5zM348 1098v-1098h-196v1098h196z" />
    <glyph glyph-name="i_j.loclNLD" horiz-adv-x="1095" 
d="M254 1253q-62 0 -102.5 40.5t-40.5 101.5q0 60 40.5 98.5t102.5 38.5q57 0 98 -40t41 -97q0 -61 -40.5 -101.5t-98.5 -40.5zM797 1253q-62 0 -103 40.5t-41 101.5q0 60 41 98.5t103 38.5q57 0 98 -40t41 -97q0 -61 -40.5 -101.5t-98.5 -40.5zM348 1098v-1098h-196v1098
h196zM532 -469q-123 0 -194 45l39 164q82 -29 133 -29q188 0 188 226v1161h197v-1149q0 -200 -97 -309t-266 -109z" />
    <glyph glyph-name="iacute_j.loclNLD" horiz-adv-x="1048" 
d="M336 1276h-170l121 342h239zM893 1276h-170l121 342h239zM348 1098v-1098h-196v1098h196zM532 -469q-123 0 -194 45l39 164q82 -29 133 -29q188 0 188 226v1161h197v-1149q0 -200 -97 -309t-266 -109z" />
    <glyph glyph-name="j.loclNLD" horiz-adv-x="550" 
d="M299 1253q-62 0 -102.5 40.5t-40.5 101.5q0 60 40.5 98.5t102.5 38.5q57 0 98 -40t41 -97q0 -61 -40.5 -101.5t-98.5 -40.5zM35 -469q-124 0 -195 45l39 164q82 -29 133 -29q189 0 189 226v1161h196v-1149q0 -200 -96.5 -309t-265.5 -109z" />
    <glyph glyph-name="jacute" horiz-adv-x="550" 
d="M379 1276h-170l121 342h239zM35 -469q-124 0 -195 45l39 164q82 -29 133 -29q189 0 189 226v1161h196v-1149q0 -200 -96.5 -309t-265.5 -109z" />
    <glyph glyph-name="macron.case" horiz-adv-x="972" 
d="M784 1690l-694 -2v176h694v-174z" />
    <glyph glyph-name="nine.dnom" horiz-adv-x="768" 
d="M371 829q151 0 231 -106.5t80 -290.5q0 -189 -90 -317q-89 -127 -264 -127q-143 0 -228 67l54 107q74 -51 165 -51q107 0 167 78.5t65 207.5q-72 -106 -207 -106q-118 0 -193 73t-75 189q0 122 82.5 199t212.5 77zM367 408q66 0 110.5 42t44.5 105q0 66 -43.5 110
t-109.5 44q-67 0 -111.5 -44t-44.5 -110t43 -106.5t111 -40.5z" />
    <glyph glyph-name="nine.lf" horiz-adv-x="1253" 
d="M604 1540q264 0 402 -203q139 -201 139 -534q0 -133 -21.5 -253t-69 -226t-117 -183t-172.5 -121.5t-230 -44.5q-243 0 -394 127l78 158q141 -106 309 -106q89 0 161 34t121 91.5t82 136.5t47.5 166.5t14.5 183.5q-52 -100 -157 -161.5t-236 -61.5q-204 0 -340 139
q-135 138 -135 350q0 220 145 365q143 143 373 143zM911 1034q0 136 -90 232q-88 94 -221 94q-137 0 -225 -94q-90 -93 -90 -234q0 -137 88 -225t223 -88q133 0 223 90q92 89 92 225z" />
    <glyph glyph-name="nine.num" horiz-adv-x="768" 
d="M371 1540q151 0 231 -106.5t80 -290.5q0 -190 -90 -318q-89 -127 -264 -127q-142 0 -228 68l54 106q74 -51 165 -51q107 0 167 79t65 208q-73 -107 -207 -107q-118 0 -193 75t-75 188q0 122 82.5 199t212.5 77zM367 1118q66 0 110.5 42.5t44.5 105.5q0 66 -43.5 109.5
t-109.5 43.5q-67 0 -111.5 -43.5t-44.5 -109.5t43 -107t111 -41z" />
    <glyph glyph-name="nine.osf" horiz-adv-x="1222" 
d="M518 -229q-244 0 -393 116l78 154q141 -100 309 -100q89 0 161.5 32.5t121 87.5t81.5 130.5t47.5 158.5t14.5 174q-50 -98 -155 -156.5t-238 -58.5q-206 0 -340 131q-133 133 -133 332q0 210 143 344q144 135 373 135q263 0 401 -190q139 -192 139 -508
q0 -126 -22 -239.5t-69.5 -213.5t-117.5 -172.5t-173 -114.5t-228 -42zM584 1079q-138 0 -226 -88q-90 -87 -90 -219q0 -128 88 -213q90 -84 224 -84t223 86q92 86 92 213q0 125 -90 215t-221 90z" />
    <glyph glyph-name="nine.tf" horiz-adv-x="1216" 
d="M586 1540q263 0 401 -203q139 -201 139 -534q0 -133 -21.5 -253t-69 -226t-117 -183t-172.5 -121.5t-230 -44.5q-242 0 -393 127l78 158q141 -106 309 -106q89 0 161 34t121 91.5t82 136.5t47.5 166.5t14.5 183.5q-52 -100 -157 -161.5t-236 -61.5q-204 0 -340 139
q-135 138 -135 350q0 220 145 365q143 143 373 143zM893 1034q0 136 -90 232q-88 94 -221 94q-138 0 -226 -94q-90 -93 -90 -234q0 -137 88 -225t224 -88q133 0 223 90q92 89 92 225z" />
    <glyph glyph-name="ogonek.case" horiz-adv-x="663" 
d="M440 -334l76 -139q-92 -59 -194 -59q-108 0 -174 63t-66 162q0 204 283 342l120 -35q-99 -43 -163 -116t-64 -142q0 -44 27 -72t71 -28q40 0 84 24z" />
    <glyph glyph-name="one.dnom" horiz-adv-x="542" 
d="M35 586l270 217h113v-805h-150v600l-153 -123z" />
    <glyph glyph-name="one.lf" horiz-adv-x="790" 
d="M8 1153l428 360h162v-1513h-203v1241l-274 -229z" />
    <glyph glyph-name="one.num" horiz-adv-x="542" 
d="M37 1296l270 217h111v-802h-148v600l-155 -125z" />
    <glyph glyph-name="one.numalt" horiz-adv-x="675" 
d="M61 1296l271 217h112v-804h-149v600l-154 -123z" />
    <glyph glyph-name="one.osf" horiz-adv-x="962" 
d="M641 1192v-1024h295v-168h-862v168h372v786l-356 -235l-96 147l479 326h168z" />
    <glyph glyph-name="one.tf" horiz-adv-x="1216" 
d="M752 1513v-1325h325v-188h-866v188h338v1053l-275 -229l-112 141l428 360h162z" />
    <glyph glyph-name="parenleft.case" horiz-adv-x="808" 
d="M786 -164l-84 -147q-292 154 -454 432q-160 278 -160 620q0 346 160 621q161 279 454 434l84 -147q-485 -319 -485 -908q0 -583 485 -905z" />
    <glyph glyph-name="parenright.case" horiz-adv-x="808" 
d="M104 -311l-84 147q488 325 488 905q0 586 -488 908l82 147q296 -155 457 -434q160 -275 160 -621q0 -345 -160 -620q-161 -277 -455 -432z" />
    <glyph glyph-name="periodcentered.case" horiz-adv-x="522" 
d="M131 760q0 54 37.5 90.5t93.5 36.5t93.5 -36.5t37.5 -90.5q0 -57 -37.5 -95t-93.5 -38t-93.5 38t-37.5 95z" />
    <glyph glyph-name="questiondown.case" horiz-adv-x="1046" 
d="M733 1415q0 -54 -38.5 -90.5t-94.5 -36.5q-54 0 -91.5 36.5t-37.5 90.5q0 57 37 95t92 38q56 0 94.5 -38t38.5 -95zM510 1182h184v-150q0 -59 -22 -112t-58.5 -94.5t-80.5 -80.5t-87.5 -77.5t-80 -78t-58.5 -89t-22 -103.5q0 -108 78 -176.5t196 -68.5q166 0 311 161
l121 -137q-83 -96 -201 -152.5t-243 -56.5q-190 0 -324 119q-135 120 -135 305q0 89 41 170.5t107 140.5q24 22 74.5 64.5t77.5 67.5t59.5 61t47.5 70t15 69v148z" />
    <glyph glyph-name="quotedblbase.ss03" horiz-adv-x="964" 
d="M86 -301l145 604h195l-201 -604h-139zM541 -301l145 604h195l-201 -604h-139z" />
    <glyph glyph-name="quotedblleft.ss03" horiz-adv-x="917" 
d="M428 1702l-145 -604h-195l201 604h139zM887 1702l-146 -604h-194l201 604h139z" />
    <glyph glyph-name="quotedblright.ss03" horiz-adv-x="954" 
d="M88 1100l145 604h195l-201 -604h-139zM543 1100l145 604h195l-201 -604h-139z" />
    <glyph glyph-name="quoteleft.ss03" horiz-adv-x="483" 
d="M422 1702l-146 -604h-194l201 604h139z" />
    <glyph glyph-name="quoteright.ss03" horiz-adv-x="479" 
d="M104 1100l146 604h194l-200 -604h-140z" />
    <glyph glyph-name="quotesinglbase.ss03" horiz-adv-x="495" 
d="M27 -301l145 604h195l-201 -604h-139z" />
    <glyph glyph-name="ring.case" horiz-adv-x="667" 
d="M324 1593q-103 0 -172.5 67t-69.5 165q0 97 70 164t172 67q101 0 168 -67q69 -66 69 -164t-68.5 -165t-168.5 -67zM324 1714q45 0 76.5 33t31.5 82q0 43 -32.5 74.5t-75.5 31.5q-47 0 -80 -31t-33 -75q0 -49 32.5 -82t80.5 -33z" />
    <glyph glyph-name="semicolon.case" horiz-adv-x="589" 
d="M180 1075q0 54 37.5 90.5t93.5 36.5t94.5 -36.5t38.5 -90.5q0 -57 -38.5 -95t-94.5 -38t-93.5 38t-37.5 95zM303 526q62 0 101.5 -42.5t39.5 -108.5q0 -175 -254 -338l-63 88q127 94 152 135q5 5 14 23h-8q-47 0 -81 34.5t-34 81.5q0 51 39.5 89t93.5 38z" />
    <glyph glyph-name="semicolon.case.ss03" horiz-adv-x="589" 
d="M180 1075q0 54 37.5 90.5t93.5 36.5t94.5 -36.5t38.5 -90.5q0 -57 -38.5 -95t-94.5 -38t-93.5 38t-37.5 95zM57 -297l146 604h194l-200 -604h-140z" />
    <glyph glyph-name="semicolon.ss03" horiz-adv-x="548" 
d="M170 854q0 54 37.5 90.5t93.5 36.5t94.5 -36.5t38.5 -90.5q0 -57 -38.5 -95t-94.5 -38t-93.5 38t-37.5 95zM57 -360l146 604h194l-200 -604h-140z" />
    <glyph glyph-name="seven.dnom" horiz-adv-x="589" 
d="M29 678v125h536v-94l-319 -709h-152l309 678h-374z" />
    <glyph glyph-name="seven.lf" horiz-adv-x="1030" 
d="M43 1331v182h952v-120l-589 -1393h-220l578 1331h-721z" />
    <glyph glyph-name="seven.num" horiz-adv-x="589" 
d="M29 1389v124h536v-94l-319 -708h-152l309 678h-374z" />
    <glyph glyph-name="seven.osf" horiz-adv-x="1015" 
d="M33 1006v174h952v-117l-590 -1264h-219l576 1207h-719z" />
    <glyph glyph-name="seven.tf" horiz-adv-x="1216" 
d="M141 1331v182h987v-118l-690 -1395h-221l676 1331h-752z" />
    <glyph glyph-name="seven_fraction_nine" horiz-adv-x="1640" 
d="M258 711h-152l310 678h-375v124h537v-94zM66 -2l1183 1513h172l-1181 -1513h-174zM1249 829q151 0 231.5 -106.5t80.5 -290.5q0 -187 -91 -317q-89 -127 -264 -127q-142 0 -227 67l53 107q74 -51 166 -51q107 0 167 78.5t65 207.5q-72 -106 -207 -106q-121 0 -195 73
t-74 189q0 122 82.5 199t212.5 77zM1245 408q66 0 111 42t45 105q0 66 -44 110t-110 44q-67 0 -111 -44t-44 -110t42.5 -106.5t110.5 -40.5z" />
    <glyph glyph-name="six.dnom" horiz-adv-x="712" 
d="M389 524q117 0 193.5 -74.5t76.5 -189.5q0 -119 -82.5 -196.5t-211.5 -77.5q-154 0 -236 110q-82 113 -82 283q0 186 92 319q94 131 273 131q128 0 225 -69l-59 -105q-73 52 -158 52q-110 0 -172 -89q-63 -88 -66 -196q64 102 207 102zM367 408q-68 0 -113 -42t-45 -108
q-4 -47 25 -84.5t71 -53.5t90 -9t80 41q35 32 42.5 79t-9 87t-54.5 67t-87 23z" />
    <glyph glyph-name="six.lf" horiz-adv-x="1257" 
d="M655 -18q-267 0 -407 204q-142 207 -142 525q0 128 23.5 247.5t74 225.5t123 185t177 125t229.5 46q230 0 387 -127l-86 -153q-132 102 -289 102q-89 1 -164 -38t-125 -102t-85.5 -144t-51 -162.5t-14.5 -159.5v-8q48 104 153 166.5t238 62.5q204 0 340 -139
q135 -138 135 -351q0 -217 -145 -362q-143 -143 -371 -143zM657 164q135 0 224 92q92 95 92 231q0 134 -90 224q-88 88 -221 88q-136 0 -226 -90t-90 -224q0 -133 90 -229q89 -92 221 -92z" />
    <glyph glyph-name="six.num" horiz-adv-x="712" 
d="M389 1235q117 0 193.5 -74.5t76.5 -189.5q0 -119 -83 -197t-211 -78q-153 0 -236 111q-82 113 -82 283q0 186 92 319q94 131 273 131q127 0 225 -70l-59 -104q-71 51 -158 51q-111 0 -172 -88q-63 -88 -66 -196q65 102 207 102zM367 1118q-68 0 -113 -42t-45 -107
q-4 -47 25 -84.5t71 -54t90 -9.5t80 41q35 32 42.5 79t-9 87t-54.5 67t-87 23z" />
    <glyph glyph-name="six.osf" horiz-adv-x="1236" 
d="M635 -18q-267 0 -408 196t-141 500q0 101 17 197.5t50 185t86 163t121 129.5t158.5 86t194.5 31q226 0 385 -120l-86 -148q-134 96 -287 96q-148 0 -252 -98q-188 -174 -188 -477v-10q48 101 152 161t239 60q205 0 338 -133q135 -132 135 -336q0 -207 -145 -346
q-143 -137 -369 -137zM637 158q135 0 223 88q90 90 90 219q0 131 -88 213q-90 84 -221 84q-136 0 -225 -86q-90 -84 -90 -213q0 -127 90 -217q88 -88 221 -88z" />
    <glyph glyph-name="six.tf" horiz-adv-x="1216" 
d="M635 -18q-268 0 -408 204q-141 206 -141 525q0 128 23.5 247.5t74 225.5t123 185t177 125t229.5 46q230 0 387 -127l-86 -153q-132 102 -289 102q-89 1 -164 -38t-125 -102t-85.5 -144t-51 -162.5t-14.5 -159.5v-8q48 104 153 166.5t238 62.5q204 0 340 -139
q135 -138 135 -351q0 -217 -145 -362q-143 -143 -371 -143zM637 164q134 0 223 92q92 95 92 231q0 134 -90 224q-88 88 -221 88q-135 0 -225 -90t-90 -224q0 -133 90 -229q89 -92 221 -92z" />
    <glyph glyph-name="six_fraction_seven" horiz-adv-x="1755" 
d="M662 971q0 -119 -83 -197t-212 -78q-153 0 -236 111q-82 113 -82 283q0 186 92 319q94 131 273 131q127 0 225 -70l-59 -104q-71 51 -158 51q-111 0 -172 -88q-63 -88 -66 -196q65 102 207 102q117 0 194 -74.5t77 -189.5zM221 0l1184 1513h172l-1180 -1513h-176z
M211 969q-4 -47 25 -84.5t71 -54t90 -9.5t80 41q35 32 42.5 79t-9 87t-54.5 67t-87 23q-68 0 -113 -42t-45 -107zM1118 678v125h537v-94l-320 -709h-151l309 678h-375z" />
    <glyph glyph-name="slash.case" horiz-adv-x="1114" 
d="M238 0h-191l832 1513h192z" />
    <glyph glyph-name="sterling.osf" horiz-adv-x="966" 
d="M301 168h645v-168h-885v133q84 50 134.5 130t50.5 159q0 43 -25 110h-160v140h99q-33 79 -33 149q0 169 117 277q119 107 299 110q271 3 395 -237l-139 -82q-82 166 -250 166q-102 0 -167 -66.5t-65 -171.5q0 -69 33 -145h461v-140h-401q18 -50 18 -102q0 -153 -127 -262
z" />
    <glyph glyph-name="three.dnom" horiz-adv-x="677" 
d="M301 -12q-139 0 -266 80l61 114q115 -65 201 -65q71 0 111.5 32t40.5 87q0 54 -42.5 86t-111.5 32h-105v125h99q61 0 102 30.5t41 80.5t-37.5 79t-93.5 29q-83 0 -174 -67l-72 102q104 96 260 96q115 0 190 -62t75 -153q0 -65 -39.5 -115.5t-106.5 -70.5v-4
q77 -17 120.5 -70t43.5 -129q0 -104 -83 -170.5t-214 -66.5z" />
    <glyph glyph-name="three.lf" horiz-adv-x="1134" 
d="M508 -25q-244 0 -465 150l92 166q201 -127 371 -127q140 0 223.5 71t83.5 187q0 117 -87 190.5t-224 73.5h-187v182h185q125 0 204.5 68.5t79.5 177.5q0 108 -76 173t-194 65q-158 0 -332 -133l-104 143q82 82 203.5 130t248.5 48q204 0 334 -115q129 -114 129 -284
q0 -122 -72 -215.5t-190 -130.5v-9q136 -31 215.5 -132t79.5 -238q0 -194 -145 -318q-144 -123 -373 -123z" />
    <glyph glyph-name="three.num" horiz-adv-x="677" 
d="M301 698q-139 0 -266 80l61 115q117 -66 201 -66q71 0 111.5 32t40.5 87q0 54 -42.5 86.5t-111.5 32.5h-105v125h99q62 0 102.5 30t40.5 80t-37.5 79.5t-93.5 29.5q-82 0 -174 -68l-72 103q104 96 260 96q115 0 190 -62t75 -153q0 -65 -39.5 -115.5t-106.5 -70.5v-4
q77 -17 120.5 -70t43.5 -129q0 -104 -83.5 -171t-213.5 -67z" />
    <glyph glyph-name="three.osf" horiz-adv-x="1093" 
d="M487 -227q-244 0 -460 137l92 153q201 -116 368 -116q139 0 222.5 65t83.5 170q0 106 -86.5 173t-223.5 67h-186v172h184q123 0 203 62t80 159q0 98 -75.5 157.5t-192.5 59.5q-159 0 -330 -121l-105 136q79 75 200 118t249 43q205 0 332 -106q129 -105 129 -260
q0 -110 -72.5 -198t-189.5 -120v-8q136 -26 214 -118t78 -222q0 -178 -143 -291q-139 -112 -371 -112z" />
    <glyph glyph-name="three.tf" horiz-adv-x="1216" 
d="M539 -25q-245 0 -465 150l92 166q201 -127 371 -127q140 0 223.5 71t83.5 187q0 117 -87.5 190.5t-224.5 73.5h-186v182h184q125 0 205 69t80 177t-76 173t-194 65q-158 0 -332 -133l-104 143q82 82 203.5 130t248.5 48q204 0 334 -115q129 -114 129 -284
q0 -122 -72 -215.5t-190 -130.5v-9q136 -31 215.5 -132t79.5 -238q0 -193 -146 -318q-144 -123 -372 -123z" />
    <glyph glyph-name="three_fraction_seven" horiz-adv-x="1761" 
d="M317 827q71 0 111.5 32t40.5 87q0 54 -42.5 86.5t-111.5 32.5h-104v125h98q62 0 103 30t41 80t-37.5 79.5t-93.5 29.5q-83 0 -175 -68l-71 103q104 96 260 96q115 0 189.5 -61.5t74.5 -153.5q0 -66 -39.5 -116t-105.5 -70v-4q77 -17 120 -70t43 -129q0 -104 -83 -171
t-213 -67q-140 0 -267 80l62 115q117 -66 200 -66zM221 0l1184 1513h172l-1180 -1513h-176zM1126 678v125h537v-94l-320 -709h-151l309 678h-375z" />
    <glyph glyph-name="tilde.case" horiz-adv-x="1105" 
d="M209 1683l-127 60q26 93 90.5 144.5t151.5 51.5q69 0 155 -45q89 -45 131 -45q75 0 119 93l123 -58q-24 -93 -88 -144.5t-150 -51.5q-67 0 -153 45q-89 47 -129 47q-75 0 -123 -97z" />
    <glyph glyph-name="two.dnom" horiz-adv-x="704" 
d="M500 350l-207 -217h325v-133h-536v119l266 270q115 121 115 191q0 51 -35.5 82.5t-91.5 31.5q-93 0 -193 -92l-75 109q121 118 276 118q117 0 191.5 -68.5t74.5 -178.5q0 -113 -110 -232z" />
    <glyph glyph-name="two.lf" horiz-adv-x="1146" 
d="M813 653l-422 -465h651v-188h-944v170l486 520q131 136 186 224t55 182q0 112 -78 184t-196 72q-189 0 -367 -172l-112 145q218 215 483 215q207 0 338 -125t131 -330q0 -199 -211 -432z" />
    <glyph glyph-name="two.num" horiz-adv-x="704" 
d="M500 1061l-207 -217h325v-133h-536v118l266 271q115 121 115 190q0 51 -35.5 83t-91.5 32q-93 0 -193 -92l-75 108q122 119 276 119q117 0 191.5 -69t74.5 -179q0 -112 -110 -231z" />
    <glyph glyph-name="two.osf" horiz-adv-x="1087" 
d="M723 455l-326 -287h590v-168h-878v154l426 366q136 118 187.5 186t51.5 140q0 80 -62 130t-165 50q-95 0 -178.5 -43.5t-188.5 -138.5l-108 149q119 109 229 161t244 52q191 0 307 -104q119 -101 119 -256q0 -92 -57 -183t-191 -208z" />
    <glyph glyph-name="two.tf" horiz-adv-x="1216" 
d="M848 653l-422 -465h651v-188h-944v170l485 520q132 137 187 225t55 181q0 112 -78 184t-196 72q-189 0 -367 -172l-113 145q218 215 484 215q207 0 338 -125t131 -330q0 -199 -211 -432z" />
    <glyph glyph-name="two_fraction_nine" horiz-adv-x="1779" 
d="M90 711v118l266 271q115 121 115 190q0 51 -35.5 83t-91.5 32q-92 0 -192 -92l-76 108q122 119 276 119q117 0 191.5 -69t74.5 -179q0 -112 -110 -231l-207 -217h326v-133h-537zM252 0l1184 1513h172l-1182 -1513h-174zM1393 829q151 0 231 -106.5t80 -290.5
q0 -189 -90 -317q-89 -127 -264 -127q-143 0 -228 67l54 107q74 -51 165 -51q107 0 167 78.5t65 207.5q-72 -106 -207 -106q-121 0 -194.5 73t-73.5 189q0 122 82.5 199t212.5 77zM1389 408q66 0 110.5 42t44.5 105q0 66 -43.5 110t-109.5 44q-67 0 -111.5 -44t-44.5 -110
t43 -106.5t111 -40.5z" />
    <glyph glyph-name="two_fraction_seven" horiz-adv-x="1785" 
d="M100 711v118l267 271q114 120 114 190q0 51 -35.5 83t-91.5 32q-92 0 -192 -92l-76 108q122 119 276 119q117 0 192 -69t75 -179q0 -111 -111 -231l-207 -217h326v-133h-537zM264 0l1184 1513h172l-1182 -1513h-174zM1149 678v125h537v-94l-320 -709h-152l310 678h-375z
" />
    <glyph glyph-name="uni0414.ss01" horiz-adv-x="1511" 
d="M1274 1513v-1318h147v-502h-204v307h-951v-307h-203v502h117q130 207 209 852l57 466h828zM410 195h661v1122h-442l-13 -100q-100 -789 -206 -1022z" />
    <glyph glyph-name="uni0416.ss01" horiz-adv-x="1812" 
d="M1182 776l637 -776h-252l-559 692v-692h-201v692l-559 -692h-252l637 776l-613 737h240l547 -655v655h201v-655l546 655h240z" />
    <glyph glyph-name="uni041B.ss01" horiz-adv-x="1466" 
d="M135 -12q-54 0 -92 10l-14 188q37 -6 63 -6q111 0 176 92q73 96 135 426q12 62 29 197q6 48 14.5 122t8.5 75q4 37 20 217l21 204h778v-1513h-205v1317h-391q-11 -124 -16 -172l-19 -189q-3 -43 -18 -165q-15 -118 -27 -179q-12 -58 -33 -147q-37 -159 -100 -270
q-121 -207 -330 -207z" />
    <glyph glyph-name="uni0424.ss01" horiz-adv-x="1947" 
d="M1075 74v-238h-203v238q-355 9 -569 194q-219 189 -219 492q0 305 219 491q221 188 569 191v235h203v-235q337 -9 563 -197t226 -485q0 -300 -224 -490q-224 -187 -565 -196zM1075 1247v-981q247 3 412 142q166 138 166 352q0 218 -166 350q-166 134 -412 137zM295 760
q0 -224 160 -357q166 -134 417 -137v981q-251 -3 -415 -135q-162 -131 -162 -352z" />
    <glyph glyph-name="uni042A.ss01" horiz-adv-x="1527" 
d="M606 969h324q154 0 267 -49.5t169 -133.5q100 -143 100 -311q0 -200 -135 -338q-131 -137 -383 -137h-545v1323h-370v190h573v-544zM606 193h309q162 0 251 80t89 212q0 130 -83 210.5t-244 80.5h-322v-583z" />
    <glyph glyph-name="uni042C.ss01" horiz-adv-x="1314" 
d="M393 969h324q154 0 267 -49.5t169 -133.5q100 -143 100 -311q0 -200 -135 -338q-131 -137 -383 -137h-545v1513h203v-544zM393 193h309q162 0 251 80t89 212q0 130 -83 210.5t-244 80.5h-322v-583z" />
    <glyph glyph-name="uni0431.ss01" horiz-adv-x="1355" 
d="M727 1077q217 0 379 -149q164 -147 164 -402q0 -233 -160 -393q-157 -160 -403 -160q-126 0 -229 43t-171.5 113.5t-115 165.5t-67 196t-20.5 207q0 205 52 351q52 149 125 231q75 81 196 143q115 62 225 90l250 68q157 43 240 80v-199q-62 -28 -203 -71
q-48 -13 -130 -34t-136 -37t-109 -38q-92 -38 -155 -86q-64 -49 -110.5 -141.5t-63.5 -216.5q60 113 181 176t261 63zM709 154q154 0 258 110q106 112 106 268q0 153 -106 259q-105 108 -254 108q-148 0 -262 -102q-111 -102 -111 -260q0 -155 102 -269t267 -114z" />
    <glyph glyph-name="uni0432.ss01" horiz-adv-x="1179" 
d="M870 612q106 -24 165 -101.5t59 -182.5q0 -140 -99 -234q-94 -94 -270 -94h-573v1098h540q162 0 250 -82t88 -191q0 -75 -42.5 -131.5t-117.5 -81.5zM688 932h-348v-264h356q92 -4 131.5 65t-0.5 137t-139 62zM340 166h373q87 0 137.5 46.5t50.5 125.5q0 77 -48.5 124.5
t-139.5 47.5h-373v-344z" />
    <glyph glyph-name="uni0433.ss01" horiz-adv-x="886" 
d="M152 1098h718v-170h-522v-928h-196v1098z" />
    <glyph glyph-name="uni0434.ss01" horiz-adv-x="1298" 
d="M1100 1098v-924h112v-418h-184v244h-795v-244h-184v418h125q98 162 162 602l47 322h717zM549 926l-12 -74q-66 -493 -158 -678h526v752h-356z" />
    <glyph glyph-name="uni0436.ss01" horiz-adv-x="1468" 
d="M971 563l497 -563h-219l-428 487v-487h-174v487l-428 -487h-219l500 563l-480 535h211l416 -467v467h174v-465l416 465h211z" />
    <glyph glyph-name="uni0437.ss01" horiz-adv-x="1036" 
d="M479 -25q-231 0 -432 113l74 160q183 -98 352 -98q129 0 206 48t77 128q0 153 -252 153h-232v168h166q137 0 210 42.5t73 117.5q0 71 -61 108t-164 37q-154 0 -332 -100l-84 145q174 127 422 127q182 0 297 -86q114 -83 114 -207q0 -86 -61 -150t-170 -95v-6
q122 -25 195 -100t73 -179q0 -141 -129 -233q-131 -93 -342 -93z" />
    <glyph glyph-name="uni0438.ss01" horiz-adv-x="1306" 
d="M274 0h-122v1098h190v-797l692 797h119v-1098h-188v791z" />
    <glyph glyph-name="uni0439.ss01" horiz-adv-x="1306" 
d="M664 1171q-215 0 -365 191l98 106q125 -149 267 -149q149 0 268 149l100 -106q-156 -191 -368 -191zM274 0h-122v1098h190v-797l692 797h119v-1098h-188v791z" />
    <glyph glyph-name="uni043A.ss01" horiz-adv-x="1112" 
d="M1114 0h-250l-409 510l-107 -96v-414h-196v1098h196v-449l492 449h264l-508 -461z" />
    <glyph glyph-name="uni043B.ss01" 
d="M141 -10q-44 0 -75 8l-43 143q21 0 44 -2t25 -2q92 0 150 70q27 39 45 76q28 58 63 225q14 59 25 143l20 140l19 159l16 148h670v-1098h-197v928h-303l-12 -97l-13 -100l-12 -94q-11 -84 -14 -98q-12 -55 -17 -86q-8 -50 -22 -91q-52 -162 -92 -221q-100 -151 -277 -151z
" />
    <glyph glyph-name="uni043F.ss01" horiz-adv-x="1224" 
d="M152 1098h921v-1098h-196v928h-529v-928h-196v1098z" />
    <glyph glyph-name="uni0442.ss01" horiz-adv-x="960" 
d="M18 1098h924v-170h-364v-928h-195v928h-365v170z" />
    <glyph glyph-name="uni0444.ss01" horiz-adv-x="1681" 
d="M1597 547q0 -256 -184 -412q-186 -154 -483 -160v-292h-178v292q-304 6 -486 162t-182 412q0 259 186 414q190 158 482 161v295h178v-295q295 -6 481 -161t186 -416zM930 954v-813q216 3 350 113q133 109 133 299q0 185 -129.5 290.5t-353.5 110.5zM268 551
q0 -189 131.5 -297t352.5 -113v813q-224 -5 -354 -110.5t-130 -292.5z" />
    <glyph glyph-name="uni0446.ss01" horiz-adv-x="1292" 
d="M1241 -369h-190v369h-899v1098h196v-922h526v922h197v-922h170v-545z" />
    <glyph glyph-name="uni0448.ss01" horiz-adv-x="1835" 
d="M1683 0h-1531v1098h196v-922h471v922h197v-922h471v922h196v-1098z" />
    <glyph glyph-name="uni0449.ss01" horiz-adv-x="1902" 
d="M1683 1098v-922h168v-545h-188v369h-1511v1098h196v-922h471v922h197v-922h471v922h196z" />
    <glyph glyph-name="uni044A.ss01" horiz-adv-x="1234" 
d="M487 727h254q123 0 215.5 -33.5t137.5 -91.5q88 -103 88 -237q0 -150 -109 -259q-106 -106 -321 -106h-459v928h-266v170h460v-371zM487 168h242q258 0 258 201q0 83 -61.5 136.5t-182.5 53.5h-256v-391z" />
    <glyph glyph-name="uni044C.ss01" horiz-adv-x="1107" 
d="M346 727h268q123 0 215.5 -33.5t137.5 -91.5q88 -103 88 -237q0 -150 -109 -259q-106 -106 -321 -106h-473v1098h194v-371zM346 168h256q258 0 258 201q0 83 -61.5 136.5t-182.5 53.5h-270v-391z" />
    <glyph glyph-name="uni044E.ss01" horiz-adv-x="1728" 
d="M1069 1126q250 0 412 -168q164 -170 164 -407q0 -242 -164 -412q-163 -166 -412 -166q-229 0 -385 138t-186 348h-150v-459h-196v1098h196v-471h148q27 214 184 356q158 143 389 143zM1448 551q0 162 -111 276q-111 117 -268 117t-268 -117q-111 -114 -111 -276
q0 -164 111 -281q110 -116 268 -116t268 116q111 117 111 281z" />
    <glyph glyph-name="yen.osf" horiz-adv-x="970" 
d="M784 1192h201l-332 -592h234v-139h-303v-76h303v-139h-303v-246h-189v246h-303v139h303v76h-303v139h236l-330 592h203l291 -549z" />
    <glyph glyph-name="zero.dnom" horiz-adv-x="761" 
d="M629 111q-83 -121 -248 -121q-167 0 -250 121q-82 122 -82 299t82 299t250 122q166 0 248 -122q84 -125 84 -299t-84 -299zM561 410q0 127 -45.5 203.5t-134.5 76.5t-134.5 -76.5t-45.5 -203.5q0 -129 45 -205t135 -76t135 76t45 205z" />
    <glyph glyph-name="zero.lf" horiz-adv-x="1390" 
d="M696 -25q-155 0 -274.5 68t-188.5 188q-129 229 -129 527q0 297 129 526q69 120 188.5 188t274.5 68q127 0 229 -46.5t168 -122.5t110.5 -179.5t63.5 -211t19 -222.5t-19 -223t-63.5 -211t-110.5 -179.5t-168 -123t-229 -46.5zM1079 758q0 258 -94 424q-94 168 -289 168
q-194 0 -288 -168q-95 -167 -95 -424q0 -259 95 -426q94 -166 288 -166q195 0 289 166t94 426z" />
    <glyph glyph-name="zero.num" horiz-adv-x="761" 
d="M629 819q-83 -121 -248 -121q-167 0 -250 121q-82 122 -82 299t82 299q82 123 250 123q165 0 248 -123q84 -125 84 -299t-84 -299zM561 1118q0 127 -45.5 204t-134.5 77t-134.5 -77t-45.5 -204q0 -129 45 -204.5t135 -75.5t135 75.5t45 204.5z" />
    <glyph glyph-name="zero.osf" horiz-adv-x="1228" 
d="M846 29q-105 -54 -232 -54q-128 0 -233 54q-180 94 -248 338q-27 111 -27.5 226t25.5 223t90.5 198.5t159.5 142.5q103 53 233 53q129 0 232 -53q180 -95 248 -340q27 -112 27.5 -226.5t-25.5 -222t-90.5 -197.5t-159.5 -142zM922 592q0 203 -78.5 322.5t-227.5 119.5
q-155 0 -231 -123q-76 -119 -76 -319q0 -201 76 -320q77 -120 229 -120q149 0 228.5 119t79.5 321z" />
    <glyph glyph-name="zero.slash" horiz-adv-x="1390" 
d="M696 1540q127 0 229 -46.5t168 -122.5t110.5 -179.5t63.5 -211t19 -222.5t-19 -223t-63.5 -211t-110.5 -179.5t-168 -123t-229 -46.5q-155 0 -274.5 68t-188.5 188q-129 229 -129 527q0 297 129 526q69 120 188.5 188t274.5 68zM696 1364q-198 0 -297 -172
q-96 -172 -96 -434q0 -207 55 -350l594 841q-100 115 -256 115zM696 152q101 1 178.5 49t124.5 131.5t70 191t21 234.5q0 184 -48 323l-585 -833q93 -96 239 -96z" />
    <glyph glyph-name="zero.tf" horiz-adv-x="1216" 
d="M866 45q-110 -70 -258 -70q-147 0 -260 70q-190 119 -264 434q-31 133 -31 279t31 276q73 316 264 436q113 70 260 70q148 0 258 -70q196 -120 269 -436q31 -130 31 -275.5t-31 -279.5q-74 -314 -269 -434zM608 166q183 0 271 166q90 169 90 426q0 255 -90 424
q-88 168 -271 168q-182 0 -270 -168q-88 -166 -88 -424q-2 -168 34 -298t119 -211t205 -83z" />
    </font>
</defs>
</svg>
